osu file format v6

[General]
AudioFilename: YUI - Ruido.mp3
AudioLeadIn: 1996
PreviewTime: 20433
Countdown: 1
SampleSet: Normal
StackLeniency: 0.4
Mode: 0
LetterboxInBreaks: 1

[Editor]
DistanceSpacing: 0.600000023841858
BeatDivisor: 6
GridSize: 16

[Metadata]
Title:Ruido
Artist:YUI
Creator:VanMoNky
Version:Novice
Source:Can't Buy My Love
Tags:rock japan j-rock monkey

[Difficulty]
HPDrainRate:4
CircleSize:3
OverallDifficulty:2
SliderMultiplier:1.1
SliderTickRate:2

[Events]
//Background and Video events
0,0,"bg.jpg"
//Break Periods
2,18118,18855
2,25088,25513
2,31850,31963
//Storyboard Layer 0 (Background)
//Storyboard Layer 1 (Fail)
//Storyboard Layer 2 (Pass)
//Storyboard Layer 3 (Foreground)
//Storyboard Sound Samples
//Background Colour Transformations
3,100,64,0,64

[TimingPoints]
440,416.146483562214,4,2,0,21,1,0
7028,-100,4,1,0,69,0,0
20206,-100,4,1,0,40,0,0
33662,-100,4,1,0,50,0,0
37050,-100,4,1,0,70,0,1
50375,-100,4,1,0,70,0,0
50376,-100,4,1,0,70,0,1
50377,-100,4,1,0,70,0,0

[Colours]
Combo1 : 154,154,154
Combo2 : 3,137,3
Combo3 : 22,160,175
Combo4 : 193,4,4
Combo5 : 210,126,0

[HitObjects]
256,192,440,1,0
128,192,1272,1,0
128,64,2104,5,0
192,64,2520,1,0
256,64,2936,1,0
392,64,3769,5,0
392,192,4601,1,0
392,320,5433,5,0
328,320,5849,1,0
264,320,6266,2,0,B|264:64,1,220,0|4
192,96,7514,5,8
160,96,7722,1,8
64,96,8346,1,8
64,224,9179,5,8
96,224,9387,1,8
192,224,10011,1,8
192,352,10843,5,8
224,352,11051,1,8
320,352,11675,1,8
320,224,12508,5,8
288,224,12716,1,8
192,224,13340,1,8
192,352,14172,6,8,B|192:304|384:304|384:368,2,220
160,352,16045,1,8
64,352,16669,5,8
64,288,17085,1,0
64,224,17502,1,8
64,160,17918,1,8
48,192,20415,6,0,B|160:192,2,110,2|2|0
48,224,21455,1,2
48,320,22079,1,0
112,320,22495,1,2
176,320,22911,6,0,B|288:320,1,110,0|2
288,256,23744,1,0
288,192,24160,1,2
288,128,24576,2,0,B|288:32,1,82.5,0|0
464,352,27073,6,0,B|368:256|560:256|464:160,1,220,2|2
464,32,28737,1,0
400,32,29154,1,2
336,32,29570,1,2
192,32,30402,6,0,B|192:144,1,110,2|2
192,208,31234,1,0
192,240,31442,2,0,B|192:304,1,55,0|2
32,352,33523,5,0
32,352,33731,1,2
32,288,34147,1,0
32,224,34564,1,2
32,160,34980,1,0
32,96,35396,2,2,B|256:96,1,220,2|6
256,224,37060,5,12
256,160,37477,1,0
256,96,37893,1,8
256,192,38309,12,8,40390
256,320,41222,5,8
256,192,42054,2,8,B|32:192,2,220,8|8|12
320,192,44135,5,0
384,192,44551,1,8
384,320,45383,5,8
320,320,45799,1,0
256,320,46216,1,8
256,256,46632,1,0
256,192,47048,12,4,48712
208,192,49545,6,14,B|320:192,2,110
