osu file format v6

[General]
AudioFilename: YUI - Ruido.mp3
AudioLeadIn: 1996
PreviewTime: 20433
Countdown: 1
SampleSet: Soft
StackLeniency: 0.4
Mode: 0
LetterboxInBreaks: 1

[Editor]
DistanceSpacing: 0.800000011920929
BeatDivisor: 8
GridSize: 16

[Metadata]
Title:Ruido
Artist:YUI
Creator:VanMoNky
Version:Master
Source:Can't Buy My Love
Tags:rock japan j-rock monkey

[Difficulty]
HPDrainRate:7
CircleSize:5
OverallDifficulty:7
SliderMultiplier:1.7
SliderTickRate:2

[Events]
//Background and Video events
0,0,"bg.jpg"
//Break Periods
2,18118,19515
//Storyboard Layer 0 (Background)
//Storyboard Layer 1 (Fail)
//Storyboard Layer 2 (Pass)
//Storyboard Layer 3 (Foreground)
Sprite,Foreground,Centre,"Warning.png",320,240 S,0,5225,,0.6880002 F,0,5225,5433,0,1 F,0,5433,5641,1,0 F,0,5641,5849,0,1 F,0,5849,6057,1,0 F,0,6057,6266,0,1 F,0,6266,6370,1,0 F,0,6370,6474,0,1 F,0,6474,6578,1,0 F,0,6578,6682,0,1 F,0,6682,6786,1,0 F,0,6786,6890,0,1 F,0,6890,6942,1,0 F,0,6942,6994,0,1 F,0,6994,7046,1,0 F,0,7046,7098,0,1 F,0,7098,7150,1,0
//Storyboard Sound Samples
//Background Colour Transformations
3,100,64,0,64

[TimingPoints]
440,416.146483562214,4,2,0,40,1,0
6630,-50,4,2,0,40,0,0
7046,-100,4,1,0,70,0,0
20206,-100,4,1,0,39,0,0
25131,-100,4,1,0,70,0,0
27004,-100,4,1,0,40,0,0
31807,-100,4,1,0,70,0,0
33679,-100,4,1,0,49,0,0
35604,-100,4,1,0,50,0,0
36800,-100,4,1,0,40,0,0
37050,-100,4,1,0,70,0,1
50375,-100,4,1,0,70,0,0
50376,-100,4,1,0,70,0,1
50377,-100,4,1,0,70,0,0

[Colours]
Combo1 : 154,154,154
Combo2 : 3,137,3
Combo3 : 22,160,175
Combo4 : 193,4,4
Combo5 : 210,126,0

[HitObjects]
256,192,231,1,0
256,224,335,1,0
256,256,440,1,0
256,320,648,1,8
192,320,856,1,8
192,256,1064,5,0
192,224,1168,1,0
192,192,1272,1,0
192,128,1480,1,8
128,128,1688,1,8
128,64,1896,5,0
160,64,2000,1,0
192,64,2104,1,8
256,64,2312,1,0
320,64,2520,1,8
384,64,2728,5,0
384,96,2832,1,0
384,128,2936,1,8
448,128,3144,1,0
448,192,3353,1,8
384,192,3561,5,0
352,192,3665,1,0
320,192,3769,1,0
320,256,3977,1,8
384,256,4185,1,8
384,320,4393,5,0
352,320,4497,1,0
320,320,4601,1,0
256,320,4809,1,8
256,256,5017,1,8
192,256,5225,5,0
160,256,5329,1,0
128,256,5433,1,8
128,320,5641,1,0
192,320,5849,1,8
256,320,6057,5,0
288,320,6162,1,0
320,320,6266,1,8
384,320,6474,1,0
416,320,6578,1,0
448,320,6682,2,8,B|336:320|512:48|344:48,1,340
280,48,7306,5,0
248,48,7410,1,0
216,48,7514,1,8
216,112,7722,1,0
216,184,7930,1,8
280,184,8138,1,0
312,184,8242,1,0
312,216,8346,1,8
312,280,8554,1,0
248,280,8762,6,0,B|144:280,1,85,8|0
128,280,9075,1,0
96,280,9179,1,8
96,344,9387,2,0,B|192:344,4,85,0|8|0|8|0
96,280,10427,5,8
96,216,10635,1,0
96,184,10739,1,0
96,152,10843,1,8
160,152,11051,1,0
160,216,11259,1,8
224,216,11467,1,0
224,184,11571,1,0
224,152,11675,1,8
288,152,11884,5,0
288,216,12092,2,0,B|400:136,1,127.5,8|0
392,144,12508,2,0,B|392:248,1,85,8|0
392,296,12924,1,8
328,296,13132,1,0
328,296,13236,1,0
328,296,13340,1,8
192,296,13756,6,8,B|144:296|144:160|208:160,1,170
272,160,14380,2,8,B|320:160|320:296|256:296,1,170,0|0
232,232,15005,1,8
232,168,15213,1,0
232,104,15421,1,8
232,72,15525,1,0
232,40,15629,1,0
296,40,15837,1,8
296,104,16045,1,0
360,104,16253,1,8
360,312,16877,6,0,B|360:336,4,21.25,0|0|0|0|8
360,248,17293,1,0
360,248,17397,1,0
360,248,17502,1,8
424,248,17710,1,0
424,184,17918,1,8
24,24,20415,6,2,B|216:24,1,170,0|2
488,360,21247,6,2,B|392:360,1,85,2|2
32,360,21871,6,2,B|32:264,1,85,0|2
96,272,22287,1,2
232,272,22703,1,0
232,208,22911,1,2
336,208,23224,1,2
336,104,23536,5,0
272,104,23744,1,0
208,104,23952,1,2
144,104,24160,1,0
80,104,24368,1,2
80,40,24576,1,0
184,40,24888,1,6
184,144,25200,5,8
184,176,25304,1,0
184,208,25408,1,0
184,272,25616,1,8
184,336,25824,1,0
248,336,26033,5,8
248,304,26137,1,0
248,272,26241,1,0
248,208,26449,1,8
248,176,26553,1,0
248,144,26657,1,0
312,144,26865,1,8
488,360,27073,6,2,B|296:360,1,170,0|2
24,24,27905,6,2,B|120:24,1,85,2|2
480,24,28529,6,2,B|480:120,2,85,0|0|2
416,24,29154,1,0
416,88,29362,1,2
416,120,29466,1,0
416,152,29570,1,0
328,152,29830,1,2
328,272,30194,5,0
392,272,30402,1,0
392,336,30610,1,2
328,336,30818,1,0
264,336,31026,1,2
232,336,31130,1,0
200,336,31234,1,0
136,336,31442,1,2
104,336,31546,1,0
72,336,31650,6,0,B|72:240,1,85,0|8
72,184,32067,2,0,B|72:96,1,85,0|8
136,96,32483,2,0,B|224:96,1,85,0|8
288,96,32899,2,0,B|288:184,1,85,0|8
288,248,33315,2,0,B|376:248,1,85,0|8
440,248,33731,5,0
440,184,33939,1,8
440,152,34043,1,0
440,120,34147,1,2
376,120,34355,2,0,B|376:208,3,85,8|0|8|2
376,272,35188,1,0
376,304,35292,1,0
376,336,35396,1,8
312,336,35604,5,6
280,336,35708,1,0
248,336,35812,1,8
216,336,35916,1,6
184,336,36020,1,0
152,336,36124,1,8
120,336,36228,1,6
120,136,36852,5,0
152,136,36956,1,0
184,136,37060,1,8
248,136,37268,1,0
312,136,37477,1,8
376,136,37685,1,0
376,168,37789,1,0
376,200,37893,1,8
376,264,38101,1,0
376,264,38205,1,0
256,192,38309,12,12,40390
480,24,40598,5,0
480,56,40702,1,0
480,88,40806,1,8
480,152,41014,2,0,B|384:152,1,85,0|8
392,216,41430,2,0,B|488:216,1,85,0|8
480,280,41846,1,0
256,192,42054,12,12,43719
32,24,43927,5,0
32,56,44031,1,0
32,88,44135,1,8
32,152,44343,1,0
96,152,44551,1,8
96,216,44759,1,0
32,216,44967,1,8
32,280,45175,5,0
64,280,45279,1,0
96,280,45383,1,8
160,280,45591,1,0
160,344,45799,1,8
224,320,46008,1,0
288,320,46216,1,8
256,192,46632,1,8
256,192,46840,12,12,47880
16,368,48296,5,12
496,16,48712,5,12
256,24,49545,6,10,B|256:112,1,85,10|0
256,360,49961,2,10,B|256:272,1,85,10|0
256,192,50377,1,14
