osu file format v6

[General]
AudioFilename: YUI - Ruido.mp3
AudioLeadIn: 1996
PreviewTime: 20433
Countdown: 1
SampleSet: Normal
StackLeniency: 0.4
Mode: 0
LetterboxInBreaks: 1

[Editor]
DistanceSpacing: 0.699999988079071
BeatDivisor: 6
GridSize: 8

[Metadata]
Title:Ruido
Artist:YUI
Creator:VanMoNky
Version:Junior
Source:Can't Buy My Love
Tags:rock japan j-rock monkey

[Difficulty]
HPDrainRate:4
CircleSize:4
OverallDifficulty:4
SliderMultiplier:1.3
SliderTickRate:2

[Events]
//Background and Video events
0,0,"bg.jpg"
//Break Periods
2,18118,19095
2,25088,25753
2,31850,32203
//Storyboard Layer 0 (Background)
//Storyboard Layer 1 (Fail)
//Storyboard Layer 2 (Pass)
//Storyboard Layer 3 (Foreground)
//Storyboard Sound Samples
//Background Colour Transformations
3,100,64,0,64

[TimingPoints]
440,416.146483562214,4,2,0,21,1,0
7028,-100,4,1,0,69,0,0
20206,-100,4,1,0,39,0,0
37050,-100,4,1,0,70,0,1
50375,-100,4,1,0,70,0,0
50376,-100,4,1,0,70,0,1
50377,-100,4,1,0,70,0,0

[Colours]
Combo1 : 154,154,154
Combo2 : 3,137,3
Combo3 : 22,160,175
Combo4 : 193,4,4
Combo5 : 210,126,0

[HitObjects]
256,192,439,1,0
160,192,856,1,0
160,96,1272,1,0
64,96,1688,1,0
64,192,2104,5,0
64,288,2520,1,0
160,288,2936,1,0
256,288,3353,1,0
352,288,3769,5,0
448,288,4185,1,0
448,192,4601,1,0
352,192,5017,1,0
352,96,5433,5,0
448,96,5849,1,0
448,192,6266,1,0
352,192,6682,2,0,B|208:192,1,130,0|4
224,96,7514,5,8
128,96,7930,1,0
128,192,8346,1,8
224,192,8762,1,0
224,288,9179,2,0,B|224:320|336:320|336:288,3,130,8|0|8|0
432,288,10843,5,8
432,192,11259,1,0
432,96,11675,1,8
336,96,12092,2,0,B|288:96|288:192|336:192,3,130,0|8|0|8
240,192,13756,5,0
240,288,14172,1,8
144,288,14588,1,0
48,288,15005,1,8
48,208,15421,5,0
96,208,15629,1,8
96,112,16045,1,8
48,112,16253,1,0
176,112,16877,5,8
224,112,17085,1,0
320,112,17502,1,8
320,208,17918,1,8
48,192,20415,6,0,B|192:192,2,130,2|2|0
48,144,21455,1,2
112,80,21871,6,0,B|112:160,2,65,2|0|2
200,80,22703,1,0
200,128,22911,2,2,B|328:128,1,97.5
368,128,23536,6,0,B|368:208,1,65,2|0
368,192,23952,2,0,B|368:272,1,65,2|0
368,256,24368,2,0,B|368:336,1,65,2|0
432,320,24888,1,6
480,352,27073,6,0,B|336:352,2,130,2|2|2
480,304,28113,1,2
480,208,28529,6,0,B|480:112,1,65,0|2
384,144,29154,1,2
336,144,29362,1,0
336,200,29570,2,2,B|336:312,1,97.5,2|0
272,296,30194,6,0,B|272:200,1,65,2|0
224,232,30610,2,0,B|224:328,1,65,2|0
176,296,31026,2,0,B|176:200,1,65,2|0
176,176,31442,2,0,B|176:96,1,65,2|0
184,352,33523,5,8
232,352,33731,2,0,B|312:352,2,65,0|8|0
232,304,34355,2,0,B|376:304,1,130,8|2
360,216,35188,6,0,B|264:216,1,65,8|2
256,184,35604,2,4,B|200:184,6,32.5,6|4|4|6|4|4|6
256,352,37060,5,4
304,272,37477,1,8
208,272,37893,2,0,B|208:128,1,130,0|8
256,208,38725,2,0,B|256:128,3,65,0|0|8|0
256,96,39557,2,0,B|160:96,2,65,0|0|8
352,96,40390,6,0,B|352:16,2,65,0|0|8
352,144,41014,2,0,B|352:224,1,65
352,304,41638,1,8
256,304,42054,2,0,C|256:240|224:208|288:176|256:144|256:96,1,260,0|0
256,32,43303,1,8
160,32,43719,6,0,C|160:176,1,130,4|8
160,256,44551,1,0
256,256,44967,1,8
256,304,45175,2,0,C|336:304,1,65,0|0
416,304,45799,1,8
416,208,46216,1,0
416,112,46632,5,8
320,112,47048,2,0,B|256:80|176:112,1,130,0|8
192,192,47880,2,0,B|256:160|336:208,1,130,0|8
256,272,48712,1,0
160,112,49545,5,14
256,112,49961,1,14
352,112,50377,1,14
