osu file format v5

[General]
AudioFilename: YUI - Rolling star.mp3
AudioLeadIn: 0
PreviewTime: -1
Countdown: 1
SampleSet: Normal
StackLeniency: 0.7
Mode: 0
LetterboxInBreaks: 1

[Metadata]
Title:Rolling Star
Artist:YUI
Creator:taktaktak
Version:Normal
Source:
Tags:

[Difficulty]
HPDrainRate:3
CircleSize:4
OverallDifficulty:4
SliderMultiplier:1.4
SliderTickRate:1

[Events]
//Background and Video events
1,0,"YUI - Rolling Star.AVI"
//Break Periods
2,55931,69631
2,93007,94774
//Storyboard Layer 0 (Background)
//Storyboard Layer 1 (Failing)
//Storyboard Layer 2 (Passing)
//Storyboard Layer 3 (Foreground)
//Storyboard Sound Samples
//Background Colour Transformations
3,100,163,162,255

[TimingPoints]
730,377.572210685294,4,1,0,100,1
6732,372.62451869333,4,1,0,100,1
70831,372.393247269116,4,1,0,100,1
82374,372.62451869333,4,1,0,100,1

[Colours]
Combo1 : 128,0,128
Combo2 : 5,240,5
Combo3 : 5,5,240
Combo4 : 240,5,5
Combo5 : 255,150,0

[HitObjects]
80,96,6738,1,0
160,96,7104,2,0,B|256:96,1,70
352,96,7855,2,0,B|400:80|448:112,1,70
416,144,8228,5,0
336,144,8595,2,0,B|256:144,1,70
144,144,9345,2,0,B|96:128|48:160,1,70
64,192,9718,5,0
128,240,10090,2,0,B|176:224|224:256,1,70
320,240,10836,1,0
400,240,11208,1,0
384,320,11581,2,0,B|336:336|272:304,1,70,0|0
192,288,12326,1,0
160,208,12698,5,0
240,208,13071,1,0
240,208,13257,1,0
320,208,13630,1,0
320,208,13816,1,4
384,160,14184,6,0,B|464:160,1,70
464,240,14747,2,2,B|496:336|368:336,1,140
320,336,15493,1,0
272,336,15679,2,2,B|176:368|96:320,1,140
96,320,16238,1,0
48,256,16610,1,0
32,176,16979,6,0,B|0:128|16:80,1,70
32,80,17351,1,0
80,80,17542,2,2,B|144:48|224:80,1,140
256,80,18100,1,0
336,80,18469,2,0,B|416:32|496:112,2,140
464,192,19960,6,0,B|416:256,1,70
384,224,20332,2,2,B|272:352,1,140
224,272,21078,2,2,B|336:144,1,140
320,128,21636,2,2,B|240:128,1,70
160,128,22195,2,2,L|160:64|240:64,1,140
240,144,22941,6,0,B|272:64|368:64,1,140
384,64,23500,1,2
432,128,23875,2,0,B|464:176|400:224,2,70
352,160,24620,1,2
272,160,24993,1,2
192,160,25365,1,2
80,288,26110,5,4
80,160,26669,1,0
80,80,27042,1,0
80,80,27228,1,0
160,80,27601,1,4
240,80,27973,1,0
240,80,28159,1,0
320,80,28532,1,0
320,80,28718,1,0
400,80,29091,5,4
464,192,29650,1,4
400,304,30208,1,0
352,240,30581,1,4
304,176,30952,2,2,B|144:176,1,140
256,80,31884,6,4,B|144:80,2,70
304,80,32443,1,4
256,144,32816,1,4
208,208,33188,1,4
160,272,33560,2,4,B|224:400|336:288,1,210
240,320,34492,6,4,B|128:320,2,70
272,288,35051,1,4
224,224,35424,1,4
272,160,35796,1,4
224,96,36169,1,4
304,64,36541,2,2,B|224:0|144:96,1,140
240,176,37473,1,0
320,192,37846,6,0,B|400:192,2,70
272,192,38405,1,0
224,128,38778,1,0
176,192,39150,1,0
96,192,39523,2,0,C|48:144|128:128|96:80,1,210
176,48,40454,6,0,B|272:48,2,70
160,80,41013,1,0
224,128,41385,1,0
160,176,41758,1,0
224,224,42130,1,0
160,272,42503,1,0
256,192,43062,1,0
224,320,43621,2,0,B|320:320,2,70
96,304,44552,6,0,B|48:320|0:288,1,70
64,224,45111,2,2,L|96:192|48:192|96:144,1,140
48,80,45857,2,0,B|96:64|144:96,1,70
192,96,46415,1,2
224,80,46601,1,2
256,96,46787,1,6
384,80,47348,6,0,B|432:64|480:96,1,70
464,160,47905,2,0,B|480:208|448:240,2,70
432,192,48465,1,0
352,192,48838,1,0
272,192,49211,2,0,L|208:160|208:224|128:192,1,210
256,192,50329,12,0,53310
128,192,54238,5,0
160,160,54427,1,0
208,160,54614,1,0
224,192,54800,1,0
272,192,54986,1,0
304,160,55173,1,0
336,192,55359,2,0,L|496:192,1,140
176,64,70831,5,0
256,64,71203,1,0
256,64,71389,1,0
336,64,71761,1,0
352,192,72320,5,0
272,192,72692,1,0
224,192,72878,2,2,B|160:160|80:192,1,140
96,320,73810,5,0
176,320,74182,1,0
176,320,74368,1,2
256,320,74741,1,2
336,320,75113,5,4
400,256,75485,1,4
464,192,75858,1,4
368,176,76230,5,0
368,176,76416,1,0
368,176,76603,1,0
320,176,76789,5,0
240,176,77161,1,0
192,176,77347,2,2,B|128:144|48:176,1,140
112,64,78278,5,0
192,64,78650,1,0
192,64,78837,1,2
272,64,79209,1,2
368,144,79768,5,0
288,144,80140,1,0
240,144,80326,2,2,B|176:112|96:144,1,140
176,192,81071,5,4
256,192,81443,1,4
336,192,81815,1,4
336,112,82188,6,4,B|400:48|464:128,1,140
464,160,82746,2,2,B|512:240|448:320,1,140
432,320,83305,1,0
352,336,83678,2,2,B|304:352|240:320,1,70
192,336,84237,1,0
224,208,84796,6,0,B|320:208,2,70
96,192,85727,2,2,B|123:44|275:3|424:50|448:208,1,490
448,112,87963,5,0
448,192,88335,1,0
448,272,88708,1,0
448,272,88894,1,0
256,192,90571,12,0,92807
224,32,95974,6,4,B|336:32,2,70
192,64,96533,1,4
240,128,96906,1,4
288,192,97278,1,4
336,256,97651,1,4
416,272,98024,2,4,B|416:320|352:336,1,70
288,336,98582,6,4,B|176:336,2,70
288,288,99142,1,0
224,240,99514,1,0
288,192,99887,1,0
224,144,100259,1,0
304,96,100631,2,2,B|224:32|144:128,1,140
256,192,101563,1,0
176,192,101936,6,0,B|96:192,2,70
224,192,102495,2,0,C|336:192,4,70
304,192,103613,2,0,C|256:144|336:128|304:80,1,210
352,64,104544,6,0,B|448:64,2,70
352,112,105103,1,0
416,160,105475,1,0
352,208,105848,1,0
416,256,106220,1,0
352,304,106593,1,0
256,192,107152,1,0
224,304,107711,2,0,B|320:304,2,70
96,304,108642,6,0,B|48:320|0:288,1,70
64,224,109201,2,2,L|96:192|48:192|96:144,1,140
48,80,109947,2,0,B|96:64|144:96,1,70
192,96,110505,1,2
224,80,110691,1,2
256,96,110877,1,6
384,80,111438,6,0,B|432:64|480:96,1,70
464,160,111995,2,0,B|480:208|448:240,2,70
432,192,112556,1,0
352,192,112929,1,0
304,192,113115,2,2,B|240:288|176:160,1,140
64,96,114606,5,0
112,96,114792,1,0
112,176,115164,1,0
192,176,115537,1,0
272,176,115910,1,0
320,176,116096,1,0
320,96,116469,1,0
320,96,116655,1,0
320,96,116841,1,0
320,96,117028,1,0
464,80,117400,5,0
464,128,117586,1,0
464,208,117959,2,0,B|480:256|448:288,2,70
416,224,118518,1,0
336,224,118891,1,0
256,224,119263,2,0,L|192:176|192:256|128:208,1,210
256,80,120381,5,0
128,192,121127,5,0
256,304,121872,5,0
368,192,122617,5,0
192,192,123362,5,0
256,192,124107,12,4,125784
