osu file format v6

[General]
AudioFilename: grr.mp3
AudioLeadIn: 1500
PreviewTime: -1
Countdown: 1
SampleSet: Soft
StackLeniency: 0.7
Mode: 0
LetterboxInBreaks: 1

[Editor]
DistanceSpacing: 0.699999988079071
BeatDivisor: 4
GridSize: 8

[Metadata]
Title:Rolling Star (TV Size)
Artist:YUI
Creator:kuburaczek
Version:Easy (Kon)
Source:Bleach
Tags:bleach yui rolling star SeymourLyon

[Difficulty]
HPDrainRate:3
CircleSize:4
OverallDifficulty:3
SliderMultiplier:0.999999999999999
SliderTickRate:2

[Events]
//Background and Video events
0,0,"kon.jpg"
//Break Periods
2,6686,12872
2,44512,48276
//Storyboard Layer 0 (Background)
//Storyboard Layer 1 (Fail)
//Storyboard Layer 2 (Pass)
//Storyboard Layer 3 (Foreground)
//Storyboard Sound Samples
//Background Colour Transformations
3,100,163,162,255

[TimingPoints]
1083,372.669999999999,4,2,0,68,1,0
25865,-100,4,1,0,70,0,0
56144,-100,4,1,0,0,0,0
57915,-100,4,1,0,70,0,0

[Colours]
Combo1 : 255,255,255
Combo2 : 228,115,95
Combo3 : 60,134,80

[HitObjects]
32,48,1083,1,0
72,104,1455,1,0
112,160,1828,1,0
152,216,2201,1,0
200,272,2573,2,2,B|256:368|320:264,1,150
360,224,3505,6,0,B|392:184,3,50
432,128,4437,1,0
408,56,4809,1,0
336,32,5182,1,0
264,56,5555,1,0
256,128,5927,2,2,B|256:184,1,50
256,248,6486,1,4
408,72,14312,6,0,B|448:32,2,50,0|2|2
360,120,15058,1,0
312,168,15430,1,0
264,216,15803,2,0,B|224:176,2,50,0|2|2
312,264,16548,1,0
368,304,16921,1,0
304,336,17294,2,2,B|200:336,5,99.9999999999999
136,336,19530,1,2
80,208,20275,6,0,B|40:88|168:56,1,200
232,48,21393,1,0
304,48,21766,1,0
376,48,22138,1,0
448,48,22511,1,2
448,48,22884,1,2
448,152,23443,5,0
392,200,23815,1,0
336,152,24188,1,0
280,200,24561,1,0
224,152,24933,2,2,B|144:152,2,75
256,48,26051,5,8
360,144,26797,1,8
256,120,27356,1,8
152,144,27915,1,8
176,208,28287,6,0,B|240:240,1,50
288,232,28846,2,0,B|344:200,1,50
360,144,29405,5,8
256,112,29964,1,8
152,144,30523,1,8
152,216,30896,1,0
152,288,31269,1,8
152,288,31641,1,8
288,296,32387,6,0,B|296:232|360:224,1,99.9999999999999
360,296,33132,2,0,B|424:280|424:200,1,99.9999999999999
424,152,33877,1,4
424,48,34436,1,4
320,48,34995,5,0
248,48,35368,2,0,B|184:56|176:120,1,99.9999999999999
248,120,36113,2,0,B|232:184|152:184,1,99.9999999999999
104,184,36859,1,4
104,288,37418,2,0,B|152:320|200:288,1,99.9999999999999,4|0
304,288,38349,5,0
352,232,38722,1,0
400,288,39095,1,0
448,232,39468,2,0,B|416:192|416:192|456:152,1,99.9999999999999,0|4
448,48,40399,1,4
344,48,40958,6,0,B|336:104|280:120,1,99.9999999999999
272,48,41704,1,0
200,48,42076,1,0
128,48,42449,2,0,B|136:112|200:120,1,99.9999999999999,0|4
288,144,43381,1,4
288,248,43940,2,0,B|288:312,2,50
392,64,49716,5,4
392,136,50089,2,0,B|424:136|456:104,2,50
320,144,50834,1,0
256,112,51207,2,0,B|224:96|208:64,1,50
176,24,51766,1,4
88,88,52325,6,0,B|88:32,2,50
88,192,53256,1,0
112,256,53629,2,0,B|127:283|160:296,1,50
216,312,54188,1,4
288,312,54561,1,4
256,136,55492,5,0
256,136,55865,1,0
256,192,56051,12,0,57728
344,192,58101,6,0,B|326:132|264:120,1,99.9999999999999
168,120,59033,2,0,B|128:120|128:160,1,50,2|0
128,216,59592,2,0,B|128:248|168:248,1,50,2|0
192,184,60151,2,0,B|248:184,10,50
360,280,63691,6,0,B|304:280|304:280|272:248,1,99.9999999999999
336,208,64436,2,0,B|304:176|304:176|248:176,1,99.9999999999999
176,176,65182,1,4
72,176,65741,1,4
72,72,66300,5,0
128,32,66673,1,0
184,72,67046,1,0
240,32,67418,1,0
296,72,67791,1,0
352,32,68163,2,0,B|384:40|400:72,3,50,0|0|0|4
400,128,69095,1,4
400,200,69467,6,0,B|432:200,2,25
344,248,70026,1,0
288,200,70399,1,0
232,152,70772,2,0,B|160:224,1,99.9999999999999
80,296,71703,1,4
80,192,72262,5,0
152,192,72635,2,0,B|144:128|80:120,1,99.9999999999999
24,104,73380,1,0
24,32,73753,1,0
96,32,74126,2,2,B|200:136|200:136|320:24,1,300,2|0
456,128,76176,6,2,B|352:184|520:264|384:344,1,250
320,344,77480,2,0,B|224:352|280:216|144:248,1,200
64,144,78971,2,2,B|120:48|152:232|240:120,1,200
256,64,80089,1,4
360,64,80648,1,4
360,200,81393,2,6,B|344:280|344:280|280:224|280:224|272:312|272:312|184:240,1,350,6|0
256,192,82884,12,6,84374
256,40,86051,5,0
256,176,86797,1,0
256,288,87356,2,0,B|256:328,6,25,0|0|0|0|0|0|4
256,112,88846,1,4
