osu file format v7

[General]
AudioFilename: YUI - Never Say Die.mp3
AudioLeadIn: 1996
PreviewTime: 32510
Countdown: 1
SampleSet: Soft
StackLeniency: 0.7
Mode: 0
LetterboxInBreaks: 0

[Editor]
DistanceSpacing: 1.10000002384186
BeatDivisor: 4
GridSize: 32

[Metadata]
Title:Never Say Die
Artist:YUI
Creator:VanMoNky
Version:Master
Source:It's All Too Much
Tags:monkey band rock drum bass spiritful girlish

[Difficulty]
HPDrainRate:7
CircleSize:5
OverallDifficulty:7
SliderMultiplier:1.3
SliderTickRate:2

[Events]
//Background and Video events
0,0,"bg.jpg"
//Break Periods
2,15016,20916
2,57683,63583
2,99349,108916
//Storyboard Layer 0 (Background)
//Storyboard Layer 1 (Fail)
//Storyboard Layer 2 (Pass)
//Storyboard Layer 3 (Foreground)
//Storyboard Sound Samples
//Background Colour Transformations
3,100,163,162,255

[TimingPoints]
150,333.333333333333,4,2,0,60,1,0
233,-200,4,2,0,60,0,0
9649,-100,4,1,0,30,0,0
10316,-100,4,1,0,50,0,0
11083,-100,4,1,0,100,0,0
11316,-100,4,1,0,60,0,0
21649,-100,4,1,0,70,0,0
21833,-100,4,1,0,50,0,0
43149,-100,4,1,0,70,0,1
57483,-100,4,1,0,70,0,0
85816,-100,4,1,0,70,0,1
98733,-50,4,1,0,70,0,1
99149,-100,4,1,0,70,0,0
120399,-200,4,2,0,70,0,0
125983,-100,4,2,0,70,0,0
129816,-100,4,1,0,30,0,0
130399,-100,4,1,0,50,0,0
131149,-100,4,1,0,70,0,1
147148,-100,4,1,0,50,0,0
147149,-100,4,1,0,60,0,1
152482,-100,4,1,0,70,0,0
152483,-100,4,1,0,70,0,1

[HitObjects]
256,160,483,2,0,B|256:48,1,65,2|2
256,224,1149,2,0,B|256:304,1,65,2|0
224,352,1649,1,0
192,288,1816,2,0,B|192:208,3,65,2|2|2|2
128,256,2983,1,0
64,288,3149,1,2
0,160,3483,6,0,B|0:240,1,65,2|2
64,224,3983,1,0
32,96,4316,1,0
64,160,4483,2,0,B|96:144|96:96,3,65,2|2|2|2
192,32,5816,1,2
256,160,6149,1,2
320,32,6483,2,0,B|416:32,1,65,2|0
416,96,6983,5,0
448,32,7149,1,2
448,160,7483,1,2
480,288,7816,1,2
384,192,8149,1,2
416,320,8483,1,2
320,224,8816,1,2
352,352,9149,6,0,B|256:352,1,65,2|0
128,256,9816,5,8
128,192,9983,1,8
128,160,10066,1,0
128,128,10149,1,8
384,64,10483,5,8
384,128,10649,1,8
384,160,10733,1,0
384,192,10816,1,8
256,192,11149,5,4
256,192,11316,12,4,14816
256,192,21816,5,4
256,64,22149,2,0,B|256:160,2,65,8|0|0
320,32,22649,1,0
384,64,22816,2,8,B|440:48|472:80|464:144,1,130,8|0
392,128,23316,2,0,B|384:184|448:208,1,65,0|8
480,192,23649,2,0,B|488:248|424:272,1,65,0|0
384,256,23983,2,0,B|352:240|336:184,1,65,0|8
256,320,24483,1,0
128,352,24816,6,0,B|224:352,2,65,8|0|0
64,320,25316,1,0
32,256,25483,1,8
64,192,25649,1,0
32,128,25816,2,0,B|16:32|112:32,1,130,0|8
160,32,26316,2,0,B|144:112|224:128,1,130
224,64,26816,1,8
256,32,26899,1,8
288,64,26983,1,8
320,96,27066,1,0
352,64,27149,1,4
480,32,27483,5,8
448,96,27649,1,0
416,160,27816,1,0
480,160,27983,2,0,B|480:256,1,65,0|8
416,224,28316,1,0
448,288,28483,2,0,B|448:384,1,65
384,288,28816,1,8
384,352,28983,1,0
320,352,29149,2,0,B|320:192,1,130,0|8
256,352,29816,1,0
256,224,30149,5,8
256,288,30316,1,0
192,256,30483,2,0,B|200:320|168:368|96:352,1,130,0|8
128,288,30983,1,0
64,288,31149,2,0,B|64:224|160:224,1,65
32,192,31483,2,0,B|32:96,1,65,8|0
64,64,31816,2,0,B|160:64,1,65,8|0
192,64,32149,1,8
224,80,32233,1,0
256,64,32316,1,8
288,48,32399,1,0
320,64,32483,1,8
448,32,32816,5,0
448,96,32983,1,2
480,352,33316,1,2
480,288,33483,1,0
256,192,33816,5,10
64,96,34149,5,0
64,32,34316,1,2
32,352,34649,1,2
32,288,34816,1,0
256,192,35149,5,4
224,32,35483,5,0
288,64,35649,1,2
224,352,35983,1,2
288,320,36149,1,0
32,192,36483,5,10
288,32,36816,5,0
224,64,36983,1,2
224,320,37316,1,2
288,352,37483,1,0
480,192,37816,5,4
32,32,38149,5,0
96,32,38316,1,2
32,352,38649,1,2
96,352,38816,1,0
256,192,39149,5,10
480,352,39483,5,0
416,352,39650,1,2
416,32,39983,1,2
480,32,40150,1,0
416,192,40483,6,2,B|320:192,1,65,6|0
288,192,40816,1,8
224,192,40983,2,2,B|184:272|160:96|120:216,1,130,2|0
64,192,41483,1,10
256,32,41816,5,2
192,160,42150,1,2
320,160,42483,1,2
320,168,42566,1,0
320,176,42650,1,0
320,184,42733,1,0
320,192,42816,1,6
256,224,42983,1,2
256,288,43150,6,0,B|256:384,1,65,4|0
192,320,43483,1,8
128,352,43650,1,0
96,288,43816,2,0,B|48:304|56:384,2,65,0|0|8
64,224,44316,1,0
32,160,44483,2,0,B|32:64,1,65,0|0
96,128,44816,2,0,B|96:32,1,65,8|0
160,96,45150,2,8,B|160:0,1,65,0|0
224,64,45483,1,8
288,96,45650,1,0
224,128,45816,1,8
288,160,45983,6,0,B|264:192|224:200,2,65,0|8|0
352,128,46483,2,0,B|368:88|344:48,1,65,0|0
416,64,46816,2,0,B|432:104|408:144,1,65,8|0
480,160,47150,1,0
416,192,47316,1,0
416,256,47483,1,8
480,288,47650,1,0
480,224,47816,2,8,B|480:384,1,130,0|8
416,320,48316,1,0
352,352,48483,1,12
224,320,48816,6,0,B|320:320,1,65,8|0
352,288,49150,2,0,B|352:192,3,65,0|0|8|0
288,256,49816,2,0,B|192:256,1,65
160,256,50150,2,0,B|160:320|160:320|64:320,2,130,8|0|8
96,256,50983,1,0
32,256,51150,1,8
32,320,51316,1,0
32,256,51483,5,8
32,192,51650,1,0
96,192,51816,2,0,B|64:96|192:64,1,130,0|8
192,224,52483,5,0
224,160,52650,1,8
224,128,52733,1,0
224,96,52816,1,8
256,32,52983,1,0
256,32,53150,5,8
288,96,53316,1,8
288,128,53400,1,0
288,160,53483,1,8
320,224,53650,1,8
256,256,53816,5,4
256,192,53983,12,4,57483
256,192,64483,5,4
384,192,64816,2,0,B|288:192,2,65,8|0|0
384,128,65316,1,0
320,128,65483,2,0,B|320:80|376:64,1,65,8|0
416,72,65816,2,0,B|456:88|456:152,1,65,0|0
448,192,66150,2,0,B|448:352,2,130,8|0|8
384,224,66983,1,0
384,288,67150,1,0
256,224,67483,5,8
288,288,67650,1,0
256,352,67816,2,0,B|160:352,3,65,0|0|8|0
128,352,68483,2,0,B|48:336|64:240,1,130,0|8
32,192,68983,2,0,B|32:96,3,65,0|0|0|8
64,96,69566,1,8
96,64,69650,1,8
128,96,69733,1,0
160,64,69816,1,4
256,160,70150,6,0,B|256:0,1,130,8|0
320,32,70650,1,0
320,96,70816,1,8
320,160,70983,1,0
384,128,71150,1,0
384,64,71316,1,0
448,96,71483,1,8
432,224,71816,1,0
416,352,72150,2,0,B|416:328|368:288|320:328|320:352,1,130,8|0
192,352,72816,6,0,B|288:352,2,65,8|0|0
128,352,73316,1,0
64,320,73483,2,0,B|64:224,1,65,8|0
128,288,73816,1,0
128,224,73983,2,0,B|128:64,2,130,8|8|8
64,192,74816,1,8
64,160,74900,1,8
64,128,74983,1,8
64,96,75066,1,8
64,64,75150,1,4
224,32,75483,5,0
288,32,75650,1,2
480,192,75983,1,2
416,192,76150,1,0
256,192,76483,5,10
32,192,76816,5,0
96,192,76983,1,2
224,352,77316,1,2
288,352,77483,1,0
256,192,77816,5,4
128,128,78150,5,0
160,64,78316,1,2
352,320,78649,1,2
384,256,78816,1,0
256,192,79149,5,10
160,320,79483,5,0
128,256,79649,1,2
384,128,79983,1,2
352,64,80149,1,0
256,192,80483,5,4
256,64,80816,5,0
256,0,80983,1,2
256,320,81316,1,2
256,384,81483,1,0
256,192,81816,5,10
480,192,82149,5,0
416,192,82316,1,2
32,192,82649,1,2
96,192,82816,1,0
256,32,83149,6,2,B|256:128,1,65,2|0
256,160,83483,1,12
256,224,83649,2,2,L|248:232|264:240|248:248|264:256|248:264|264:272|248:280|264:288,1,130,2|0
256,352,84149,1,8
32,32,84483,5,2
480,32,84816,1,2
256,352,85149,1,2
256,336,85233,1,0
256,320,85316,1,0
256,304,85399,1,0
256,288,85483,1,2
256,272,85566,1,0
256,256,85649,1,0
256,240,85733,1,0
256,224,85816,6,0,L|256:128,1,65,4|0
192,192,86149,2,0,L|192:288,1,65,8|0
128,288,86483,2,0,L|128:384,1,65,0|0
64,320,86816,1,8
32,256,86983,2,0,L|32:96,1,130
96,160,87483,1,8
96,224,87649,1,0
160,192,87816,1,0
160,128,87983,1,0
96,96,88149,1,8
96,32,88316,1,0
160,64,88483,2,0,L|320:64,1,130,8|8
352,32,88983,5,0
416,64,89149,2,0,L|512:64,2,65,0|0|8
352,96,89649,1,0
416,128,89816,2,0,B|464:128|504:176|464:232,1,130,0|8
416,192,90316,1,0
352,160,90483,2,0,B|344:208|360:256|424:256,1,130,0|8
480,288,90983,1,0
480,288,91149,1,12
352,352,91483,5,8
288,320,91649,1,0
224,352,91816,2,0,B|208:312|232:280,2,65,0|0|8
160,352,92316,2,0,B|0:352,1,130
64,288,92816,1,8
128,288,92983,1,0
96,224,93149,1,0
128,160,93316,1,0
64,160,93483,2,0,B|56:128|80:104|80:104|80:32,1,130,8|8
224,32,94149,6,0,B|128:32,1,65,8|0
192,96,94483,2,0,B|352:96,1,130,0|8
352,224,95149,5,0
288,192,95316,1,8
256,160,95399,1,0
224,192,95483,1,8
160,224,95649,1,0
160,224,95816,5,8
224,256,95983,1,8
256,288,96066,1,0
288,256,96149,1,8
352,224,96316,1,8
352,224,96483,2,0,B|352:352|480:352,1,195,4|0
480,288,97149,2,0,B|480:160|352:160,1,195,0|0
384,96,97816,5,0
376,88,97899,1,0
368,96,97983,1,0
360,104,98066,1,0
352,96,98149,1,0
344,88,98233,1,0
336,96,98316,1,0
328,104,98399,1,0
320,96,98483,1,0
312,88,98566,1,0
304,96,98649,1,0
296,104,98733,2,2,B|144:24|144:264|8:88,1,325,2|4
256,192,109816,6,0,B|256:352,1,130,4|0
320,288,110316,1,0
320,224,110483,2,0,B|320:64,2,130,8|0|0
320,352,111483,1,0
384,320,111649,1,0
384,256,111816,1,8
416,128,112149,5,0
416,192,112316,1,0
480,192,112483,2,0,B|480:160|480:160|496:128|496:80|464:48,1,130
416,64,112983,2,0,B|320:64,3,65,0|8|0|0
224,64,113816,2,0,B|288:64|288:64|288:192,1,130
224,128,114316,1,0
224,192,114483,2,0,B|160:192|160:192|160:64,1,130,8|0
128,64,114983,1,0
96,128,115149,6,0,B|64:128|32:176|64:224|96:224,1,130,4|0
88,222,115649,2,0,B|64:224|32:272|64:320|96:320,1,130,0|0
92,319,116149,1,8
224,256,116483,1,0
160,256,116649,1,0
192,320,116816,1,0
256,320,116983,2,0,B|416:320,1,130
386,320,117483,1,8
480,192,117816,6,0,B|480:96,1,65,8|0
416,160,118149,2,0,B|416:64,1,65,8|0
352,128,118483,2,0,B|352:32,1,65,8|0
288,160,118816,2,0,B|288:64,1,65,8|0
224,160,119149,6,0,B|224:64,1,65,8|0
160,128,119483,2,8,B|160:32,1,65,8|0
96,160,119816,2,0,B|96:64,1,65,8|0
32,192,120149,2,0,B|32:64,1,65,8|8
32,256,120483,6,0,B|32:97,1,130,4|2
32,32,121649,1,0
32,32,121816,1,2
96,32,122149,1,2
160,32,122483,1,2
224,32,122816,2,0,B|320:32,1,65,2|2
352,32,123483,5,2
384,16,123649,1,0
416,32,123816,1,2
448,48,123983,1,0
464,80,124149,1,0
480,112,124316,1,0
464,144,124483,1,2
448,176,124649,1,0
416,192,124816,1,2
384,208,124983,1,0
352,192,125149,2,0,B|352:96,2,65,2|2|2
416,320,126149,5,2
352,352,126316,1,0
352,288,126483,1,2
288,320,126649,2,0,B|192:320,1,65
160,352,126983,1,0
160,288,127149,1,0
32,288,127483,1,2
96,160,127816,1,2
96,288,128149,2,0,C|96:128,1,130,2|2
32,32,128816,5,2
96,32,128983,1,0
160,32,129149,2,0,B|256:32,3,65,2|0|0|0
288,32,129816,5,8
352,32,129983,1,8
368,64,130066,1,0
400,80,130149,1,8
480,96,130316,1,0
480,160,130483,5,8
464,192,130566,1,0
480,224,130649,1,8
464,256,130733,1,0
480,288,130816,1,8
464,320,130899,1,0
480,352,130983,1,8
416,352,131149,6,0,B|320:352,1,65,12|0
288,352,131483,1,8
320,288,131649,1,0
352,224,131816,2,0,B|400:240|392:320,2,65,8|0|8
288,224,132316,1,0
256,288,132483,2,0,B|160:288,1,65,8|0
192,352,132816,2,0,B|96:352,1,65,8|0
128,288,133149,2,8,B|32:288,1,65,8|0
32,224,133483,1,8
96,192,133649,1,0
160,160,133816,1,8
96,128,133983,6,0,B|96:32,2,65,0|8|0
160,96,134483,2,0,B|160:0,1,65,8|0
224,32,134816,2,0,B|224:128,1,65,8|0
256,160,135149,1,8
288,96,135316,1,0
320,32,135483,1,8
352,96,135649,1,0
384,32,135816,2,0,B|424:56|416:112,1,65,8|0
480,96,136149,1,8
480,160,136316,1,0
448,224,136483,1,12
480,352,136816,6,0,B|480:256,1,65,8|0
416,352,137149,2,0,B|416:256,3,65,8|0|8|0
352,352,137816,2,0,B|256:352,1,65,8|0
352,288,138149,2,0,B|256:288,2,65,8|0|8
352,224,138649,1,0
320,160,138816,1,8
256,160,138983,1,0
192,160,139149,1,8
160,224,139316,1,0
160,288,139483,5,8
160,352,139649,1,0
96,352,139816,2,0,L|96:192,1,130,8|8
256,64,140483,5,0
224,128,140649,1,8
224,160,140733,1,0
224,192,140816,1,8
256,256,140983,1,0
256,256,141149,5,8
288,192,141316,1,8
288,160,141399,1,0
288,128,141483,1,8
256,64,141649,1,8
256,64,141816,1,4
256,192,141983,12,4,145816
32,224,147149,6,0,B|32:416,1,130,0|8
96,352,147649,2,0,B|96:160,1,130,0|0
64,160,148149,1,8
64,96,148316,1,8
96,32,148483,2,0,B|288:32,1,130,0|8
288,32,148983,2,0,B|480:32,1,130,0|0
448,96,149483,5,8
448,160,149649,1,8
480,224,149816,2,0,B|480:416,1,130,0|8
416,352,150316,2,0,B|416:160,1,130,0|0
352,224,150816,1,8
352,256,150899,1,0
352,288,150983,1,8
352,320,151066,1,0
352,352,151149,1,8
256,32,151483,5,8
32,192,151816,5,8
256,352,152149,5,8
480,192,152483,5,12
256,192,152649,12,0,158316
