osu file format v5

[General]
AudioFilename: My Generation.mp3
AudioLeadIn: 0
PreviewTime: -1
Countdown: 1
SampleSet: Normal
StackLeniency: 0.7
Mode: 0
LetterboxInBreaks: 1
EditorBookmarks: 11778

[Metadata]
Title:My Generation
Artist:YUI
Creator:taktaktak
Version:Hard
Source:
Tags:

[Difficulty]
HPDrainRate:6
CircleSize:6
OverallDifficulty:6
SliderMultiplier:1.4
SliderTickRate:2

[Events]
//Background and Video events
1,0,"YUI - My Generation.AVI"
//Break Periods
2,162503,179504
//Storyboard Layer 0 (Background)
//Storyboard Layer 1 (Failing)
//Storyboard Layer 2 (Passing)
//Storyboard Layer 3 (Foreground)
//Storyboard Sound Samples
//Background Colour Transformations
3,100,163,162,255

[TimingPoints]
370,368.030423848371,4,1,0,100

[Colours]
Combo1 : 128,0,128
Combo2 : 255,0,0
Combo3 : 0,255,0
Combo4 : 255,128,0
Combo5 : 0,64,128

[HitObjects]
256,192,12146,1,0
256,192,12330,1,0
192,256,12699,1,0
160,288,12883,1,0
160,288,13067,1,0
160,192,13435,1,0
160,160,13619,2,0,B|320:160,2,140
256,192,15091,5,0
256,192,15275,1,0
320,128,15643,1,0
352,96,15827,1,0
352,96,16011,1,0
352,192,16379,1,0
352,224,16563,2,0,B|160:224,2,140
192,128,18035,6,0,B|192:224,1,70
224,224,18403,2,0,B|224:128,1,70
256,128,18771,2,0,B|256:224,1,70
288,224,19139,2,0,B|288:128,1,70
320,128,19507,2,0,B|320:224,1,70
352,224,19875,2,0,B|352:64,1,140
384,64,20427,2,0,B|384:160,2,70
192,64,21347,5,0
192,64,21531,1,0
224,96,21715,1,0
224,96,21899,1,0
256,128,22083,1,0
256,128,22267,1,0
288,160,22451,1,0
288,160,22635,1,0
320,192,22819,1,0
384,256,23187,1,0
224,256,23923,5,0
224,256,24107,1,0
224,224,24291,1,0
224,128,24660,1,0
224,128,24844,1,0
224,128,25028,1,0
160,64,25396,6,2,C|352:64,3,140
320,128,26868,1,0
320,128,27052,1,0
416,128,27420,1,0
416,160,27604,1,0
416,192,27788,1,0
416,288,28156,1,2
416,288,28340,2,2,C|224:288,2,140
320,192,29628,5,2
288,160,29812,1,0
256,192,29996,1,2
224,160,30180,1,0
192,192,30364,1,2
256,192,30916,1,0
256,192,31100,1,0
256,192,31284,2,6,B|84:193|136:24|192:0|256:0|320:0|386:16|451:95|470:190|412:266|360:338|274:338|205:325|159:290|128:256,1,840
256,128,35700,5,4
256,256,36252,1,4
320,128,36805,6,4,B|416:128,1,70
416,128,37173,2,4,B|416:224,1,70
416,224,37541,2,4,B|416:320,1,70
384,256,37909,1,0
352,224,38277,2,2,C|192:224,1,140
160,224,39197,1,0
128,96,39749,5,0
160,128,39933,1,0
192,96,40117,1,0
224,128,40301,1,0
256,96,40485,1,0
288,128,40669,1,0
320,96,40853,1,0
384,128,41221,2,0,B|384:160|384:192|352:224|320:256|288:256|256:256|224:224|192:192|160:192,1,280
128,192,43061,5,0
192,192,43245,1,0
256,192,43613,1,0
384,192,43981,1,0
448,256,44349,6,2,C|64:256,1,350
64,192,45637,2,0,B|288:192,1,210
352,192,46557,2,0,B|480:192,1,70
256,256,47477,5,4
256,128,48029,1,4
352,64,48581,6,0,B|352:160,2,70
352,160,49318,1,0
352,192,49502,1,0
352,224,49686,2,0,B|320:256|288:256|256:256|224:224,1,140
160,288,50422,2,0,B|160:64,1,210
256,64,51710,6,0,B|352:64,2,70
288,128,52446,2,0,B|448:128,1,140
384,192,53182,2,0,B|160:192,1,210
256,64,54470,5,0
256,96,54654,1,0
256,192,55022,1,0
256,192,55390,1,0
256,192,55758,1,4
256,192,56126,12,0,57230
256,192,57782,5,0
256,192,57966,1,0
256,192,58150,1,0
256,192,58334,1,0
288,192,58518,6,0,C|480:192,1,140
416,288,59254,1,0
384,288,59438,2,0,C|288:288,2,70
384,192,60174,2,0,C|288:192,2,70
288,192,60911,2,0,C|288:64,1,70
288,64,61279,2,0,C|160:64,1,70
160,64,61647,2,4,C|160:320,1,210
256,192,62567,5,0
256,192,62751,1,0
192,224,62935,1,0
192,224,63119,1,0
128,192,63303,1,0
128,192,63487,1,0
96,128,63671,2,6,C|288:128,1,140
320,128,64591,6,0,B|320:256,2,70
384,128,65143,2,2,C|384:384,1,210
288,320,66063,1,0
288,320,66247,1,0
192,320,66431,1,0
96,320,66799,1,0
96,224,67167,1,0
96,128,67535,2,0,C|224:128,2,70
256,128,68639,2,4,B|352:128,4,70
160,192,70295,6,4,B|160:96,1,70
192,128,70663,1,0
224,224,71031,2,0,B|320:224,3,70
160,128,71951,1,0
192,128,72135,1,0
224,128,72319,1,0
256,128,72503,1,0
288,128,72687,1,0
320,128,72871,2,0,B|320:256|256:256|192:256|128:192,1,280
133,197,73792,1,0
256,64,76920,5,0
320,128,77288,1,0
384,192,77656,1,0
320,256,78024,1,0
320,256,78208,1,0
320,256,78392,2,0,B|160:256,1,140
256,192,79128,1,0
192,128,79496,1,0
256,64,79864,1,0
320,128,80232,1,0
256,192,80600,1,0
256,192,80784,1,0
256,192,80968,1,0
256,192,81152,1,0
256,192,81704,12,4,83544
128,64,84280,5,4
224,64,84648,2,4,B|224:224,1,140
320,224,85385,2,4,B|320:64,1,140
384,128,88697,5,0
384,128,88881,1,0
384,160,89065,1,0
384,160,89249,1,0
384,192,89433,1,0
384,192,89617,1,0
352,192,89801,1,0
352,192,89985,1,0
320,192,90169,1,0
320,192,90353,1,0
224,192,90721,2,0,B|64:192,1,140
192,256,91641,5,0
192,256,91825,1,0
224,256,92009,1,0
224,256,92193,1,0
256,256,92377,1,0
256,256,92561,1,0
256,224,92745,1,0
256,224,92929,1,0
256,192,93113,1,0
256,96,93481,2,0,B|416:96,1,140
256,64,94585,5,0
288,64,94769,2,0,B|448:64,1,140
448,128,95505,1,0
352,128,95873,2,2,L|160:128|160:256|352:256|352:192,1,560
256,192,97898,5,0
320,256,98266,1,0
384,192,98634,1,0
448,256,99002,1,0
448,96,99738,1,0
256,64,100474,5,0
256,64,100658,1,0
224,96,100842,1,0
224,96,101026,1,0
192,64,101210,1,0
192,64,101394,1,0
160,96,101578,2,0,B|64:192,1,70
64,224,102130,2,0,L|256:224,2,140
192,192,103418,6,2,L|320:192,2,70
256,160,104154,2,2,B|352:160,2,70
288,128,104706,2,2,L|288:320,1,140
192,256,105442,1,0
64,256,106362,6,2,B|64:192|64:128|128:64|192:0|256:0|320:0|384:64|448:128|448:192|448:256,2,630
96,192,111515,5,0
96,192,111699,1,0
96,192,111883,1,0
96,192,112067,1,0
128,192,112251,5,4
256,192,112803,1,4
384,192,113355,2,0,B|384:0,1,140
320,64,114091,1,0
320,64,114275,2,0,B|192:64,2,70
320,64,114827,1,0
320,128,115195,2,0,B|320:192|256:256|192:256|128:192|128:128,1,280
128,64,116483,5,0
160,64,116667,2,0,B|256:64,2,70
128,64,117219,2,0,B|128:256,1,140
128,256,117771,1,0
128,256,117955,2,0,B|384:256,1,210
416,64,119611,6,0,B|416:160,3,70
320,128,120531,2,0,B|192:128,3,70
160,128,121452,1,0
256,128,121820,1,0
256,224,122188,2,6,L|192:352|128:224|64:352,1,420
128,192,124028,5,4
256,192,124580,1,4
128,192,125132,2,0,B|128:96,2,70
224,192,125868,1,0
256,192,126052,1,0
352,192,126420,1,0
352,192,126604,1,2
352,192,126788,1,2
384,192,126972,2,2,B|384:160|352:128|320:96|288:96|256:96|224:128|192:160|192:192,1,210
256,128,128076,6,2,B|256:32,2,70
160,128,128812,1,0
160,128,128996,1,0
128,128,129180,2,0,L|128:320,1,140
128,320,129916,1,0
128,320,130284,1,0
288,320,131020,5,0
320,288,131204,1,0
352,256,131388,1,0
384,224,131572,1,2
416,192,131756,2,2,L|224:192,1,140
192,192,132492,1,0
96,192,132860,2,0,B|224:192,7,70
96,64,135069,6,0,B|96:192,1,70
192,64,135805,1,0
192,64,135989,2,0,B|320:64,2,70
192,128,136725,2,0,B|320:128,2,70
224,192,137461,1,0
224,192,137645,1,0
256,192,137829,1,0
256,192,138013,1,0
256,224,138197,1,0
256,224,138381,1,0
288,224,138565,1,0
320,160,138933,5,0
320,160,139117,1,0
320,128,139301,1,0
320,128,139485,1,0
288,128,139669,1,0
288,128,139853,1,0
256,128,140037,1,0
256,128,140221,1,0
224,128,140405,1,0
128,128,140773,1,0
160,192,141141,6,0,B|160:320,2,70
192,192,141693,1,0
288,192,142061,1,0
288,192,142245,1,0
384,192,142613,2,0,B|384:320,2,70
384,192,143349,2,0,B|384:64,2,70
384,192,144085,2,0,B|512:192,2,70
256,192,145189,1,0
256,192,145373,2,0,L|128:192|128:64|128:32,1,280
256,256,147030,6,0,L|128:256,2,70
256,224,147582,1,2
256,192,147766,1,0
256,160,147950,1,0
256,128,148134,1,0
352,128,148502,5,0
352,160,148686,1,0
352,192,148870,1,0
352,224,149054,1,0
352,256,149238,1,0
320,256,149422,2,0,L|256:256|256:160|192:160|192:256|64:256,1,420
128,256,150894,5,0
128,256,151078,1,0
192,256,151262,1,0
192,256,151446,1,0
256,256,151630,1,0
256,256,151814,1,0
320,256,151998,1,0
320,256,152182,1,0
384,256,152550,1,4
384,64,153470,5,0
320,64,153838,1,0
256,64,154206,1,0
192,64,154574,1,0
192,64,154758,1,0
192,64,154942,2,0,B|64:64,1,70
128,128,155494,2,0,B|128:256,2,70
192,192,156414,5,0
192,192,156598,1,0
256,192,156782,1,0
256,192,156966,1,0
320,192,157150,1,0
320,192,157334,1,0
384,192,157518,1,0
384,192,157703,1,0
384,128,158071,2,6,B|329:41|232:43|165:88|160:212|213:291|340:281|363:220|384:192,1,490
256,192,160095,12,4,162303
384,192,180704,5,0
384,192,180888,1,0
352,160,181072,1,0
352,160,181256,1,0
320,128,181440,1,0
320,128,181624,1,0
256,64,181993,1,0
128,64,182545,6,0,B|96:64|64:96|64:160|128:160,1,140
192,192,183281,1,0
224,192,183465,1,0
256,192,183833,2,2,B|352:192,2,70
256,224,184385,2,6,B|224:224|192:192|192:160|224:128|256:128|288:128|320:160|320:192|288:224|256:256,1,280
384,64,186593,6,2,B|128:64,1,210
160,96,187329,1,0
160,192,187697,2,0,B|288:192,1,70
128,192,188617,2,6,B|130:120|180:76|232:49|318:60|380:113|381:200|364:299|254:331|154:302|128:192,1,630
256,192,190825,1,0
256,192,191377,1,0
192,128,191745,5,0
224,128,191929,1,0
320,128,192297,1,4
320,192,192665,6,0,B|192:192,1,70
192,192,193217,2,0,B|192:64,2,70
224,192,193769,1,0
256,192,194138,2,0,B|384:192,2,70
192,192,194874,1,0
192,192,195058,1,0
192,192,195242,1,0
128,192,195426,1,0
128,192,195610,1,0
64,192,195794,1,0
64,192,195978,1,0
64,64,196346,5,0
64,64,196530,1,0
128,64,196714,1,0
128,64,196898,1,0
192,64,197082,1,0
192,64,197266,1,0
256,64,197450,1,0
256,64,197634,1,0
320,64,197818,1,0
320,64,198186,1,4
448,96,199106,5,0
448,192,199474,1,0
448,288,199842,1,0
384,320,200210,1,0
384,320,200394,2,0,B|256:320,2,70
384,256,201130,2,2,B|288:256,4,70
384,224,202050,5,0
384,128,202418,1,0
288,128,202786,2,0,B|160:128,3,70
256,192,203706,2,0,B|256:352,1,140
256,332,204258,1,0
256,332,204442,1,0
256,332,204626,1,0
256,332,204810,1,0
256,192,205362,12,4,207939
