osu file format v5

[General]
AudioFilename: My Generation.mp3
AudioLeadIn: 0
PreviewTime: -1
Countdown: 1
SampleSet: Normal
StackLeniency: 0.7
Mode: 0
LetterboxInBreaks: 1
EditorBookmarks: 11778

[Metadata]
Title:My Generation
Artist:YUI
Creator:taktaktak
Version:Easy
Source:
Tags:

[Difficulty]
HPDrainRate:4
CircleSize:4
OverallDifficulty:4
SliderMultiplier:1.4
SliderTickRate:2

[Events]
//Background and Video events
1,0,"YUI - My Generation.AVI"
//Break Periods
2,162503,179504
//Storyboard Layer 0 (Background)
//Storyboard Layer 1 (Failing)
//Storyboard Layer 2 (Passing)
//Storyboard Layer 3 (Foreground)
//Storyboard Sound Samples
//Background Colour Transformations
3,100,163,162,255

[TimingPoints]
370,368.030423848371,4,1,0,100

[Colours]
Combo1 : 128,0,128
Combo2 : 255,0,0
Combo3 : 0,255,0
Combo4 : 255,128,0
Combo5 : 0,64,128

[HitObjects]
256,192,12146,1,0
128,192,12883,1,0
64,128,13619,2,0,B|384:128,1,280
256,192,15091,5,0
384,192,15827,1,0
448,256,16563,2,0,B|128:256,1,280
384,128,18035,6,6,L|64:128,4,280
64,192,23923,5,0
192,64,24660,1,0
320,192,25396,1,0
448,64,26132,1,0
320,128,26868,5,0
448,128,27604,1,0
448,320,28340,2,0,B|128:320,1,280
64,192,29812,5,0
256,192,30548,1,0
256,192,31284,2,6,B|84:193|136:24|192:0|256:0|320:0|386:16|451:95|470:190|412:266|360:338|274:338|205:325|159:290|128:256,1,840
256,192,35700,5,4
256,192,36252,1,4
384,64,36805,5,4
320,128,37541,1,4
256,192,38277,1,4
64,192,39197,1,4
128,128,40117,5,0
192,128,40485,1,0
256,128,40853,2,0,B|512:128,2,210
128,192,43061,5,0
256,192,43613,1,0
320,192,43981,1,0
448,256,44349,6,2,C|64:256,1,350
64,192,45637,2,2,C|512:192,1,420
256,192,47477,5,4
256,192,48029,1,4
384,64,48581,5,0
384,192,49318,1,0
256,64,50054,1,0
256,160,50422,2,0,B|224:192|192:192|160:192|128:160|128:128|128:96|160:64|192:64|192:64,1,210
256,64,51710,5,2
320,128,52446,2,2,C|128:128,1,140
256,192,53182,2,0,B|288:192|320:224|320:256|320:288|288:320|256:320|224:320,1,210
128,192,54470,5,0
256,192,55022,1,0
320,192,55390,1,0
320,192,55758,1,4
256,192,56310,12,0,57782
128,64,58518,2,0,C|320:64,1,140
320,128,59254,2,0,B|64:128,1,210
128,192,60174,2,0,B|320:192,1,140
320,256,60911,2,0,L|64:256,2,210
320,128,62567,5,0
256,128,62935,1,0
192,128,63303,1,0
192,192,63671,2,6,C|448:192,1,210
320,128,64591,5,6
384,128,65143,2,2,C|384:384,1,210
320,320,66063,1,0
256,320,66431,1,0
192,320,66799,1,0
128,320,67167,1,0
128,256,67535,2,0,L|128:64,1,140
128,64,68639,2,6,C|448:64,1,280
160,192,70479,5,0
128,64,71031,2,2,L|320:64,1,140
192,128,72135,1,0
256,128,72503,1,0
320,128,72871,2,0,B|320:256|256:256|192:256|0:192,1,350
256,64,76920,5,0
320,64,77288,1,0
384,64,77656,1,0
384,128,78024,1,0
320,128,78392,1,0
256,128,78760,1,0
256,192,79128,1,0
320,192,79496,1,0
384,192,79864,1,0
384,256,80232,1,0
320,256,80600,2,0,L|64:256,1,210
256,192,81704,12,4,85753
448,64,88697,1,0
448,192,89433,1,0
320,192,90169,1,0
320,320,90905,1,0
256,128,91641,5,0
192,64,92377,1,0
128,128,93113,1,0
64,192,93849,1,0
256,64,94585,6,0,B|448:64,1,140
448,128,95321,2,0,B|256:128,1,140
192,128,96057,2,2,L|0:128|0:256|192:256|192:192,1,560
256,64,100474,5,0
128,64,101210,1,0
128,256,101946,2,0,B|512:256,1,350
320,256,103418,5,0
320,128,104154,1,0
256,128,104890,2,2,L|0:128,1,210
128,192,106362,6,2,B|384:192,6,210
256,192,112251,5,4
256,192,112803,1,4
384,192,113355,2,0,B|384:0,1,140
320,64,114091,2,0,L|128:64,1,140
320,128,115195,2,0,B|320:192|256:256|192:256|128:192|128:128,1,280
128,64,116483,6,0,L|320:64,1,140
320,64,117219,2,0,B|320:256,1,140
320,256,117955,2,0,B|64:256,1,210
64,64,119611,5,0
128,64,119979,1,2
192,64,120347,1,0
256,64,120715,2,0,L|448:64,1,140
448,64,121452,1,0
448,128,121820,1,0
384,128,122188,1,6
320,128,122556,2,6,L|0:128,1,280
256,192,124028,5,4
256,192,124580,1,4
256,320,125132,1,0
320,320,125500,1,0
384,320,125868,1,0
384,256,126236,1,0
320,256,126604,1,0
256,256,126972,1,0
256,128,127524,1,0
256,256,128444,5,0
192,256,128812,1,0
128,256,129180,2,0,L|128:64|384:64,1,420
192,192,131020,5,0
256,192,131388,1,0
320,192,131756,1,0
320,128,132124,1,0
384,128,132492,1,0
448,192,132860,2,2,B|448:256|384:320|320:384|256:384|192:384|128:320|64:256|64:128,1,560
64,64,135253,6,0,B|192:64,1,70
192,64,135805,1,0
256,64,136173,1,0
256,128,136541,2,0,L|64:128,1,140
128,192,137277,1,0
192,192,137645,1,0
256,192,138013,1,0
320,192,138381,1,0
384,128,138749,5,0
320,128,139117,1,0
256,128,139485,1,0
192,128,139853,1,0
192,320,140773,1,0
128,320,141141,5,0
128,128,141693,1,0
224,128,142061,1,0
320,64,142613,2,0,L|512:64,1,140
448,128,143349,2,0,L|256:128,1,140
320,192,144085,2,0,L|512:192,1,140
256,192,145189,2,0,L|128:192|128:64|256:64,1,350
128,256,147030,6,0,L|320:256,1,140
256,192,147766,2,0,L|64:192,1,140
128,128,148502,2,0,L|320:128,1,140
128,64,149422,2,0,L|320:64|320:320,1,420
320,192,150894,5,0
256,192,151262,1,0
256,128,151630,1,0
320,128,151998,1,0
320,256,152550,1,4
384,64,153470,5,0
320,64,153838,1,0
256,64,154206,1,0
192,64,154574,2,0,L|64:64|64:192,1,210
64,192,155494,2,0,L|256:192,1,140
128,256,156414,5,0
192,256,156782,1,0
256,256,157150,1,0
320,256,157518,1,0
320,128,158071,2,6,B|265:41|168:43|101:88|96:212|149:291|276:281|299:220|320:192,1,490
256,192,160095,12,4,162303
384,256,180704,5,0
320,256,181072,1,0
256,256,181440,2,0,L|256:0,1,210
192,64,182545,6,0,B|192:256,1,140
256,192,183281,1,0
320,192,183649,1,0
384,192,184017,1,0
384,256,184385,2,6,B|64:256,1,280
384,64,186593,6,2,B|192:64,1,140
192,128,187329,2,2,L|448:128,1,210
128,192,188617,2,6,B|130:120|180:76|232:49|318:60|380:113|381:200|364:299|254:331|154:302|128:192,1,630
256,192,190825,1,0
256,192,191377,1,0
192,128,191745,5,0
224,128,191929,1,0
320,128,192297,1,4
320,192,192665,6,0,B|192:192,1,70
192,192,193217,1,2
128,192,193585,1,2
128,256,193954,2,2,L|384:256,1,210
384,192,194874,1,0
320,192,195242,1,0
256,192,195610,1,0
192,192,195978,1,0
128,128,196346,5,0
192,128,196714,1,0
256,128,197082,1,0
320,128,197450,1,0
320,320,198186,1,4
320,128,199106,5,0
384,128,199474,1,0
448,128,199842,1,0
448,192,200210,2,0,L|256:192,1,140
256,192,200946,1,0
192,192,201314,1,0
128,192,201682,1,0
128,128,202050,5,0
192,128,202418,1,0
256,128,202786,2,0,L|512:128,1,210
448,192,203706,2,0,B|448:256|384:320|320:320|256:320|192:256|192:192|192:128,1,420
256,192,205362,12,4,207939
