osu file format v12

[General]
AudioFilename: 1.mp3
AudioLeadIn: 1500
PreviewTime: 40314
Countdown: 0
SampleSet: Soft
StackLeniency: 0.7
Mode: 0
LetterboxInBreaks: 0

[Editor]
DistanceSpacing: 1
BeatDivisor: 4
GridSize: 4

[Metadata]
Title:LIFE (TV Size)
TitleUnicode:LIFE (TV Size)
Artist:YUI
ArtistUnicode:YUI
Creator:JauiPlaY
Version:Love
Source:BLEACH
Tags:ending
BeatmapID:214203
BeatmapSetID:75878

[Difficulty]
HPDrainRate:5
CircleSize:4
OverallDifficulty:5
ApproachRate:6
SliderMultiplier:1.6
SliderTickRate:1

[Events]
//Background and Video events
0,0,"bg.jpg",0,0
//Break Periods
2,15727,22826
//Storyboard Layer 0 (Background)
//Storyboard Layer 1 (Fail)
//Storyboard Layer 2 (Pass)
//Storyboard Layer 3 (Foreground)
//Storyboard Sound Samples
//Background Colour Transformations
3,100,255,255,255

[TimingPoints]
920,521.739130434783,4,2,1,100,1,0
920,-133.333333333333,4,2,1,100,0,0
8746,-100,4,2,1,100,0,0
9267,-100,4,2,1,100,0,1
15398,-100,4,2,1,100,0,0
15528,-100,4,2,1,100,0,1
15659,-100,4,2,1,100,0,0
53093,-100,4,2,1,100,0,1
60643,521.739130434783,4,2,1,100,1,1
61425,521.739130434783,4,2,1,100,1,1
69642,-100,4,2,1,100,0,0
69772,-100,4,2,1,100,0,1
82294,-100,4,2,1,100,0,0

[Colours]
Combo1 : 255,255,40
Combo2 : 254,174,27
Combo3 : 254,97,97

[HitObjects]
272,286,920,6,0,B|267:315|281:337|333:347|369:314|382:375|382:375|434:284|392:220|339:210,1,360.000013732911,2|0,0:0|0:0,0:0:0:0:
183,139,3006,6,0,B|159:120|133:122|98:162|109:210|49:191|49:191|103:281|178:276|214:236,1,360.000013732911,2|0,0:0|0:0,0:0:0:0:
356,137,5093,6,0,B|385:126|396:102|379:52|332:37|379:-3|379:-3|274:-2|240:65|256:112,1,360.000013732911,2|0,0:0|0:0,0:0:0:0:
256,120,7180,5,2,0:0:0:0:
256,128,7702,1,2,0:0:0:0:
256,136,8224,6,0,L|256:232,1,90.0000034332277,8|8,0:0|0:0,0:0:0:0:
258,267,8746,2,0,L|258:315,2,40,8|8|0,0:0|0:0|0:0,0:0:0:0:
258,267,9267,6,0,P|350:266|410:334,1,160,4|8,0:0|0:0,0:0:0:0:
470,351,10050,2,0,L|510:383,2,40,0|8|0,0:0|0:0|0:0,0:0:0:0:
470,270,10572,2,0,P|462:214|470:174,1,80,0|8,0:0|0:0,0:0:0:0:
436,116,11093,2,0,L|468:84,2,40,0|0|0,0:0|0:0|0:0,0:0:0:0:
356,120,11615,6,0,P|316:96|256:96,1,80,0|8,0:0|0:0,0:0:0:0:
244,160,12137,2,0,L|252:204,2,40,0|8|0,0:0|0:0|0:0,0:0:0:0:
182,108,12659,1,0,0:0:0:0:
168,188,12920,2,0,P|116:160|96:120,1,80,8|0,0:0|0:0,0:0:0:0:
52,88,13441,6,0,P|16:152|20:204,1,120
36,232,13963,2,0,L|104:284,1,80,8|0,0:0|0:0,0:0:0:0:
140,352,14485,2,0,P|180:320|228:316,1,80,8|8,0:0|0:0,0:0:0:0:
256,244,15006,2,0,L|256:196,4,40,8|8|8|8|4,0:0|0:0|0:0|0:0|0:0,0:0:0:0:
256,192,23876,6,0,P|288:216|304:268,1,80,4|0,0:0|0:0,0:0:0:0:
364,304,24398,2,0,P|388:240|464:168,1,160,8|0,0:0|0:0,0:0:0:0:
484,100,25180,2,0,L|312:104,1,160,8|8,0:0|0:0,0:0:0:0:
272,44,25963,2,0,P|196:56|156:88,1,120
124,80,26485,2,0,P|116:136|140:168,1,80,8|0,0:0|0:0,0:0:0:0:
72,212,27006,2,0,L|28:228,2,40
128,268,27528,1,8,0:0:0:0:
128,268,27789,6,0,P|240:268|360:352,1,240,0|8,0:0|0:0,0:0:0:0:
468,228,29093,2,0,L|484:184,2,40,0|8|0,0:0|0:0|0:0,0:0:0:0:
468,308,29615,1,8,0:0:0:0:
408,160,30137,2,0,B|400:204|372:232|372:232|324:232|288:216,1,160,0|8,0:0|0:0,0:0:0:0:
224,184,30919,2,0,B|232:140|260:112|260:112|308:112|344:128,1,160
408,160,31702,1,8,0:0:0:0:
272,248,32224,6,0,P|200:264|148:204,1,160,0|8,0:0|0:0,0:0:0:0:
100,52,33267,2,0,L|48:64,2,40,0|8|0,0:0|0:0|0:0,0:0:0:0:
172,88,33789,1,8,0:0:0:0:
252,72,34050,2,0,P|328:48|416:80,1,160,0|8,0:0|0:0,0:0:0:0:
472,216,35093,2,0,P|396:240|308:208,1,160,8|0,0:0|0:0,0:0:0:0:
292,292,35876,1,8,0:0:0:0:
220,328,36137,2,0,L|244:372,2,40
104,304,36789,5,0,0:0:0:0:
104,304,36919,2,0,P|104:260|80:216,1,80,8|0,0:0|0:0,0:0:0:0:
164,196,37441,2,0,P|164:112|232:36,1,160,0|8,0:0|0:0,0:0:0:0:
344,136,38485,2,0,P|404:144|468:128,1,120
476,168,39006,2,0,P|484:208|472:256,1,80,8|0,0:0|0:0,0:0:0:0:
420,304,39528,2,0,L|492:352,2,80,8|8|8,0:0|0:0|0:0,0:0:0:0:
420,304,40572,5,4,0:0:0:0:
264,340,41093,1,2,0:0:0:0:
304,184,41615,2,0,P|296:144|300:100,2,80,0|0|2,0:0|0:0|0:0,0:0:0:0:
148,224,42659,1,0,0:0:0:0:
36,112,43180,1,2,0:0:0:0:
192,84,43702,2,0,L|208:136,2,40,0|2|0,0:0|0:0|0:0,0:0:0:0:
268,56,44224,2,0,P|304:32|356:28,1,80,2|0,0:0|0:0,0:0:0:0:
404,76,44746,5,0,0:0:0:0:
276,168,45267,1,2,0:0:0:0:
424,228,45789,2,0,P|436:268|432:312,2,80,0|0|2,0:0|0:0|0:0,0:0:0:0:
360,276,46572,2,0,P|284:320|140:280,1,240,0|2,0:0|0:0,0:0:0:0:
64,280,47615,1,4,0:0:0:0:
64,280,48137,2,0,P|81:241|81:201,1,80,0|2,0:0|0:0,0:0:0:0:
138,147,48659,1,2,0:0:0:0:
159,223,48920,6,0,B|176:144|176:144|204:104|248:84,1,160,4|8,0:0|0:0,0:0:0:0:
384,40,49963,2,0,B|414:52|442:92|442:92|459:171,1,160,8|8,0:0|0:0,0:0:0:0:
376,311,51006,1,0,0:0:0:0:
454,296,51267,1,8,0:0:0:0:
401,235,51528,1,8,0:0:0:0:
376,311,51789,2,0,L|384:355,2,40,8|8|0,0:0|0:0|0:0,0:0:0:0:
304,347,52311,2,0,P|219:301|195:237,1,160,8|8,0:0|0:0,0:0:0:0:
256,192,53093,6,0,P|252:120|208:44,1,160,4|8,0:0|0:0,0:0:0:0:
52,80,54137,2,0,P|56:152|100:228,1,160,0|8,0:0|0:0,0:0:0:0:
176,252,54920,1,0,0:0:0:0:
220,320,55180,2,0,B|260:312|260:312|336:344|376:280,1,160,0|10,0:0|0:0,0:0:0:0:
460,160,56224,2,0,B|420:168|420:168|344:136|304:200,1,160,2|10,0:0|0:0,0:0:0:0:
248,140,57006,1,0,0:0:0:0:
224,64,57267,6,0,P|132:84|112:116,1,120
80,108,57789,2,0,P|84:152|68:192,1,80,8|0,0:0|0:0,0:0:0:0:
16,244,58311,1,0,0:0:0:0:
92,264,58572,2,0,P|172:268|228:336,1,160,8|8,0:0|0:0,0:0:0:0:
300,340,59354,5,0,0:0:0:0:
408,284,59746,1,0,0:0:0:0:
408,284,59876,2,0,P|424:244|416:200,1,80,8|0,0:0|0:0,0:0:0:0:
480,152,60398,1,0,0:0:0:0:
448,76,60643,1,8,0:0:0:0:
368,80,60903,2,0,P|320:88|288:120,1,80,0|8,0:0|0:0,0:0:0:0:
280,184,61425,6,0,P|208:140|196:64,1,160,4|8,0:0|0:0,0:0:0:0:
36,56,62468,2,0,P|108:100|120:176,1,160,0|8,0:0|0:0,0:0:0:0:
76,236,63251,1,0,0:0:0:0:
8,276,63511,2,0,P|88:332|176:320,1,160,0|8,0:0|0:0,0:0:0:0:
304,304,64555,2,0,P|224:248|136:260,1,160,0|8,0:0|0:0,0:0:0:0:
104,196,65338,1,0,0:0:0:0:
28,176,65598,6,0,B|44:104|116:80|116:80|152:88,1,160,0|8,0:0|0:0,0:0:0:0:
300,80,66642,2,0,L|276:48,2,40,0|8|0,0:0|0:0|0:0,0:0:0:0:
372,116,67164,2,0,P|368:160|344:204,1,80,8|0,0:0|0:0,0:0:0:0:
256,192,67685,12,8,69251,0:0:0:0:
256,192,69772,6,0,P|304:124|388:104,1,160,4|8,0:0|0:0,0:0:0:0:
472,232,70816,2,0,P|424:300|340:320,1,160,0|8,0:0|0:0,0:0:0:0:
292,268,71598,1,0,0:0:0:0:
256,192,71859,2,0,P|212:248|244:332,1,160,0|10,0:0|0:0,0:0:0:0:
132,204,72903,2,0,P|176:148|144:64,1,160,2|10,0:0|0:0,0:0:0:0:
100,132,73685,1,0,0:0:0:0:
100,132,73946,6,0,L|224:136,1,120
252,112,74468,2,0,P|260:68|284:32,1,80,8|0,0:0|0:0,0:0:0:0:
332,100,74990,1,0,0:0:0:0:
408,128,75251,2,0,P|440:208|412:292,1,160,8|8,0:0|0:0,0:0:0:0:
440,356,76033,2,0,P|380:348|344:288,1,120,0|0,0:0|0:0,0:0:0:0:
324,268,76555,2,0,P|268:276|224:312,1,80,8|0,0:0|0:0,0:0:0:0:
188,340,77077,1,0,0:0:0:0:
120,300,77338,6,0,P|48:328|24:364,2,120,8|8|4,0:0|0:0|0:0,0:0:0:0:
48,156,78642,1,8,0:0:0:0:
168,44,79164,2,0,L|124:32,2,40,0|8|0,0:0|0:0|0:0,0:0:0:0:
196,120,79685,2,0,P|232:144|276:148,1,80,8|0,0:0|0:0,0:0:0:0:
320,88,80207,6,0,P|412:112|433:188,1,160,0|8,0:0|0:0,0:0:0:0:
416,244,80990,2,0,L|464:268,2,40,0|8|0,0:0|0:0|0:0,0:0:0:0:
336,252,81511,1,0,0:0:0:0:
384,316,81772,2,0,P|336:340|316:376,1,80,8|0,0:0|0:0,0:0:0:0:
256,316,82294,6,0,P|197:351|140:333,2,120,0|2|2,0:0|0:0|0:0,0:0:0:0:
132,216,83598,2,0,P|140:173|177:146,1,80,0|2,0:0|0:0,0:0:0:0:
240,116,84120,1,0,0:0:0:0:
316,140,84381,6,0,P|337:63|316:13,4,120,0|2|0|2|0,0:0|0:0|0:0|0:0|0:0,0:0:0:0:
256,192,86207,1,2,0:0:0:0:
