osu file format v12

[General]
AudioFilename: 1.mp3
AudioLeadIn: 1500
PreviewTime: 40314
Countdown: 0
SampleSet: Soft
StackLeniency: 0.7
Mode: 0
LetterboxInBreaks: 0

[Editor]
DistanceSpacing: 1.1
BeatDivisor: 4
GridSize: 4

[Metadata]
Title:LIFE (TV Size)
TitleUnicode:LIFE (TV Size)
Artist:YUI
ArtistUnicode:YUI
Creator:JauiPlaY
Version:LIFE
Source:BLEACH
Tags:ending
BeatmapID:214202
BeatmapSetID:75878

[Difficulty]
HPDrainRate:6
CircleSize:4
OverallDifficulty:7
ApproachRate:8
SliderMultiplier:2
SliderTickRate:1

[Events]
//Background and Video events
0,0,"bg.jpg",0,0
//Break Periods
//Storyboard Layer 0 (Background)
//Storyboard Layer 1 (Fail)
//Storyboard Layer 2 (Pass)
//Storyboard Layer 3 (Foreground)
//Storyboard Sound Samples
//Background Colour Transformations
3,100,255,255,255

[TimingPoints]
920,521.739130434783,4,2,1,100,1,0
920,-200,4,2,1,100,0,0
3006,-133.333333333333,4,2,1,100,0,0
5093,-200,4,2,1,100,0,0
7180,-125,4,2,1,100,0,0
8615,-181.818181818181,4,2,1,100,0,0
9267,-100,4,2,1,100,0,1
15398,-100,4,2,1,100,0,0
15528,-100,4,2,1,100,0,1
15659,-100,4,2,1,100,0,0
53093,-100,4,2,1,100,0,1
60643,521.739130434783,4,2,1,100,1,1
61425,521.739130434783,4,2,1,100,1,1
69642,-100,4,2,1,100,0,0
69772,-100,4,2,1,100,0,1
82294,-100,4,2,1,100,0,0

[Colours]
Combo1 : 255,255,40
Combo2 : 254,174,27
Combo3 : 254,97,97

[HitObjects]
24,37,920,6,0,B|52:44|52:44|36:65|44:180|33:201|33:201|103:185|153:196,1,300,2|0,0:0|0:0,0:0:0:0:
235,250,3006,6,0,B|166:256|166:256|191:232|191:124|206:82|206:82|155:87,1,300.000011444092,2|0,0:0|0:0,0:0:0:0:
339,196,4572,5,0,0:0:0:0:
364,105,5093,2,0,B|309:122|264:118|264:118|245:140|245:140|273:157|298:215|290:314,1,300,2|0,0:0|0:0,0:0:0:0:
485,354,7180,6,0,B|432:340|389:348|389:348|376:331|387:262|378:212|378:212|422:207|474:193,1,320,2|8,0:0|0:0,0:0:0:0:
453,275,8615,2,0,L|482:272,3,27.5000008392334,8|8|8|0,0:0|0:0|0:0|0:0,0:0:0:0:
480,272,9267,6,0,P|444:196|440:128,1,150,4|0,0:0|0:0,0:0:0:0:
416,88,9789,2,0,P|368:84|324:56,1,100,8|0,0:0|0:0,0:0:0:0:
280,120,10180,2,0,P|232:124|188:152,1,100,8|8,0:0|0:0,0:0:0:0:
119,180,10572,2,0,P|85:162|61:156,1,50
96,84,10833,2,0,P|100:136|120:184,1,100,8|0,0:0|0:0,0:0:0:0:
156,330,11354,6,0,P|202:266|269:255,1,150
300,296,11876,2,0,P|340:252|348:208,1,100,8|0,0:0|0:0,0:0:0:0:
316,48,12267,2,0,P|300:105|313:148,1,100,8|8,0:0|0:0,0:0:0:0:
232,148,12659,2,0,L|184:124,2,50,0|0|8,0:0|0:0|0:0,0:0:0:0:
356,64,13180,1,0,0:0:0:0:
360,80,13311,1,0,0:0:0:0:
364,96,13441,6,0,L|472:148,1,100
460,152,13833,1,0,0:0:0:0:
468,164,13963,2,0,P|451:214|459:262,1,100,8|0,0:0|0:0,0:0:0:0:
304,200,14485,1,8,0:0:0:0:
468,164,14746,1,8,0:0:0:0:
304,200,15006,2,0,P|352:208|380:224,1,50,8|8,0:0|0:0,0:0:0:0:
468,164,15267,2,0,P|428:192|410:218,1,50,8|8,0:0|0:0,0:0:0:0:
404,264,15528,6,0,P|362:307|280:263,1,150,4|0,0:0|0:0,0:0:0:0:
248,312,16050,2,0,P|200:288|148:284,1,100,8|0,0:0|0:0,0:0:0:0:
154,283,16441,1,8,0:0:0:0:
60,316,16702,1,8,0:0:0:0:
48,304,16833,2,0,P|32:256|36:200,1,100,0|8,0:0|0:0,0:0:0:0:
192,60,17354,2,0,P|220:48|239:46,1,50,0|8,0:0|0:0,0:0:0:0:
133,108,17615,2,0,P|132:128|120:156,1,50,0|8,0:0|0:0,0:0:0:0:
212,224,18006,5,0,0:0:0:0:
224,240,18137,1,8,0:0:0:0:
356,316,18398,1,0,0:0:0:0:
340,295,18528,1,8,0:0:0:0:
300,128,18789,5,0,0:0:0:0:
319,153,18920,1,8,0:0:0:0:
458,239,19180,1,0,0:0:0:0:
435,208,19311,1,8,0:0:0:0:
430,170,19441,1,0,0:0:0:0:
443,133,19572,1,8,0:0:0:0:
472,108,19702,6,0,P|418:56|343:45,1,150
337,94,20224,2,0,P|286:116|235:104,1,100,8|0,0:0|0:0,0:0:0:0:
110,60,20615,2,0,P|161:38|212:50,1,100,8|8,0:0|0:0,0:0:0:0:
167,118,21006,1,0,0:0:0:0:
273,254,21267,1,8,0:0:0:0:
337,94,21528,1,0,0:0:0:0:
332,104,21659,1,8,0:0:0:0:
327,114,21789,6,0,P|269:181|205:178,1,150
212,181,22311,1,8,0:0:0:0:
52,172,22572,2,8,L|16:148,3,33.3333333333333
168,120,23093,1,8,0:0:0:0:
84,240,23354,2,8,P|121:233|149:217,1,50
213,181,23615,2,8,P|214:193|206:230,1,50
167,296,23876,5,4,0:0:0:0:
276,304,24137,1,0,0:0:0:0:
376,352,24398,2,0,P|404:316|416:264,1,100,8|0,0:0|0:0,0:0:0:0:
388,192,24789,2,0,P|342:185|291:201,1,100,8|8,0:0|0:0,0:0:0:0:
212,181,25180,2,0,L|160:188,2,50,0|0|8,0:0|0:0|0:0,0:0:0:0:
272,68,25702,1,0,0:0:0:0:
272,68,25833,1,8,0:0:0:0:
272,68,25963,6,0,P|310:97|369:110,1,100
464,68,26485,1,8,0:0:0:0:
388,192,26746,2,0,P|376:212|368:244,1,50,0|8,0:0|0:0,0:0:0:0:
484,212,27137,2,0,P|496:192|504:160,1,50,8|0,0:0|0:0,0:0:0:0:
369,237,27528,2,0,P|324:265|300:305,1,100,8|0,0:0|0:0,0:0:0:0:
292,313,27919,1,8,0:0:0:0:
284,321,28050,6,0,P|212:349|136:329,1,150
88,340,28572,2,0,P|64:292|68:232,1,100,8|0,0:0|0:0,0:0:0:0:
124,144,28963,2,0,P|148:192|144:252,1,100,8|8,0:0|0:0,0:0:0:0:
148,237,29354,1,0,0:0:0:0:
252,208,29615,1,8,0:0:0:0:
364,204,29876,1,0,0:0:0:0:
372,312,30137,5,0,0:0:0:0:
472,196,30398,1,0,0:0:0:0:
400,64,30659,1,8,0:0:0:0:
329,168,30919,2,0,P|339:175|364:204,1,50,0|8,0:0|0:0,0:0:0:0:
244,236,31311,2,0,P|234:229|209:200,1,50,8|0,0:0|0:0,0:0:0:0:
225,79,31702,2,0,P|166:90|128:80,1,100,8|0,0:0|0:0,0:0:0:0:
120,84,32093,1,8,0:0:0:0:
112,88,32224,6,0,P|108:176|140:236,1,150
92,264,32746,2,0,P|79:320|41:350,1,100,8|0,0:0|0:0,0:0:0:0:
208,272,33267,1,0,0:0:0:0:
208,272,33398,1,8,0:0:0:0:
208,272,33528,2,0,P|262:266|310:291,1,100,0|8,0:0|0:0,0:0:0:0:
360,356,34050,2,0,L|420:368,1,50,0|8,0:0|0:0,0:0:0:0:
409,365,34311,6,0,P|452:316|472:224,1,150
444,188,34833,2,0,P|404:156|380:92,1,100,8|0,0:0|0:0,0:0:0:0:
383,112,35224,1,8,0:0:0:0:
280,72,35485,1,8,0:0:0:0:
272,80,35615,2,0,L|252:184,1,100,0|8,0:0|0:0,0:0:0:0:
152,112,36137,2,0,P|136:144|116:160,1,50,0|8,0:0|0:0,0:0:0:0:
72,156,36398,6,0,B|36:175|46:193|31:200|31:200|40:224|15:244|15:244|39:266|48:290,1,150
56,328,36919,2,0,P|120:308|172:308,1,100,8|0,0:0|0:0,0:0:0:0:
260,328,37441,2,0,L|280:384,2,50,0|8|0,0:0|0:0|0:0,0:0:0:0:
248,220,37963,1,8,0:0:0:0:
248,220,38354,1,0,0:0:0:0:
248,220,38485,6,0,P|244:164|260:112,1,100
312,120,38876,2,0,L|356:68,1,50,0|8,0:0|0:0,0:0:0:0:
452,60,39267,1,0,0:0:0:0:
344,81,39528,2,0,L|312:120,1,50,8|0,0:0|0:0,0:0:0:0:
255,122,39789,2,0,P|244:164|248:220,1,100,8|8,0:0|0:0,0:0:0:0:
356,200,40311,5,0,0:0:0:0:
360,256,40441,1,0,0:0:0:0:
324,300,40572,1,4,0:0:0:0:
199,274,40833,5,0,0:0:0:0:
148,250,40963,1,0,0:0:0:0:
128,196,41093,1,2,0:0:0:0:
212,101,41354,5,0,0:0:0:0:
259,69,41485,1,0,0:0:0:0:
315,79,41615,1,2,0:0:0:0:
256,192,41876,5,0,0:0:0:0:
199,274,42137,1,2,0:0:0:0:
112,340,42398,2,0,L|60:324,1,50
18,356,42659,6,0,P|14:298|33:261,1,100,2|0,0:0|0:0,0:0:0:0:
51,248,43050,1,0,0:0:0:0:
69,235,43180,2,0,P|122:203|134:156,1,100,2|0,0:0|0:0,0:0:0:0:
130,54,43572,2,0,P|76:85|64:132,1,100,2|2,0:0|0:0,0:0:0:0:
64,118,43963,1,0,0:0:0:0:
69,235,44224,1,2,0:0:0:0:
167,283,44485,5,0,0:0:0:0:
218,307,44615,1,0,0:0:0:0:
272,290,44746,1,2,0:0:0:0:
379,221,45006,5,0,0:0:0:0:
374,165,45137,1,0,0:0:0:0:
332,128,45267,1,2,0:0:0:0:
219,68,45528,5,0,0:0:0:0:
172,101,45659,1,0,0:0:0:0:
161,156,45789,1,2,0:0:0:0:
256,192,46050,5,0,0:0:0:0:
180,256,46311,1,2,0:0:0:0:
332,128,46572,1,0,0:0:0:0:
256,340,46833,1,2,0:0:0:0:
256,44,47093,1,0,0:0:0:0:
256,44,47224,1,0,0:0:0:0:
256,44,47354,2,0,L|256:148,1,100,2|4,0:0|0:0,0:0:0:0:
256,144,48137,6,0,P|281:161|311:170,1,50
332,128,48398,2,0,P|368:165|396:235,1,100,2|2,0:0|0:0,0:0:0:0:
300,248,48920,6,0,L|292:352,1,100,4|0,0:0|0:0,0:0:0:0:
212,136,49441,2,0,L|220:32,1,100,8|0,0:0|0:0,0:0:0:0:
312,148,49963,2,0,L|416:156,1,100,8|0,0:0|0:0,0:0:0:0:
200,236,50485,2,0,L|96:228,1,100,8|0,0:0|0:0,0:0:0:0:
200,236,51006,5,0,0:0:0:0:
123,315,51267,1,8,0:0:0:0:
47,235,51528,1,8,0:0:0:0:
76,120,51789,2,8,L|79:73,3,33.3333333333333
181,47,52311,1,8,0:0:0:0:
256,127,52572,5,8,0:0:0:0:
256,143,52702,1,8,0:0:0:0:
256,159,52833,1,8,0:0:0:0:
256,175,52963,1,8,0:0:0:0:
256,192,53093,6,0,P|304:248|352:264,1,100,4|0,0:0|0:0,0:0:0:0:
176,164,53615,2,0,P|103:177|65:211,1,100,8|0,0:0|0:0,0:0:0:0:
240,108,54137,2,0,P|264:38|254:-11,1,100
28,128,54659,2,0,P|3:197|13:247,1,100,8|0,0:0|0:0,0:0:0:0:
8,232,55050,1,0,0:0:0:0:
10,241,55180,6,0,P|84:232|152:280,1,150
164,324,55702,2,0,P|216:360|292:336,1,100,8|0,0:0|0:0,0:0:0:0:
296,328,56093,2,0,P|260:276|284:200,1,100,8|8,0:0|0:0,0:0:0:0:
336,260,56485,2,0,P|347:197|418:161,1,100,0|8,0:0|0:0,0:0:0:0:
412,240,56876,2,0,L|460:252,2,50
336,260,57267,6,0,P|256:216|228:148,1,150
208,116,57789,2,0,P|156:108|100:116,1,100,8|0,0:0|0:0,0:0:0:0:
92,120,58180,1,8,0:0:0:0:
161,281,58441,1,8,0:0:0:0:
144,288,58572,2,0,P|97:293|45:285,1,100,0|8,0:0|0:0,0:0:0:0:
48,200,59093,2,0,L|0:176,2,50
92,120,59615,5,0,0:0:0:0:
176,80,59876,2,0,P|232:44|288:32,1,100,8|0,0:0|0:0,0:0:0:0:
244,144,60267,2,0,P|300:180|356:192,1,100,8|8,0:0|0:0,0:0:0:0:
352,192,60643,1,0,0:0:0:0:
424,264,60903,1,8,0:0:0:0:
416,280,61034,1,8,0:0:0:0:
408,296,61164,1,8,0:0:0:0:
400,312,61295,1,8,0:0:0:0:
392,328,61425,5,4,0:0:0:0:
280,332,61685,1,0,0:0:0:0:
184,276,61946,1,8,0:0:0:0:
120,56,62207,5,0,0:0:0:0:
232,52,62468,1,0,0:0:0:0:
328,108,62729,1,0,0:0:0:0:
300,212,62990,6,0,P|280:244|256:256,1,50,8|0,0:0|0:0,0:0:0:0:
212,172,63251,2,0,P|232:140|256:128,1,50
328,108,63511,5,0,0:0:0:0:
270,250,63772,1,0,0:0:0:0:
212,172,64033,1,8,0:0:0:0:
300,212,64294,5,0,0:0:0:0:
184,276,64555,1,0,0:0:0:0:
241,133,64816,1,0,0:0:0:0:
300,212,65077,1,8,0:0:0:0:
388,256,65338,2,0,P|408:272|428:304,1,50
412,344,65598,6,0,P|449:236|493:186,1,150
496,160,66120,2,0,P|476:108|436:76,1,100,8|0,0:0|0:0,0:0:0:0:
443,79,66511,1,8,0:0:0:0:
256,192,66903,12,0,68990,0:0:0:0:
256,192,69251,5,2,0:0:0:0:
256,212,69381,1,2,0:0:0:0:
256,232,69511,1,2,0:0:0:0:
256,252,69642,1,2,0:0:0:0:
256,272,69772,6,0,P|304:240|376:256,1,100,4|0,0:0|0:0,0:0:0:0:
186,152,70294,2,0,P|190:209|140:263,1,100,8|0,0:0|0:0,0:0:0:0:
325,151,70816,2,0,P|274:126|252:56,1,100,0|0,0:0|0:0,0:0:0:0:
148,64,71338,1,8,0:0:0:0:
64,136,71598,2,0,P|34:119|20:101,1,50
57,63,71859,6,0,P|70:123|43:176,1,100
7,256,72381,2,0,P|52:289|90:336,1,100,8|0,0:0|0:0,0:0:0:0:
127,244,72772,2,0,P|172:210|210:163,1,100,8|8,0:0|0:0,0:0:0:0:
201,178,73164,1,0,0:0:0:0:
278,255,73425,1,8,0:0:0:0:
190,322,73685,1,0,0:0:0:0:
190,322,73816,1,0,0:0:0:0:
190,322,73946,6,0,P|131:255|143:127,1,200,0|8,0:0|0:0,0:0:0:0:
256,192,74729,1,0,0:0:0:0:
322,62,74990,2,0,P|380:128|368:256,1,200,0|8,0:0|0:0,0:0:0:0:
376,345,75772,1,0,0:0:0:0:
376,345,75903,1,0,0:0:0:0:
376,345,76033,6,0,P|308:336|281:299,1,100
136,125,76555,2,0,P|203:133|230:170,1,100,8|0,0:0|0:0,0:0:0:0:
233,242,76946,2,0,P|211:261|203:329,1,100,8|8,0:0|0:0,0:0:0:0:
304,213,77338,6,0,P|325:193|333:125,1,100,0|8,0:0|0:0,0:0:0:0:
356,112,77729,1,8,0:0:0:0:
378,98,77859,1,8,0:0:0:0:
400,84,77990,1,8,0:0:0:0:
422,70,78120,6,0,P|341:29|275:28,1,150
256,76,78642,2,0,P|228:120|176:144,1,100,8|0,0:0|0:0,0:0:0:0:
140,160,79033,1,8,0:0:0:0:
100,192,79164,1,0,0:0:0:0:
325,242,79425,1,0,0:0:0:0:
372,224,79555,1,0,0:0:0:0:
412,192,79685,1,8,0:0:0:0:
186,242,79946,5,0,0:0:0:0:
140,224,80077,1,8,0:0:0:0:
100,192,80207,1,0,0:0:0:0:
325,141,80468,1,0,0:0:0:0:
372,160,80598,1,0,0:0:0:0:
412,192,80729,1,8,0:0:0:0:
186,141,80990,5,0,0:0:0:0:
208,96,81120,1,8,0:0:0:0:
256,80,81251,1,0,0:0:0:0:
304,96,81381,1,8,0:0:0:0:
325,141,81511,1,0,0:0:0:0:
256,228,81772,1,8,0:0:0:0:
256,340,82033,1,0,0:0:0:0:
256,340,82164,1,8,0:0:0:0:
256,340,82294,6,0,P|332:332|376:268,1,150,0|2,0:0|0:0,0:0:0:0:
428,276,82816,2,0,P|444:220|484:184,1,100,0|2,0:0|0:0,0:0:0:0:
472,190,83598,2,0,L|504:152,2,50,0|0|2,0:0|0:0|0:0,0:0:0:0:
408,100,84120,1,0,0:0:0:0:
298,83,84381,5,0,0:0:0:0:
157,253,84772,1,2,0:0:0:0:
370,200,85164,1,0,0:0:0:0:
167,117,85555,1,2,0:0:0:0:
283,303,85946,1,0,0:0:0:0:
255,192,86207,1,2,0:0:0:0:
