osu file format v12

[General]
AudioFilename: 1.mp3
AudioLeadIn: 1500
PreviewTime: 40314
Countdown: 0
SampleSet: Soft
StackLeniency: 0.7
Mode: 0
LetterboxInBreaks: 0

[Editor]
DistanceSpacing: 0.8
BeatDivisor: 4
GridSize: 4

[Metadata]
Title:LIFE (TV Size)
TitleUnicode:LIFE (TV Size)
Artist:YUI
ArtistUnicode:YUI
Creator:JauiPlaY
Version:Breath
Source:BLEACH
Tags:ending
BeatmapID:214201
BeatmapSetID:75878

[Difficulty]
HPDrainRate:3
CircleSize:3
OverallDifficulty:3
ApproachRate:3
SliderMultiplier:1.2
SliderTickRate:1

[Events]
//Background and Video events
0,0,"bg.jpg",0,0
//Break Periods
2,15728,22436
//Storyboard Layer 0 (Background)
//Storyboard Layer 1 (Fail)
//Storyboard Layer 2 (Pass)
//Storyboard Layer 3 (Foreground)
//Storyboard Sound Samples
//Background Colour Transformations
3,100,255,255,255

[TimingPoints]
920,521.739130434783,4,2,1,100,1,0
9267,-100,4,2,1,100,0,1
15398,-100,4,2,1,100,0,0
15528,-100,4,2,1,100,0,1
15659,-100,4,2,1,100,0,0
28572,-100,4,2,2,85,0,0
28702,-100,4,2,1,100,0,0
30659,-100,4,2,2,85,0,0
30789,-100,4,2,1,100,0,0
36920,-100,4,2,2,85,0,0
37050,-100,4,2,1,100,0,0
53093,-100,4,2,1,100,0,1
60643,521.739130434783,4,2,1,100,1,1
61425,521.739130434783,4,2,1,100,1,1
64033,-100,4,2,2,85,0,1
64164,-100,4,2,1,100,0,1
69642,-100,4,2,1,100,0,0
69772,-100,4,2,1,100,0,1
82294,-100,4,2,1,5,0,0

[Colours]
Combo1 : 255,255,40
Combo2 : 254,174,27
Combo3 : 254,97,97

[HitObjects]
177,147,920,2,0,B|124:125|103:81|103:81|113:37|165:58|165:58|165:2|209:9|209:9|243:45|243:102,1,360,2|0,0:0|0:0,0:0:0:0:
332,145,3006,6,0,B|378:110|426:115|426:115|460:145|414:180|414:180|464:209|435:243|435:243|388:254|337:225,1,360,2|0,0:0|0:0,0:0:0:0:
256,281,5093,6,0,B|264:337|236:378|236:378|192:392|185:335|185:335|135:364|120:321|120:321|135:275|184:245,1,360,2|0,0:0|0:0,0:0:0:0:
256,192,7180,5,2,0:0:0:0:
312,116,7702,2,0,P|256:96|200:116,1,120,2|8,0:0|0:0,0:0:0:0:
256,192,8746,1,8,0:0:0:0:
256,288,9267,5,4,0:0:0:0:
348,320,9789,2,0,P|404:224|312:164,1,240,8|8,0:0|0:0,0:0:0:0:
256,88,11354,5,0,0:0:0:0:
196,163,11876,2,0,P|107:224|164:320,1,240,8|8,0:0|0:0,0:0:0:0:
256,288,13441,6,0,L|256:168,1,120,0|8,0:0|0:0,0:0:0:0:
256,72,14485,2,0,L|256:12,4,60,0|8|8|8|4,0:0|0:0|0:0|0:0|0:0,0:0:0:0:
256,64,23876,5,4,0:0:0:0:
256,160,24398,1,8,0:0:0:0:
200,240,24920,2,0,P|256:260|312:240,1,120,0|8,0:0|0:0,0:0:0:0:
360,160,25963,5,0,0:0:0:0:
304,80,26485,2,0,B|280:80|256:48|256:48|232:80|208:80,1,120,8|0,0:0|0:0,0:0:0:0:
152,160,27528,1,8,0:0:0:0:
208,240,28050,6,0,P|121:253|59:174,2,180,0|0|8,0:0|0:0|0:0,0:0:0:0:
304,240,30137,2,0,P|390:253|452:174,2,180,0|8|8,0:0|0:0|0:0,0:0:0:0:
360,160,32224,5,0,0:0:0:0:
304,84,32746,2,0,B|288:60|256:48|256:48|224:60|208:84,1,120,8|0,0:0|0:0,0:0:0:0:
152,160,33789,1,8,0:0:0:0:
164,256,34311,6,0,P|204:294|199:370,1,120,0|8,0:0|0:0,0:0:0:0:
305,355,35354,2,0,P|307:294|348:256,1,120,0|8,0:0|0:0,0:0:0:0:
256,224,36398,6,0,L|256:40,2,180,0|0|8,0:0|0:0|0:0,0:0:0:0:
200,304,38485,2,0,P|256:324|312:304,1,120,0|8,0:0|0:0,0:0:0:0:
256,224,39528,2,0,L|256:156,2,60,8|8|8,0:0|0:0|0:0,0:0:0:0:
352,220,40572,5,6,0:0:0:0:
332,124,41093,1,2,0:0:0:0:
256,64,41615,2,0,L|256:0,2,60,2|0|0,0:0|0:0|0:0,0:0:0:0:
256,160,42659,6,0,L|256:280,1,120,0|2,0:0|0:0,0:0:0:0:
168,316,43702,2,0,L|108:348,2,60,0|0|2,0:0|0:0|0:0,0:0:0:0:
160,220,44746,5,2,0:0:0:0:
180,124,45267,1,2,0:0:0:0:
256,64,45789,2,0,L|256:0,2,60,2|0|0,0:0|0:0|0:0,0:0:0:0:
256,160,46833,6,0,L|256:340,1,180,0|4,0:0|0:0,0:0:0:0:
344,316,48137,1,0,0:0:0:0:
344,316,48398,2,0,L|404:348,2,60,2|0|4,0:0|0:0|0:0,0:0:0:0:
312,228,49441,6,0,P|257:208|201:228,1,120,8|8,0:0|0:0,0:0:0:0:
168,316,50485,1,8,0:0:0:0:
256,356,51006,2,0,L|256:172,2,180,0|8|8,0:0|0:0|0:0,0:0:0:0:
340,308,53093,6,0,P|396:268|408:208,1,120,4|8,0:0|0:0,0:0:0:0:
312,216,54137,2,0,P|257:236|201:216,1,120,0|8,0:0|0:0,0:0:0:0:
172,308,55180,2,0,P|115:268|103:208,3,120,0|10|2|10,0:0|0:0|0:0|0:0,0:0:0:0:
119,126,57267,5,0,0:0:0:0:
167,42,57789,2,0,P|203:74|211:106,1,60,8|0,0:0|0:0,0:0:0:0:
304,83,58572,2,0,P|309:74|345:42,1,60,0|8,0:0|0:0,0:0:0:0:
393,126,59354,5,0,0:0:0:0:
328,196,59876,2,0,P|316:234|284:269,1,60,8|0,0:0|0:0,0:0:0:0:
206,250,60643,2,0,P|195:234|184:196,1,60,0|8,0:0|0:0,0:0:0:0:
164,100,61425,5,4,0:0:0:0:
256,132,61946,1,8,0:0:0:0:
348,100,62468,1,0,0:0:0:0:
256,132,62990,1,8,0:0:0:0:
336,192,63511,6,0,P|256:320|176:192,1,360,0|8,0:0|0:0,0:0:0:0:
256,132,65598,1,0,0:0:0:0:
256,228,66120,1,8,0:0:0:0:
256,324,66642,2,0,L|256:384,2,60,0|0|8,0:0|0:0|0:0,0:0:0:0:
337,273,67685,6,0,B|345:217|345:217|313:193|301:157,1,120,0|8,0:0|0:0,0:0:0:0:
206,168,68729,2,0,B|199:193|167:217|167:217|175:273,1,120,0|8,0:0|0:0,0:0:0:0:
256,324,69772,5,4,0:0:0:0:
344,284,70294,2,0,P|256:216|168:284,1,240,8|8,0:0|0:0,0:0:0:0:
256,324,71859,2,0,P|196:345|129:331,1,120,0|10,0:0|0:0,0:0:0:0:
256,324,72903,2,0,P|315:345|382:331,1,120,2|10,0:0|0:0,0:0:0:0:
344,244,73946,6,0,P|347:157|314:115,1,120,0|8,0:0|0:0,0:0:0:0:
256,76,74990,1,0,0:0:0:0:
180,131,75511,2,0,P|164:157|168:244,1,120,8|0,0:0|0:0,0:0:0:0:
256,204,76555,2,0,L|256:264,1,60,8|0,0:0|0:0,0:0:0:0:
212,348,77338,6,0,P|256:356|300:348,2,90,8|8|4,0:0|0:0|0:0,0:0:0:0:
148,276,78642,1,8,0:0:0:0:
140,180,79164,2,0,P|160:116|200:76,1,120,0|8,0:0|0:0,0:0:0:0:
256,156,80207,5,0,0:0:0:0:
315,79,80729,2,0,P|352:116|372:180,1,120,8|0,0:0|0:0,0:0:0:0:
364,276,81772,1,8,0:0:0:0:
256,192,82294,12,0,86207,0:0:0:0:
