osu file format v13

[General]
AudioFilename: 01 - Good-bye days.mp3
AudioLeadIn: 0
PreviewTime: 126746
Countdown: 1
SampleSet: Soft
StackLeniency: 0.7
Mode: 0
LetterboxInBreaks: 1
WidescreenStoryboard: 0

[Editor]
Bookmarks: 16330
DistanceSpacing: 2
BeatDivisor: 4
GridSize: 8
TimelineZoom: 1

[Metadata]
Title:Goodbye Days
TitleUnicode:Goodbye Days
Artist:YUI
ArtistUnicode:YUI
Creator:al2e10
Version:2010-2012 Insane
Source:can't buy my love
Tags:taiyou no uta a song to the sun
BeatmapID:108232
BeatmapSetID:30358

[Difficulty]
HPDrainRate:8
CircleSize:4
OverallDifficulty:7
ApproachRate:8
SliderMultiplier:1.2
SliderTickRate:1

[Events]
//Background and Video events
0,0,"01300000228100121937338024135.jpg",0,0
//Break Periods
2,82070,91461
2,154271,178179
//Storyboard Layer 0 (Background)
//Storyboard Layer 1 (Fail)
//Storyboard Layer 2 (Pass)
//Storyboard Layer 3 (Foreground)
//Storyboard Sound Samples
//Background Colour Transformations
3,100,163,162,255

[TimingPoints]
374,379.506641366224,4,2,0,60,1,0
15931,379.506641366224,4,2,0,60,1,0
52025,-100,4,1,0,60,0,0
91839,-100,4,2,0,60,0,0
125707,-100,4,1,0,40,0,0
126086,-100,4,1,0,50,0,0
126466,-100,4,1,0,60,0,0
128174,-100,4,1,0,80,0,0
128364,-100,4,1,0,60,0,0
204075,-100,4,2,0,60,0,0
213753,-100,4,1,0,60,0,0
214322,-100,4,1,0,80,0,0
214512,-100,4,1,0,60,0,0

[Colours]
Combo1 : 128,128,255
Combo2 : 0,0,255
Combo3 : 0,128,192

[HitObjects]
456,48,16310,6,0,B|432:112|432:192,1,120
432,248,16879,1,0,0:0:0:0:
440,328,17069,2,0,B|360:320|248:344,1,180
176,336,17828,2,0,B|144:272|192:208,2,120
256,48,18967,5,0,0:0:0:0:
344,40,19156,1,0,0:0:0:0:
384,120,19346,1,0,0:0:0:0:
312,168,19536,1,0,0:0:0:0:
232,128,19726,1,0,0:0:0:0:
240,216,19915,1,0,0:0:0:0:
248,232,20010,1,0,0:0:0:0:
256,248,20105,2,0,B|176:280|144:328,1,120
144,136,20864,5,0,0:0:0:0:
176,56,21054,2,0,B|304:32,1,120
384,16,21623,2,0,B|424:72|392:144,2,120
128,368,22762,6,0,B|88:312|120:240,2,120
200,312,23710,1,0,0:0:0:0:
256,240,23900,1,0,0:0:0:0:
256,240,23995,1,0,0:0:0:0:
256,240,24090,1,0,0:0:0:0:
288,152,24280,2,0,B|360:136|384:88,1,120
72,56,25039,6,0,B|96:136|72:192,1,120
440,328,25798,2,0,B|416:248|440:192,1,120
80,56,26557,2,0,B|104:136|80:192,1,120
432,328,27316,2,0,B|408:248|432:192,1,120
88,56,28075,2,0,B|112:136|88:192,1,120
80,256,28644,1,0,0:0:0:0:
64,344,28834,6,0,B|192:328,1,120
448,40,29593,2,0,B|320:56,1,120
240,72,30162,1,0,0:0:0:0:
256,160,30352,1,0,0:0:0:0:
344,144,30542,1,0,0:0:0:0:
432,144,30731,2,0,B|448:208|440:280,1,120
80,240,31490,2,0,B|64:176|72:104,1,120
176,336,32249,5,0,0:0:0:0:
256,320,32439,1,0,0:0:0:0:
320,272,32629,1,0,0:0:0:0:
336,48,33008,1,0,0:0:0:0:
256,64,33198,1,0,0:0:0:0:
192,112,33388,1,0,0:0:0:0:
400,272,33767,1,0,0:0:0:0:
384,192,33957,1,0,0:0:0:0:
336,128,34147,1,0,0:0:0:0:
112,112,34526,1,0,0:0:0:0:
128,192,34716,1,0,0:0:0:0:
176,256,34906,1,0,0:0:0:0:
176,336,35096,5,0,0:0:0:0:
256,304,35285,1,0,0:0:0:0:
256,304,35380,1,0,0:0:0:0:
256,304,35475,1,0,0:0:0:0:
336,336,35665,2,0,B|352:264|328:192,1,120
176,336,36234,2,0,B|160:264|184:192,1,120
376,152,36803,2,0,B|112:152,1,240
376,80,37942,2,0,B|128:80,1,240
56,328,39080,5,0,0:0:0:0:
128,264,39270,1,0,0:0:0:0:
216,232,39460,1,0,0:0:0:0:
216,232,39839,1,0,0:0:0:0:
296,184,40029,1,0,0:0:0:0:
336,96,40219,1,0,0:0:0:0:
464,320,40598,6,0,B|384:312|320:312,1,120
256,344,41168,1,0,0:0:0:0:
272,256,41357,1,0,0:0:0:0:
224,176,41547,1,0,0:0:0:0:
208,80,41737,2,0,B|240:48|280:40,1,60
312,128,42116,2,0,B|352:112|392:112,1,60
376,208,42496,2,0,B|424:208|448:240,1,60
376,304,42875,2,0,B|416:320|424:344,1,60
136,328,43255,6,0,B|120:264|144:200,1,120
256,192,43824,1,0,0:0:0:0:
371,174,44014,2,0,B|392:120|376:56,1,120
256,336,45153,5,0,0:0:0:0:
256,336,45532,1,0,0:0:0:0:
256,336,45912,1,0,0:0:0:0:
256,336,46101,1,0,0:0:0:0:
256,336,46196,1,0,0:0:0:0:
256,336,46291,1,0,0:0:0:0:
80,56,46671,5,0,0:0:0:0:
392,16,47050,1,0,0:0:0:0:
432,328,47430,1,0,0:0:0:0:
120,368,47809,1,0,0:0:0:0:
80,56,48189,2,0,B|144:80|184:128,1,120
432,328,48948,2,0,B|368:304|328:256,1,120
256,48,50086,5,0,0:0:0:0:
104,192,50466,1,0,0:0:0:0:
160,264,50655,1,0,0:0:0:0:
256,280,50845,1,0,0:0:0:0:
256,280,50940,1,0,0:0:0:0:
256,280,51035,1,0,0:0:0:0:
352,264,51225,1,0,0:0:0:0:
408,192,51414,1,0,0:0:0:0:
352,120,51604,1,0,0:0:0:0:
256,104,51794,1,0,0:0:0:0:
160,120,51984,1,0,0:0:0:0:
310,356,52363,6,0,B|352:352|424:320,1,120
201,27,53122,2,0,B|160:32|88:64,1,120
256,104,53691,2,0,B|256:240,1,120
176,272,54261,1,0,0:0:0:0:
200,352,54450,1,0,0:0:0:0:
256,296,54640,1,0,0:0:0:0:
272,288,54735,1,0,0:0:0:0:
288,272,54830,1,0,0:0:0:0:
304,256,54925,1,0,0:0:0:0:
312,240,55020,1,0,0:0:0:0:
312,216,55115,1,0,0:0:0:0:
312,192,55209,1,0,0:0:0:0:
416,72,55399,6,0,B|312:64|272:80,1,120
208,128,55968,1,0,0:0:0:0:
128,192,56158,2,0,B|144:256|128:336,1,120
224,352,56727,1,0,0:0:0:0:
256,256,56917,2,0,B|320:304,1,60
360,208,57297,2,0,B|408:264|480:288,1,120
80,64,58056,5,0,0:0:0:0:
144,160,58245,1,0,0:0:0:0:
32,160,58435,2,0,B|40:240|72:280,1,120
192,240,59005,2,0,B|240:288|320:264,1,120
336,168,59574,2,0,B|392:152|392:64,1,120
256,80,60143,1,0,0:0:0:0:
176,0,60333,2,0,B|120:16|120:104,1,120
48,152,60902,5,0,0:0:0:0:
144,160,61092,2,0,B|184:200|192:280,1,120
256,344,61661,1,0,0:0:0:0:
320,272,61851,1,0,0:0:0:0:
408,232,62041,1,0,0:0:0:0:
400,224,62135,1,0,0:0:0:0:
392,216,62230,1,0,0:0:0:0:
384,208,62325,1,0,0:0:0:0:
376,200,62420,1,0,0:0:0:0:
368,192,62515,1,0,0:0:0:0:
360,184,62610,1,0,0:0:0:0:
352,176,62705,1,0,0:0:0:0:
344,168,62800,1,0,0:0:0:0:
336,160,62894,1,0,0:0:0:0:
328,152,62989,1,0,0:0:0:0:
200,168,63179,5,0,0:0:0:0:
144,248,63369,1,0,0:0:0:0:
144,248,63748,2,0,B|208:264|256:288,1,120
352,328,64318,2,0,B|416:224,1,120
360,128,64887,2,0,B|288:232,1,120
152,56,65646,5,0,0:0:0:0:
72,104,65836,1,0,0:0:0:0:
48,192,66025,1,0,0:0:0:0:
72,280,66215,1,0,0:0:0:0:
152,336,66405,1,0,0:0:0:0:
360,56,66784,5,0,0:0:0:0:
440,104,66974,1,0,0:0:0:0:
464,192,67164,1,0,0:0:0:0:
440,280,67354,1,0,0:0:0:0:
360,336,67543,2,0,B|288:320|272:256,1,120
288,136,68302,2,0,B|360:152|376:216,1,120
224,208,68872,2,0,B|152:192|136:128,1,120
112,8,69441,2,0,B|184:24|200:88,1,120
384,240,70200,6,0,B|416:208|424:168,1,60
288,96,70579,2,0,B|256:112|232:152,1,60
456,320,70959,2,0,B|472:288|472:256,1,60
208,40,71338,2,0,B|160:88|152:160,1,120
448,64,72097,5,0,0:0:0:0:
64,64,72477,1,0,0:0:0:0:
56,336,72856,1,0,0:0:0:0:
456,336,73236,2,0,B|456:192|288:192,2,240
456,336,74944,1,0,0:0:0:0:
256,192,75039,12,0,76652,0:0:0:0:
256,48,77411,6,0,P|280:176|216:264,1,240
184,288,78549,1,0,0:0:0:0:
240,280,78929,2,0,P|368:240|472:296,1,240
256,192,79877,12,0,81870,0:0:0:0:
256,120,92211,5,0,0:0:0:0:
256,152,92591,1,0,0:0:0:0:
256,184,92970,1,0,0:0:0:0:
344,192,93160,6,0,B|368:216|376:272,1,60
200,272,93540,2,0,B|176:248|168:192,1,60
416,168,93919,2,0,B|440:192|448:248,1,60,0|0,0:0|0:0,0:0:0:0:
136,312,94299,2,0,B|112:288|104:232,2,60
280,248,94868,6,0,B|312:312|344:352,2,120
248,152,95817,1,0,0:0:0:0:
232,56,96006,2,0,B|168:64|120:104,2,120
320,88,96955,6,0,B|392:80,1,60
376,168,97335,2,0,B|448:160,1,60
312,256,97714,2,0,B|384:248,1,60
384,336,98094,2,0,B|448:328,3,60
256,48,99042,5,0,0:0:0:0:
160,48,99232,1,0,0:0:0:0:
208,128,99422,1,0,0:0:0:0:
256,336,99801,5,0,0:0:0:0:
352,336,99991,1,0,0:0:0:0:
304,256,100181,2,0,B|320:192|304:136,1,120
88,144,100940,2,0,B|72:208|88:264,1,120
128,336,101509,6,0,B|200:344,1,60
256,296,101889,1,0,0:0:0:0:
384,336,102079,2,0,B|312:344,1,60
256,296,102458,2,0,B|256:224,2,60
256,88,103217,2,0,B|256:160,2,60
184,32,103786,1,0,0:0:0:0:
328,32,103976,1,0,0:0:0:0:
416,328,104356,5,0,0:0:0:0:
320,296,104545,2,0,B|256:272|176:304,1,120
112,320,105115,2,0,B|96:184,1,120
400,64,105874,2,0,B|416:200,1,120
88,320,106633,6,0,B|72:184,1,120
184,248,107202,1,0,0:0:0:0:
280,320,107392,2,0,B|296:184,1,120
184,144,107961,1,0,0:0:0:0:
128,56,108151,2,0,B|184:40|256:56,1,120
472,128,108910,6,0,B|496:200|464:264,1,120
400,304,109479,1,0,0:0:0:0:
392,312,109574,1,0,0:0:0:0:
384,320,109669,2,0,B|304:320|248:352,1,120
168,344,110238,1,0,0:0:0:0:
72,352,110428,2,0,B|72:224,1,120
224,64,111187,6,0,B|288:56,1,60
288,320,111566,2,0,B|224:328,1,60
224,136,111946,2,0,B|288:128,1,60
288,248,112325,2,0,B|224:256,1,60
104,208,112705,1,0,0:0:0:0:
408,208,113084,1,0,0:0:0:0:
256,32,113464,1,0,0:0:0:0:
256,32,113653,1,0,0:0:0:0:
144,312,114223,6,0,B|208:352|256:368|304:352|368:312,1,240
256,248,115171,1,0,0:0:0:0:
160,160,115361,2,0,B|184:232,1,60
352,160,115741,2,0,B|328:232,1,60
368,72,116120,2,0,B|304:32|256:16|208:32|144:72,1,240
72,304,117259,5,0,0:0:0:0:
152,256,117449,1,0,0:0:0:0:
152,352,117638,2,0,B|216:320|216:320|264:368|328:304,1,180
264,256,118397,2,0,B|280:120,1,120
288,56,118967,1,0,0:0:0:0:
368,112,119156,5,0,0:0:0:0:
176,80,119536,1,0,0:0:0:0:
144,272,119915,1,0,0:0:0:0:
336,304,120295,2,0,B|400:336,1,60
336,208,120674,2,0,B|400:248,1,60
408,144,121054,2,0,B|464:184,1,60
416,48,121433,2,0,B|480:96,2,60
256,56,122003,5,0,0:0:0:0:
256,56,122097,1,0,0:0:0:0:
256,56,122192,1,0,0:0:0:0:
136,208,122572,2,0,B|112:272|144:336,1,120
376,208,123331,2,0,B|400:272|368:336,1,120
56,208,124090,2,0,B|32:272|64:336,1,120
456,208,124849,2,0,B|480:272|448:336,1,120
368,264,125418,1,0,0:0:0:0:
288,320,125608,1,0,0:0:0:0:
208,272,125798,5,0,0:0:0:0:
208,264,125893,1,0,0:0:0:0:
208,256,125987,1,0,0:0:0:0:
208,248,126082,1,0,0:0:0:0:
208,240,126177,1,0,0:0:0:0:
208,232,126272,1,0,0:0:0:0:
208,224,126367,1,0,0:0:0:0:
208,216,126462,1,0,0:0:0:0:
208,208,126557,1,0,0:0:0:0:
176,120,126746,5,0,0:0:0:0:
256,64,126936,1,0,0:0:0:0:
328,120,127126,1,0,0:0:0:0:
400,64,127316,1,0,0:0:0:0:
400,64,127411,1,0,0:0:0:0:
400,64,127505,1,0,0:0:0:0:
464,120,127695,1,0,0:0:0:0:
464,120,127790,1,0,0:0:0:0:
464,120,127885,1,0,0:0:0:0:
464,120,127980,1,0,0:0:0:0:
464,120,128075,1,0,0:0:0:0:
400,192,128264,6,0,B|424:320,1,120,4|0,0:0|0:0,0:0:0:0:
256,264,128834,1,0,0:0:0:0:
112,192,129023,2,0,B|88:320,1,120
184,336,129593,1,0,0:0:0:0:
256,264,129782,1,0,0:0:0:0:
328,336,129972,1,0,0:0:0:0:
256,160,130162,5,0,0:0:0:0:
256,160,130257,1,0,0:0:0:0:
256,160,130352,1,0,0:0:0:0:
192,64,130542,1,0,0:0:0:0:
320,64,130731,1,0,0:0:0:0:
384,160,130921,2,0,B|400:192|384:232,1,60
128,160,131301,2,0,B|112:240|128:296,1,120
192,344,131870,5,0,0:0:0:0:
192,344,131965,1,0,0:0:0:0:
192,344,132060,1,0,0:0:0:0:
224,248,132249,1,0,0:0:0:0:
288,320,132439,2,0,B|376:304|432:328,1,120
480,280,133008,2,0,B|448:208,1,60
368,208,133388,1,0,0:0:0:0:
256,112,133578,2,0,B|288:184,1,60
224,248,133957,6,0,B|192:184,1,60
152,112,134337,1,0,0:0:0:0:
144,120,134431,1,0,0:0:0:0:
136,128,134526,1,0,0:0:0:0:
128,136,134621,1,0,0:0:0:0:
120,144,134716,2,0,B|80:208|88:256,1,120
136,328,135285,2,0,B|232:352,1,90
232,352,135665,1,0,0:0:0:0:
256,272,135855,5,0,0:0:0:0:
248,144,136234,1,0,0:0:0:0:
328,32,136614,2,0,B|400:32|416:112,1,120
400,192,137183,1,0,0:0:0:0:
408,320,137373,6,0,B|456:368,1,60
408,320,137752,2,0,B|360:368,1,60
408,320,138132,2,0,B|456:272,1,60
408,320,138511,2,0,B|360:272,1,60
304,208,138891,1,0,0:0:0:0:
256,128,139080,1,0,0:0:0:0:
208,208,139270,1,0,0:0:0:0:
144,280,139460,1,0,0:0:0:0:
224,352,139650,1,0,0:0:0:0:
240,352,139745,1,0,0:0:0:0:
256,352,139839,1,0,0:0:0:0:
272,352,139934,1,0,0:0:0:0:
288,352,140029,1,0,0:0:0:0:
256,272,140219,5,0,0:0:0:0:
256,272,140314,1,0,0:0:0:0:
256,272,140409,2,0,B|224:192|120:136,1,180
56,104,141168,2,0,B|48:240,1,120
40,304,141737,1,0,0:0:0:0:
120,344,141927,1,0,0:0:0:0:
120,344,142022,1,0,0:0:0:0:
120,344,142116,1,0,0:0:0:0:
208,352,142306,1,0,0:0:0:0:
208,352,142401,1,0,0:0:0:0:
208,352,142496,1,0,0:0:0:0:
296,352,142686,6,0,B|368:344|424:304,1,120
320,248,143255,1,0,0:0:0:0:
336,144,143445,2,0,B|264:152|208:192,1,120
144,224,144014,1,0,0:0:0:0:
64,264,144204,1,0,0:0:0:0:
200,48,144583,6,0,B|192:88|200:112,1,60
312,48,144963,2,0,B|320:88|312:112,1,60
120,48,145342,2,0,B|112:88|120:112,1,60
392,48,145722,2,0,B|400:88|392:112,1,60
256,160,146101,2,0,B|368:240|168:280|256:368,2,240
256,160,147809,1,0,0:0:0:0:
136,192,148378,5,0,0:0:0:0:
112,264,148568,1,0,0:0:0:0:
96,336,148758,1,0,0:0:0:0:
104,336,148853,1,0,0:0:0:0:
112,336,148948,1,0,0:0:0:0:
120,336,149042,1,0,0:0:0:0:
128,336,149137,1,0,0:0:0:0:
136,336,149232,1,0,0:0:0:0:
144,336,149327,1,0,0:0:0:0:
152,336,149422,1,0,0:0:0:0:
160,336,149517,1,0,0:0:0:0:
256,56,149896,5,0,0:0:0:0:
352,112,150086,1,0,0:0:0:0:
248,160,150276,2,0,B|312:192|352:248,1,120
356,347,150845,2,0,B|320:336|264:272,1,120
168,160,151414,2,0,B|104:192|64:248,1,120
59,347,151984,2,0,B|95:335|151:271,1,120
224,224,152553,1,0,0:0:0:0:
256,192,152648,12,0,154071,0:0:0:0:
448,96,178929,5,0,0:0:0:0:
496,176,179118,2,0,B|464:248|384:264,1,120
328,280,179688,1,0,0:0:0:0:
256,336,179877,1,0,0:0:0:0:
256,56,180257,5,0,0:0:0:0:
168,80,180447,1,0,0:0:0:0:
104,144,180636,2,0,B|64:200|88:272,1,120
168,296,181206,1,0,0:0:0:0:
256,336,181395,1,0,0:0:0:0:
296,240,181585,1,0,0:0:0:0:
208,208,181775,1,0,0:0:0:0:
336,56,182154,6,0,B|416:56|440:136,1,120
480,144,182724,1,0,0:0:0:0:
480,208,182913,2,0,B|400:208|400:288,1,120
368,328,183483,1,0,0:0:0:0:
312,352,183672,2,0,B|248:360|200:312,1,120
192,256,184242,2,0,B|128:272|80:224,1,120
40,184,184811,1,0,0:0:0:0:
48,120,185001,1,0,0:0:0:0:
96,80,185190,1,0,0:0:0:0:
416,80,185570,5,0,0:0:0:0:
464,120,185760,1,0,0:0:0:0:
472,184,185949,2,0,B|408:200|400:280,1,120
344,288,186519,1,0,0:0:0:0:
312,232,186708,2,0,B|288:168|240:128,1,120
184,120,187278,1,0,0:0:0:0:
120,144,187468,2,0,B|80:192,1,60
128,232,187847,2,0,B|80:288,1,60
112,336,188227,2,0,B|192:320|240:352,1,120
352,272,188986,5,0,0:0:0:0:
288,272,189175,1,0,0:0:0:0:
240,232,189365,1,0,0:0:0:0:
184,64,189745,1,0,0:0:0:0:
288,192,190124,1,0,0:0:0:0:
232,160,190314,1,0,0:0:0:0:
168,152,190504,2,0,B|88:144,1,60
136,208,190883,2,0,B|64:200,1,60
136,272,191263,2,0,B|64:264,1,60
144,336,191642,2,0,B|72:328,1,60
256,344,192022,5,0,0:0:0:0:
320,344,192211,2,0,B|360:352|392:336,1,60
432,312,192591,1,0,0:0:0:0:
464,256,192781,2,0,B|480:184|448:128,1,120
400,104,193350,2,0,B|336:80|264:112,1,120
224,112,193919,1,0,0:0:0:0:
176,224,194299,1,0,0:0:0:0:
288,272,194678,5,0,0:0:0:0:
336,160,194868,1,0,0:0:0:0:
408,272,195058,2,0,B|464:224|464:144,1,120
456,64,195627,2,0,B|336:64,1,120
224,112,196196,1,0,0:0:0:0:
336,160,196386,1,0,0:0:0:0:
224,192,196576,1,0,0:0:0:0:
224,192,196955,5,0,0:0:0:0:
160,168,197145,2,0,B|88:176|64:248,1,120
56,296,197714,1,0,0:0:0:0:
96,344,197904,1,0,0:0:0:0:
160,352,198094,2,0,B|224:320|280:336,1,120
336,336,198663,1,0,0:0:0:0:
384,296,198853,6,0,B|416:240|400:168,1,120
128,88,199612,2,0,B|96:144|112:216,1,120
320,256,200181,2,0,B|336:216|328:176,1,60
192,128,200560,2,0,B|176:168|184:208,1,60
256,192,200845,12,0,202648,0:0:0:0:
256,48,203027,5,0,0:0:0:0:
112,192,203407,1,0,0:0:0:0:
256,336,203786,1,0,0:0:0:0:
400,192,204166,2,0,B|352:280|256:320|152:280|112:192,1,360
40,224,205494,2,0,B|16:152|56:104|144:80|192:176,1,240
331,156,206443,6,0,B|368:80|456:104|496:152|472:224,1,240
408,320,207392,1,0,0:0:0:0:
328,232,207581,1,0,0:0:0:0:
256,328,207771,1,0,0:0:0:0:
184,232,207961,1,0,0:0:0:0:
104,320,208151,1,0,0:0:0:0:
184,232,208340,6,0,B|208:144|256:120|304:144|328:232,1,240
256,288,209479,1,0,0:0:0:0:
192,336,209858,1,0,0:0:0:0:
192,336,210048,1,0,0:0:0:0:
192,336,210238,1,0,0:0:0:0:
112,344,210617,1,0,0:0:0:0:
40,320,210997,1,0,0:0:0:0:
8,248,211376,1,0,0:0:0:0:
16,168,211756,1,0,0:0:0:0:
56,104,212135,1,0,0:0:0:0:
120,72,212515,6,0,B|192:48,1,60
392,72,212894,2,0,B|320:48,1,60
120,152,213274,2,0,B|184:128,1,60
392,152,213653,2,0,B|320:128,1,60
256,192,214033,1,0,0:0:0:0:
256,192,214412,1,4,0:0:0:0:
128,264,215171,5,0,0:0:0:0:
176,336,215361,1,0,0:0:0:0:
256,352,215551,1,0,0:0:0:0:
336,336,215741,1,0,0:0:0:0:
384,264,215931,1,0,0:0:0:0:
200,88,216310,2,0,B|256:104|328:88,1,120
318,89,217069,5,0,0:0:0:0:
392,56,217259,1,0,0:0:0:0:
384,136,217449,2,0,B|408:192|408:264,1,120
336,288,218018,1,0,0:0:0:0:
256,280,218208,2,0,B|232:224|232:152,1,120
120,48,218967,5,0,0:0:0:0:
48,104,219156,1,0,0:0:0:0:
32,192,219346,1,0,0:0:0:0:
48,280,219536,1,0,0:0:0:0:
120,336,219726,1,0,0:0:0:0:
192,288,219915,1,0,0:0:0:0:
256,344,220105,1,0,0:0:0:0:
320,288,220295,1,0,0:0:0:0:
392,336,220485,6,0,B|448:304|464:224,1,120
96,48,221244,2,0,B|40:80|24:160,1,120
48,232,221813,1,0,0:0:0:0:
152,224,222003,2,0,B|208:192|224:112,1,120
292,129,222762,6,0,B|304:192|360:224,1,120
456,232,223331,1,0,0:0:0:0:
483,142,223521,2,0,B|472:80|416:48,1,120
256,192,223995,12,0,225418,0:0:0:0:
256,72,226177,5,0,0:0:0:0:
296,288,226557,1,0,0:0:0:0:
216,288,226746,1,0,0:0:0:0:
192,120,227126,1,0,0:0:0:0:
320,120,227316,1,0,0:0:0:0:
408,192,227695,1,0,0:0:0:0:
256,352,228075,1,0,0:0:0:0:
104,192,228454,1,0,0:0:0:0:
256,192,228549,12,0,232249,0:0:0:0:
