osu file format v5

[General]
AudioFilename: CHE.R.RY(GUM).mp3
AudioLeadIn: 0
PreviewTime: -1
Countdown: 0
SampleSet: Normal
StackLeniency: 0.7
Mode: 0
LetterboxInBreaks: 1
EditorBookmarks: 12440,74090,128039

[Metadata]
Title:CHE.R.RY
Artist:YUI
Creator:DawnII
Version:GUM
Source:
Tags:

[Difficulty]
HPDrainRate:7
CircleSize:6
OverallDifficulty:6
SliderMultiplier:1.4
SliderTickRate:1

[Events]
//Background and Video events
0,0,"coverA.jpg"
//Break Periods
2,5424,13557
2,66519,75203
2,104776,107405
2,134776,137405
//Storyboard Layer 0 (Background)
4,0,0,"1.png",10,50 F,1,14000,14300,0,1 F,1,15900,16200,1,0
4,0,0,"2.png",10,50 F,1,16150,16350,0,1 F,1,19000,19500,1,0
4,0,0,"3.png",10,50 F,1,22800,23100,0,1 F,1,24480,24780,1,0
4,0,0,"4.png",10,50 F,1,24830,25130,0,1 F,1,28000,28500,1,0
4,0,0,"4-2.png",280,50 L,26670,1 F,0,0,330,1,0 S,0,0,530,1,1.5
4,0,0,"4-2.png",280,50 L,26950,1 F,0,0,330,1,0 S,0,0,530,1,1.5
4,0,0,"5.png",10,50 F,1,29950,30250,0,1 F,1,34120,34420,1,0
4,0,0,"6.png",10,50 F,1,34350,34650,0,1 F,1,38620,38920,1,0
4,0,0,"7.png",10,50 F,1,38750,39050,0,1 F,1,43000,43300,1,0
4,0,0,"8.png",10,50 F,1,43600,43900,0,1 F,1,45900,46500,1,0
4,0,0,"9.png",10,50 F,1,48900,49200,0,1 F,1,51750,52050,1,0
4,0,0,"10.png",10,50 F,1,51950,52250,0,1 F,1,55600,56200,1,0
4,0,0,"11.png",10,50 F,1,56350,56650,0,1 F,1,60600,60900,1,0
4,0,0,"12.png",10,50 F,1,62050,62350,0,1 F,1,66300,67000,1,0
4,0,0,"NYA.png",270,100 S,0,66320,67000,1,1.5 R,0,66320,67000,-0.5,0 F,1,66700,67000,1,0
4,0,0,"13.png",10,50 F,1,75500,75800,0,1 F,1,77200,77700,1,0
4,0,0,"14.png",10,50 F,1,77850,78150,0,1 F,1,80650,81350,1,0
4,0,0,"15.png",10,50 F,1,84450,84750,0,1 F,1,86000,86500,1,0
4,0,0,"16.png",10,50 F,1,86650,86950,0,1 F,1,89450,89950,1,0
4,0,0,"17.png",10,50 F,1,91600,91900,0,1 F,1,95800,96100,1,0
4,0,0,"18.png",10,50 F,1,96000,96300,0,1 F,1,100200,100500,1,0
4,0,0,"19.png",10,50 F,1,100400,100700,0,1 F,1,104600,105000,1,0
4,0,0,"20.png",10,50 F,1,105350,105650,0,1 F,1,107600,107900,1,0
4,0,0,"9.png",10,50 F,1,110600,110900,0,1 F,1,113400,113700,1,0
4,0,0,"10.png",10,50 F,1,113600,113900,0,1 F,1,117750,118050,1,0
4,0,0,"11.png",10,50 F,1,118030,118330,0,1 F,1,122200,122500,1,0
4,0,0,"12.png",10,50 F,1,123650,123950,0,1 F,1,126050,127500,1,0
4,0,0,"21.png",10,50 F,1,129000,129300,0,1 F,1,134550,134850,1,0
4,0,0,"22.png",10,50 F,1,137850,138150,0,1 F,1,145550,145850,1,0
4,0,0,"23.png",10,50 F,1,148000,148300,0,1 F,1,150850,151150,1,0
4,0,0,"24.png",10,50 F,1,151050,151350,0,1 F,1,155000,155500,1,0
4,0,0,"25.png",10,50 F,1,155450,155750,0,1 F,1,159650,159950,1,0
4,0,0,"26.png",10,50 F,1,160100,160400,0,1 F,1,163750,164200,1,0
4,0,1,"whoo.png",100,230 M,1,165126,165800,100,230,120,210 S,0,165126,165800,1,0.5 F,1,165250,165600,1,0
4,0,0,"9.png",10,50 F,1,165650,165950,0,1 F,1,168450,168750,1,0
4,0,0,"10.png",10,50 F,1,168650,168950,0,1 F,1,172800,173100,1,0
4,0,0,"11.png",10,50 F,1,173000,173300,0,1 F,1,176400,176700,1,0
4,0,1,"question.png",78,187 M,1,176680,177000,78,187,78,182 S,1,176680,180000,2,2 M,1,177000,177500,78,182,78,187 F,1,177500,180000,1,0
4,0,1,"question.png",90,45 F,1,177235,180000,1,0 R,0,177235,180000,-0.2,-0.2
4,0,1,"question.png",215,90 F,1,177510,180000,1,0 R,0,177510,180000,0.05,0.05
4,0,1,"question.png",445,20 F,1,177785,180000,1,0 R,0,177785,180000,-0.3,-0.3
4,0,1,"question.png",550,300 F,1,178060,180000,1,0
4,0,1,"question.png",242,287 F,1,178336,180000,1,0 R,0,178336,180000,-0.5,-0.5
4,0,1,"question.png",314,70 F,1,178611,180000,1,0 R,0,178611,180000,-0.2,-0.2
4,0,0,"12.png",10,50 F,1,178850,179150,0,1 F,1,181060,181000,1,0
4,0,1,"exp.png",320,340 S,1,185215,187500,0.5,1 R,0,185215,186316,0,3.152 F,1,186000,187000,1,0 R,0,186316,186729,3.152,4.256
//Storyboard Layer 1 (Failing)
//Storyboard Layer 2 (Passing)
//Storyboard Layer 3 (Foreground)
4,3,1,"CHE.png",302,417 F,0,61228,61650,1,0 S,0,61228,61700,1,1.5 C,0,61228,61650,255,255,255,255,128,192
4,3,1,"RRY.png",463,417 F,0,61641,62063,1,0 S,0,61641,62113,1,1.5 C,0,61641,62063,255,255,255,255,128,192
4,3,1,"CHE.png",302,417 F,0,122916,123316,1,0 S,0,122916,123366,1,1.5 C,0,122916,123316,255,255,255,255,128,192
4,3,1,"RRY.png",463,417 F,0,123292,123692,1,0 S,0,123292,123742,1,1.5 C,0,123292,123692,255,255,255,255,128,192
//Storyboard Sound Samples
//Background Colour Transformations
3,100,163,162,255

[TimingPoints]
826,550.459120468003,4,1,0,100,1
11823,550.459120468,4,2,0,100,0
42650,550.459120468003,4,1,0,58,0
42925,550.459120468003,4,2,0,100,0
45127,550.459120468003,4,1,0,65,0
46501,550.459120468003,4,1,0,100,0
47051,550.459120468003,4,2,0,50,0
49252,550.459120468003,4,1,0,100,0
57788,-200,4,1,0,100,0
60265,-100,4,1,0,100,0
64393,-200,4,1,0,100,0
66870,-100,4,1,0,100,0
75674,550.459120468003,4,2,0,100,0
108155,550.459120468003,4,1,0,100,0
108705,550.459120468003,4,2,0,54,0
110907,550.459120468003,4,1,0,100,0
133200,-200,4,1,0,100,0
135126,-100,4,1,0,100,0
146137,550.459120468003,4,2,0,51,0
148337,550.459120468003,4,2,0,100,0
152192,550.459120468003,4,2,0,70,0
153291,550.459120468003,4,2,0,100,0
165127,550.459120468003,4,1,0,80,0
165953,550.459120468003,4,1,0,100,0
170355,550.459120468003,4,1,0,64,0
171181,550.459120468003,4,1,0,100,0
174208,-200,4,1,0,100,0
176960,-100,4,1,0,100,0
179161,-200,4,1,0,100,0
183564,-100,4,1,0,100,0

[Colours]
Combo1 : 192,192,192
Combo2 : 255,128,192
Combo3 : 128,255,255
Combo4 : 255,43,43

[HitObjects]
256,72,3853,1,0
216,88,3991,1,0
200,128,4128,1,0
256,192,4403,1,0
312,256,4679,1,0
296,296,4816,1,0
256,312,4954,1,0
256,224,5229,1,4
400,280,14312,6,0,B|408:336,1,35
368,336,14587,2,0,B|304:352,1,35,8|0
296,320,14862,2,0,B|264:264,1,35
304,256,15137,2,8,B|328:216,1,35
296,144,15550,2,2,B|259:58|216:124,1,105
120,280,16376,6,0,B|160:312,1,35
184,280,16651,2,0,B|192:232,1,35
168,160,17064,2,2,B|104:168,2,35,0|8|0
248,128,17615,1,0
232,168,17752,1,0
256,200,17890,2,2,B|304:208|280:272,1,70
248,328,18440,2,10,B|170:367|169:240,1,140
256,56,19403,5,8
256,184,19816,1,0
256,96,20092,1,8
336,240,20642,1,0
256,272,20917,1,0
176,240,21192,1,8
256,144,21605,2,2,B|256:192,1,35
256,264,22018,1,0
216,336,22293,2,10,B|256:368,1,35
280,368,22569,2,10,B|312:328,1,35
264,320,22844,1,4
392,144,23119,6,0,B|440:120,2,35
352,144,23532,2,0,B|312:120,2,35
376,176,23945,1,0
376,176,24082,2,2,B|376:272,1,70
112,184,25183,6,0,B|80:136,1,35
88,112,25459,1,0
120,88,25596,2,0,B|184:72,1,35
192,88,25871,1,0
224,112,26009,2,0,B|224:176,1,35
224,232,26422,2,2,B|168:232,2,35
264,248,26835,1,0
296,216,26972,2,0,B|264:168,2,35,8|0|2
256,96,27660,1,8
256,96,27798,1,8
424,192,28211,5,8
296,192,28624,1,0
296,192,28899,1,8
128,192,29449,1,0
200,152,29725,1,0
200,232,30000,1,8
384,304,30275,6,2,B|403:239|324:259,1,70,2|2
288,304,30826,1,2
264,224,31101,1,2
192,272,31376,1,2
136,208,31651,2,0,B|131:153|90:189|80:296,1,140
160,312,32477,1,2
216,248,32752,1,2
160,312,33027,1,2
216,248,33303,1,2
136,224,33578,2,0,B|171:172|57:167|114:92,1,140,8|8
384,128,34679,5,2
352,64,34954,1,2
304,128,35229,1,0
336,200,35504,1,0
392,256,35780,1,2
304,264,36055,2,0,B|340:351|296:379|232:360,1,140
208,296,36881,2,2,B|173:233|256:256,1,70
296,296,37431,2,2,B|315:348|248:368,1,70
200,328,37981,1,8
256,168,38532,1,8
24,32,39082,6,0,B|96:32,1,70
96,112,39633,2,0,B|96:200,1,70,0|2
176,184,40183,2,2,B|256:184,1,70,2|0
376,72,41009,1,0
408,152,41284,1,2
368,224,41559,2,0,B|345:157|462:213|396:276,1,140
328,312,42385,2,10,B|240:256,1,70,10|2
256,192,42936,1,12
160,128,44037,5,2
208,192,44312,1,2
128,176,44587,1,2
184,232,44862,1,8
104,256,45137,2,2,B|256:80,1,210
256,192,46514,5,0
256,152,46651,1,0
256,192,46789,1,0
224,40,47064,6,0,B|328:40,1,70,0|4
296,192,47615,2,0,B|200:192,1,70,0|4
256,344,48165,2,0,B|256:281|256:281|256:192,1,140,0|4
256,205,49266,5,0
376,88,49816,1,0
408,248,50367,1,8
448,168,50642,2,2,B|377:216|377:216|324:148,1,140
256,24,51743,1,2
80,192,52293,6,8,B|24:272,2,70
248,192,53394,2,2,B|248:88,1,70,2|10
296,192,53945,2,2,B|296:112,1,70,0|10
376,152,54495,2,2,B|396:85|469:220|491:146,1,140
480,64,55321,2,2,B|392:64,2,70,0|6|2
256,328,56697,5,0
200,264,56972,1,0
280,240,57248,1,0
256,160,57798,2,2,B|311:171|311:171|329:62|329:62|392:88,1,210
376,160,59725,1,2
456,160,60000,1,8
416,320,60550,1,8
256,152,61238,6,4,B|256:252,1,87.5
120,192,62477,5,0
256,88,63027,1,0
216,248,63578,1,0
352,144,64128,1,0
424,184,64404,2,2,B|424:240|392:288|336:248|344:184|288:144|264:200|256:256,1,245,2|14
120,280,75963,5,0
104,240,76101,1,0
120,200,76238,1,0
136,240,76376,2,0,B|192:240,2,35
104,240,76789,2,2,B|48:240,2,52.5,2|10|2
456,192,78165,6,0,B|456:240,1,35
424,256,78440,2,0,B|376:288,1,35,8|0
352,280,78715,2,0,B|312:280,1,35
280,256,78991,2,0,B|248:224,1,35,8|0
240,192,79266,2,0,B|240:144,1,35
264,120,79541,1,8
336,160,79816,2,2,B|360:120,2,35,2|2|10
256,304,80642,1,14
256,136,81055,5,8
144,192,81468,1,0
80,136,81743,2,8,B|139:172|147:51|214:123,1,140
200,192,82569,1,0
152,264,82844,1,8
376,96,83394,5,2
424,168,83670,1,8
336,168,83945,2,8,B|376:136,4,35,8|8|8|8|4
256,88,84771,5,0
240,128,84908,1,0
264,160,85046,2,0,B|280:168|272:200,1,35
240,216,85321,1,0
240,216,85459,1,0
224,176,85596,2,2,B|165:165,1,35,2|10
104,160,86009,1,8
448,72,86972,6,0,B|384:72,1,35
400,112,87248,1,8
384,152,87385,2,0,B|320:152,1,35
328,192,87660,1,2
312,232,87798,2,2,B|272:232,2,35,10|2|2
352,232,88211,1,2
392,232,88349,1,2
336,288,88624,1,2
256,272,88899,2,0,B|138:237|240:200,1,105,8|0
208,216,89449,1,8
32,64,89862,6,0,B|52:24|80:10|136:76,1,105,8|0
80,128,90550,1,8
424,208,91101,5,8
448,288,91376,1,0
368,320,91651,1,8
296,216,91926,6,0,B|200:216,1,70
160,168,92477,2,0,B|232:168,2,70,0|2|0
112,96,93303,2,2,B|56:32|160:8|248:72|232:128|352:128|304:40|392:24,1,350,2|10
424,96,94954,1,0
416,176,95229,2,8,B|349:172|312:152|312:264,1,140
408,88,96330,6,2,B|464:152|384:240|344:280|440:344,1,280
352,352,97706,2,2,B|371:241|284:164|281:375|151:373|232:88,1,420
312,64,99633,1,8
312,232,100183,1,8
256,192,101009,5,2
88,192,101560,1,2
208,80,102110,1,4
208,248,102660,1,2
344,152,103211,1,8
344,320,103761,1,2
256,80,104587,1,12
256,64,108165,6,0,B|256:16,2,35
440,72,108715,2,0,B|384:136,1,70,0|4
256,320,109266,2,0,B|256:232,1,70,0|4
72,64,109816,2,0,B|128:120,2,70,0|8|4
256,272,110917,5,0
256,160,111193,1,0
256,48,111468,1,0
256,160,111743,1,0
144,168,112018,2,0,B|128:208|160:248,1,70,0|8
264,232,112569,2,0,B|304:208|256:152,2,70,0|2|0
160,192,113394,1,2
416,192,113945,6,0,B|440:232,1,35,8|0
448,272,114220,2,0,B|416:312,1,35,0|0
392,256,114495,1,4
176,192,115046,6,0,B|128:192,2,35
208,144,115459,1,0
264,152,115596,2,2,B|277:109|344:144,1,70
416,192,116147,1,0
384,296,116422,1,8
352,336,116560,1,8
352,336,116697,1,8
256,280,116972,1,0
288,168,117248,1,0
248,128,117385,1,0
200,160,117523,2,4,B|160:128|144:184,1,70
456,72,118349,5,8
424,120,118486,1,0
456,168,118624,1,0
488,216,118761,1,0
456,264,118899,1,8
184,344,119449,6,2,B|136:344,1,35
168,288,119725,1,0
104,192,120000,1,8
152,88,120275,2,2,B|208:64,1,35
240,72,120550,2,0,B|224:120,1,35,0|0
192,144,120826,2,0,B|240:176,1,35,8|0
272,144,121101,1,2
224,240,121376,1,2
328,288,121651,1,8
104,296,122202,1,8
256,72,123027,5,4
176,240,123303,1,4
352,192,123578,1,4
256,136,124128,5,0
208,168,124266,1,0
256,200,124404,2,2,B|232:240,1,35
184,216,124679,1,8
232,320,124954,2,2,B|248:280,1,35
296,312,125229,1,0
312,256,125367,1,0
312,256,125504,1,8
312,144,125780,1,2
200,152,126055,2,0,B|232:136|208:80|136:96|120:160|160:224|216:200,1,210
256,192,127156,12,4,127982
256,192,129358,5,0
304,256,129633,2,0,B|272:286|224:289,1,70,8|0
176,232,130183,1,8
184,144,130459,2,2,B|216:112|280:112,1,70
312,160,131009,1,8
112,320,131560,5,0
72,240,131835,1,8
152,256,132110,1,0
72,240,132385,1,4
120,176,132660,1,8
288,192,133211,2,6,B|438:203|183:94|376:112,1,175
384,128,138165,5,0
424,144,138303,1,0
424,184,138440,1,0
344,216,138716,1,8
264,232,138991,2,0,B|232:248,1,35
232,288,139266,2,2,B|192:320|180:352|250:363|312:344,1,140,2|10
120,120,140367,5,0
184,272,140917,1,8
288,136,141468,1,2
120,176,142018,1,10
248,280,142569,1,2
184,64,143119,5,8
224,136,143394,1,8
304,112,143670,1,8
304,192,143945,2,2,B|298:245|262:259|251:234|202:276|252:216|230:117|144:240,2,210,2|2|6
88,232,146147,6,2,B|88:152,1,70,10|2
256,56,146697,2,2,B|256:136,1,70,10|2
424,232,147248,1,10
256,192,147798,1,10
256,360,148349,5,0
256,192,148899,1,0
256,24,149449,1,0
336,24,149725,2,2,B|336:112,1,70
256,104,150275,1,2
256,104,150826,1,8
291,267,151376,6,0,B|259:297|203:251,2,70
368,112,152477,1,4
448,256,153027,2,0,B|408:192,1,70,4|8
328,168,153578,2,0,B|328:208|284:232|229:201|232:160,1,140,0|0
280,104,154404,1,8
280,104,154679,2,0,B|280:56,2,35
256,352,155780,5,0
200,288,156055,1,0
256,224,156330,1,0
424,192,156881,2,2,B|416:152|352:160,1,70
368,240,157431,1,2
296,192,157706,1,8
232,248,157982,2,2,B|162:262|137:249|144:176,1,140,2|10
224,184,158807,1,0
304,184,159082,1,8
304,184,159633,1,8
256,96,160459,5,2
256,96,160734,2,2,B|256:168,2,70
256,248,161560,6,0,B|200:248,1,35,0|8
200,280,161835,1,0
216,320,161972,2,0,B|280:320,1,35,0|8
288,304,162248,1,0
320,272,162385,2,0,B|320:208,1,35,8|0
288,208,162660,1,0
248,184,162798,2,0,B|184:184,1,35,0|8
176,208,163073,1,0
208,240,163211,2,2,B|304:240,2,70,2|10|6
256,192,165138,5,6
256,352,165963,5,0
256,352,166238,1,0
256,352,166514,1,0
200,192,167064,2,2,B|104:192,1,70
128,104,167615,1,0
208,104,167890,2,10,B|247:46|295:140|352:64,1,140
208,261,168991,5,0
152,200,169266,1,0
232,192,169541,1,8
400,192,170092,2,0,B|320:192,1,70,8|2
280,120,170642,1,2
240,192,170917,1,2
312,232,171193,2,6,B|344:264|328:320|240:320,1,140,6|6
256,232,172018,1,8
256,144,172294,2,2,B|296:112|208:80|224:56|296:56,1,140,2|10
208,200,173394,5,0
232,232,173532,1,0
256,264,173670,1,4
280,232,173807,1,4
304,200,173945,1,0
320,64,174495,6,2,B|224:64,1,70
256,192,175321,1,8
256,320,175596,2,2,B|160:320,1,70
192,192,176422,1,2
320,192,176697,5,4
432,64,177248,1,8
456,144,177523,1,8
400,208,177798,1,8
368,128,178073,1,8
320,192,178349,1,8
400,160,178624,1,8
192,80,179174,6,2,B|144:120|144:160|208:168,1,105,2|10
288,136,180275,2,2,B|336:160|294:164|260:182|255:231|320:204,1,105
256,192,181376,12,0,183027
256,192,183578,12,0,184679
256,192,185229,5,4
