osu file format v12

[General]
AudioFilename: MAXSTEP - PYL Younique Album Vol1.mp3
AudioLeadIn: 0
PreviewTime: 44938
Countdown: 0
SampleSet: Normal
StackLeniency: 0.7
Mode: 0
LetterboxInBreaks: 0
WidescreenStoryboard: 0

[Editor]
DistanceSpacing: 1
BeatDivisor: 4
GridSize: 4

[Metadata]
Title:MAXSTEP
TitleUnicode:MAXSTEP
Artist:YOUNIQUE UNIT
ArtistUnicode:유니크 유닛
Creator:AlpacaCokelat
Version:NM
Source:
Tags:PYL K-POP SM Entertainment Eunhyuk Hyoyeon Taemin Henry Kai Luhan KPOP Harez
BeatmapID:216727
BeatmapSetID:77115

[Difficulty]
HPDrainRate:4
CircleSize:3
OverallDifficulty:4
ApproachRate:5
SliderMultiplier:1.3
SliderTickRate:2

[Events]
//Background and Video events
0,0,"bg.jpg",0,0
Video,-320,"YOUNIQUE UNIT_MAXSTEP_Music Video.avi"
//Break Periods
2,106852,119167
2,165138,177452
//Storyboard Layer 0 (Background)
//Storyboard Layer 1 (Fail)
//Storyboard Layer 2 (Pass)
//Storyboard Layer 3 (Foreground)
//Storyboard Sound Samples
//Background Colour Transformations
3,100,163,162,255

[TimingPoints]
367,428.571428571429,4,1,1,50,1,0
17509,-100,4,1,1,60,0,0
48367,-100,4,1,1,70,0,1
60367,-100,4,1,1,60,0,0
120367,-100,4,1,1,70,0,1
134081,-100,4,1,1,60,0,0
151224,-100,4,1,1,70,0,1
151438,-100,4,1,1,70,0,0
158081,-100,4,1,1,60,0,0
188938,-100,4,1,1,70,0,1
200938,-100,4,1,1,70,0,0
202652,-100,4,1,1,70,0,1
216367,-100,4,1,1,60,0,0

[Colours]
Combo1 : 97,97,97
Combo2 : 255,0,0
Combo3 : 34,95,168
Combo4 : 196,196,0

[HitObjects]
256,192,3795,12,8,6367,0:0:0:0:
256,192,7224,5,4,0:0:0:0:
176,92,7652,1,0,0:0:0:0:
92,192,8081,2,0,B|64:256|64:256|96:332,1,130,8|0,0:0|0:0,0:0:0:0:
216,304,8938,5,0,0:0:0:0:
316,220,9367,1,0,0:0:0:0:
320,92,9795,2,0,B|258:72|258:72|180:96,1,130,8|0,0:0|0:0,0:0:0:0:
124,200,10652,6,0,P|84:256|96:320,2,130,0|0|8,0:0|0:0|0:0,0:0:0:0:
256,196,11938,1,0,0:0:0:0:
388,200,12367,6,0,P|428:256|416:320,2,130,0|0|8,0:0|0:0|0:0,0:0:0:0:
256,196,13652,1,0,0:0:0:0:
256,192,14081,12,4,17509,0:0:0:0:
100,56,18367,5,8,0:0:0:0:
160,316,19224,1,0,0:0:0:0:
352,120,20081,1,0,0:0:0:0:
228,64,20509,1,0,0:0:0:0:
120,140,20938,6,0,B|120:176|120:176|104:232|160:272,1,130,4|0,0:0|0:0,0:0:0:0:
276,256,21795,2,0,B|276:220|276:220|292:164|236:124,1,130,8|0,0:0|0:0,0:0:0:0:
152,52,22652,2,0,P|88:52|32:100,2,130,0|0|8,0:0|0:0|0:0,0:0:0:0:
126,179,23938,1,0,0:0:0:0:
248,221,24367,6,0,B|248:257|248:257|232:313|288:353,1,130,0|0,0:0|0:0,0:0:0:0:
404,337,25224,2,0,B|404:301|404:301|420:245|364:205,1,130,8|0,0:0|0:0,0:0:0:0:
295,115,26081,2,0,P|239:103|159:155,2,130,0|0|8,0:0|0:0|0:0,0:0:0:0:
251,237,27367,1,0,0:0:0:0:
324,344,27795,6,0,P|260:373|204:361,1,130
103,286,28652,2,0,P|87:223|130:162,1,130,8|0,0:0|0:0,0:0:0:0:
248,172,29509,6,2,P|279:264|332:161,1,260,0|8,0:0|0:0,0:0:0:0:
245,86,30795,6,0,P|169:70|105:98,1,130,0|0,0:0|0:0,0:0:0:0:
181,202,31652,2,0,P|165:278|193:342,1,130,0|8,0:0|0:0,0:0:0:0:
292,258,32509,2,0,P|368:274|432:246,1,130,0|0,0:0|0:0,0:0:0:0:
350,144,33367,2,0,P|366:68|338:4,1,130,0|8,0:0|0:0,0:0:0:0:
93,63,34652,5,4,0:0:0:0:
25,174,35081,1,0,0:0:0:0:
60,304,35509,2,0,P|120:272|196:272,1,130,8|0,0:0|0:0,0:0:0:0:
300,320,36367,1,0,0:0:0:0:
388,224,36795,1,0,0:0:0:0:
380,96,37224,6,0,L|312:56,1,65,8|0,0:0|0:0,0:0:0:0:
260,60,37652,2,0,L|184:100,1,65
144,120,38081,5,0,0:0:0:0:
20,80,38509,2,0,P|20:160|64:220,2,130,0|8|0,0:0|0:0|0:0,0:0:0:0:
144,120,39795,1,0,0:0:0:0:
264,72,40224,1,0,0:0:0:0:
376,140,40652,6,0,L|388:212,1,65,8|0,0:0|0:0,0:0:0:0:
332,240,41081,2,0,L|260:264,1,65
208,280,41509,5,0,0:0:0:0:
104,200,41938,1,0,0:0:0:0:
208,120,42367,2,0,B|268:92|268:92|325:119,1,130,8|0,0:0|0:0,0:0:0:0:
440,184,43224,5,0,0:0:0:0:
436,312,43652,1,0,0:0:0:0:
308,320,44081,2,0,B|251:347|251:347|191:319,1,130,8|0,0:0|0:0,0:0:0:0:
124,208,44938,6,0,L|52:156,2,65
112,336,45795,2,0,L|40:388,2,65,0|0|0,0:0|0:0|0:0,0:0:0:0:
152,212,46652,2,0,B|189:61|189:61|257:141|257:141|321:61|321:61|361:213,1,520,0|4,0:0|0:0,0:0:0:0:
136,340,49224,5,8,0:0:0:0:
256,292,49652,1,0,0:0:0:0:
380,248,50081,2,0,P|412:204|400:104,1,130,8|0,0:0|0:0,0:0:0:0:
284,104,50938,2,0,P|208:104|144:80,1,130
60,172,51795,5,0,0:0:0:0:
108,292,52224,1,0,0:0:0:0:
232,252,52652,1,8,0:0:0:0:
176,136,53081,1,0,0:0:0:0:
296,84,53509,6,0,L|456:84,1,130
404,212,54367,2,0,L|404:280,2,65,8|0|0,0:0|0:0|0:0,0:0:0:0:
376,84,55224,6,0,B|288:115|288:115|250:173|281:289,2,260,0|8|0,0:0|0:0|0:0,0:0:0:0:
424,212,57367,5,0,0:0:0:0:
392,340,57795,1,8,0:0:0:0:
272,288,58224,1,0,0:0:0:0:
256,192,58652,12,4,60367,0:0:0:0:
256,192,62081,5,4,0:0:0:0:
392,52,62724,2,0,L|452:112,1,65,0|8,0:0|0:0,0:0:0:0:
316,328,63795,1,4,0:0:0:0:
183,184,64438,2,0,L|137:138,1,65,0|8,0:0|0:0,0:0:0:0:
389,75,65509,5,4,0:0:0:0:
389,271,66152,2,8,L|389:363,1,65,0|8,0:0|0:0,0:0:0:0:
291,250,66795,1,0,0:0:0:0:
237,368,67224,2,0,P|184:332|168:189,1,195
180,148,68081,2,0,P|212:112|300:124,1,130,8|8,0:0|0:0,0:0:0:0:
290,250,68938,6,0,B|354:246|354:246|406:226|406:226|510:226,1,195,4|0,0:0|0:0,0:0:0:0:
488,161,69795,1,8,0:0:0:0:
263,49,70652,2,4,B|199:53|199:53|147:73|147:73|43:73,1,195,4|0,0:0|0:0,0:0:0:0:
7,73,71509,1,8,0:0:0:0:
100,315,72367,2,4,B|164:311|164:311|216:291|216:291|320:291,1,195,4|0,0:0|0:0,0:0:0:0:
356,291,73224,1,8,0:0:0:0:
296,44,74081,5,0,0:0:0:0:
184,108,74509,1,6,0:0:0:0:
300,168,74938,1,6,0:0:0:0:
184,232,75367,1,6,0:0:0:0:
296,296,75795,6,0,L|436:260,2,130,4|0|8,0:0|0:0|0:0,0:0:0:0:
256,172,77081,1,0,0:0:0:0:
256,172,77295,1,0,0:0:0:0:
256,172,77509,6,0,L|344:144,1,65
380,176,77938,2,0,L|420:252,1,65
372,284,78367,2,0,P|308:296|260:344,1,130,8|0,0:0|0:0,0:0:0:0:
196,336,79009,1,0,0:0:0:0:
196,336,79224,6,0,P|132:324|84:276,1,130
192,200,80081,2,0,L|332:184,1,130,8|0,0:0|0:0,0:0:0:0:
340,124,80724,1,0,0:0:0:0:
340,124,80938,6,0,P|296:92|200:112,1,130
96,116,81795,2,0,L|60:188,1,65,8|0,0:0|0:0,0:0:0:0:
108,228,82224,2,0,L|184:232,1,65,8|0,0:0|0:0,0:0:0:0:
220,188,82652,6,0,L|296:172,2,65,4|0|0,0:0|0:0|0:0,0:0:0:0:
204,316,83509,2,0,L|128:300,2,65,8|0|0,0:0|0:0|0:0,0:0:0:0:
336,308,84367,6,0,P|408:264|412:196,1,130,4|0,0:0|0:0,0:0:0:0:
416,92,85224,2,0,P|344:136|340:204,1,130,0|0,0:0|0:0,0:0:0:0:
228,248,86081,6,0,P|168:252|112:184,2,130,4|0|8,0:0|0:0|0:0,0:0:0:0:
208,116,87367,1,0,0:0:0:0:
320,181,87795,5,0,0:0:0:0:
301,309,88224,1,4,0:0:0:0:
172,330,88652,1,4,0:0:0:0:
113,213,89081,1,4,0:0:0:0:
256,192,89509,12,0,92081,0:0:0:0:
240,116,92938,6,0,B|136:116|136:116|80:140|72:240|132:280,2,260,0|2|0,0:0|0:0|0:0,0:0:0:0:
244,248,95081,1,0,0:0:0:0:
356,316,95509,2,8,P|382:243|364:197,1,130,2|0,0:0|0:0,0:0:0:0:
256,124,96367,5,2,0:0:0:0:
128,124,96795,1,0,0:0:0:0:
60,236,97224,1,8,0:0:0:0:
136,340,97652,1,0,0:0:0:0:
240,264,98081,6,0,P|232:208|252:128,1,130,2|0,0:0|0:0,0:0:0:0:
376,140,98938,2,0,P|391:202|383:267,1,130,8|0,0:0|0:0,0:0:0:0:
268,324,99795,6,0,L|192:336,2,65
292,264,100438,1,0,0:0:0:0:
328,212,100652,2,0,L|408:196,2,65,8|0|0,0:0|0:0|0:0,0:0:0:0:
280,168,101295,6,0,L|204:180,1,65
96,228,101938,1,0,0:0:0:0:
172,332,102367,2,0,P|216:312|296:340,1,130,8|0,0:0|0:0,0:0:0:0:
384,244,103224,5,0,0:0:0:0:
356,116,103652,1,0,0:0:0:0:
228,92,104081,2,0,P|184:104|104:172,1,130,8|0,0:0|0:0,0:0:0:0:
256,192,104938,12,4,106652,0:0:0:0:
163,192,120367,6,0,P|199:186|244:201,1,65,4|0,0:0|0:0,0:0:0:0:
276,232,120795,2,0,P|312:238|357:223,1,65
376,180,121224,2,0,P|408:308|287:311,1,260,8|8,0:0|0:0,0:0:0:0:
184,304,122509,1,0,0:0:0:0:
84,220,122938,1,8,0:0:0:0:
180,136,123367,1,0,0:0:0:0:
364,136,123795,6,0,P|354:181|364:220,1,65
400,248,124224,2,0,P|411:298|400:340,1,65
352,340,124652,2,0,P|256:340|269:188,1,260,8|8,0:0|0:0,0:0:0:0:
332,108,125938,1,0,0:0:0:0:
460,108,126367,1,8,0:0:0:0:
392,220,126795,1,0,0:0:0:0:
232,236,127224,6,0,L|144:236,1,65
104,236,127652,2,0,L|16:236,1,65
30,171,128081,2,0,P|46:59|190:55,1,260,8|8,0:0|0:0,0:0:0:0:
288,102,129367,1,0,0:0:0:0:
364,207,129795,1,8,0:0:0:0:
291,315,130224,1,0,0:0:0:0:
168,332,130652,6,0,L|168:244,1,65
168,200,131081,2,0,L|168:108,1,65
196,76,131509,2,0,P|324:44|344:156,1,260,8|8,0:0|0:0,0:0:0:0:
348,268,132795,1,0,0:0:0:0:
236,332,133224,1,8,0:0:0:0:
120,272,133652,1,0,0:0:0:0:
140,144,134081,6,0,P|180:92|252:80,1,130,4|0,0:0|0:0,0:0:0:0:
372,80,134938,2,0,P|432:93|472:145,1,130,8|0,0:0|0:0,0:0:0:0:
360,208,135795,1,0,0:0:0:0:
256,288,136224,1,0,0:0:0:0:
164,196,136652,2,0,L|120:144,2,65,8|0|0,0:0|0:0|0:0,0:0:0:0:
248,112,137509,6,0,L|336:224,1,130
460,216,138367,2,0,L|372:104,1,130,8|0,0:0|0:0,0:0:0:0:
248,112,139224,5,0,0:0:0:0:
152,200,139652,1,0,0:0:0:0:
252,280,140081,2,0,L|340:280,2,65,8|0|0,0:0|0:0|0:0,0:0:0:0:
120,276,140938,6,0,B|60:232|60:232|48:156,1,130
180,164,141795,2,0,B|172:109|172:109|112:65,1,130,8|0,0:0|0:0,0:0:0:0:
56,184,142652,5,0,0:0:0:0:
72,312,143081,1,0,0:0:0:0:
200,316,143509,2,0,L|264:348,2,65,8|0|0,0:0|0:0|0:0,0:0:0:0:
148,196,144367,6,0,B|120:164|144:124|144:124|204:96,1,130
320,104,145224,2,0,B|367:125|367:125|391:165|363:197,1,130,8|0,0:0|0:0,0:0:0:0:
448,296,146081,5,0,0:0:0:0:
324,340,146509,1,0,0:0:0:0:
208,280,146938,1,8,0:0:0:0:
172,155,147367,1,0,0:0:0:0:
256,192,147795,12,8,150367,0:0:0:0:
192,60,151224,6,0,L|40:60,1,130,0|2,0:0|0:0,0:0:0:0:
36,188,152081,2,0,L|176:248,1,130,0|2,0:0|0:0,0:0:0:0:
192,364,152938,2,0,L|72:312,1,130,0|2,0:0|0:0,0:0:0:0:
36,188,153795,2,0,B|104:141|104:141|152:133,1,130,0|2,0:0|0:0,0:0:0:0:
276,104,154652,6,2,P|356:68|468:184,1,260,2|2,0:0|0:0,0:0:0:0:
348,220,155938,1,0,0:0:0:0:
468,256,156367,2,2,P|356:361|276:325,1,260
348,220,157652,1,0,0:0:0:0:
224,236,158081,6,0,B|168:268|168:268|145:254|88:264,1,130,0|2,0:0|0:0,0:0:0:0:
80,132,158938,2,0,B|122:82|122:82|148:88|185:67,1,130,0|2,0:0|0:0,0:0:0:0:
312,84,159795,1,0,0:0:0:0:
412,168,160224,1,2,0:0:0:0:
304,240,160652,1,0,0:0:0:0:
400,328,161081,1,2,0:0:0:0:
272,340,161509,6,0,B|213:304|213:304|180:219,1,130
110,154,162367,2,0,B|168:189|168:189|201:274,1,130
256,192,163224,12,4,164938,0:0:0:0:
68,144,178652,6,0,P|144:92|312:104,1,260,4|8,0:0|0:0,0:0:0:0:
344,292,180152,1,0,0:0:0:0:
344,292,180367,2,0,P|268:344|100:332,1,260,0|8,0:0|0:0,0:0:0:0:
88,140,181867,1,0,0:0:0:0:
88,140,182081,2,0,B|164:192|272:80|360:168,1,260,0|8,0:0|0:0,0:0:0:0:
428,324,183581,6,0,L|476:360,2,32.5
300,308,184224,1,6,0:0:0:0:
366,196,184652,1,6,0:0:0:0:
235,196,185081,1,6,0:0:0:0:
256,192,185509,12,8,188081,0:0:0:0:
64,160,188938,6,0,P|128:96|284:164,1,260,4|8,0:0|0:0,0:0:0:0:
120,352,190652,2,0,P|60:331|35:273,1,130,0|0,0:0|0:0,0:0:0:0:
156,224,191509,2,0,L|204:168,2,65,8|0|8,0:0|0:0|0:0,0:0:0:0:
284,212,192367,6,0,P|296:148|140:104,1,260,0|8,0:0|0:0,0:0:0:0:
304,304,194081,2,0,P|352:268|380:192,1,130
276,124,194938,2,0,L|208:152,2,65,8|0|0,0:0|0:0|0:0,0:0:0:0:
400,84,195795,6,0,L|400:240,1,130
372,272,196438,1,0,0:0:0:0:
324,228,196652,2,0,P|264:188|136:304,1,260,8|0,0:0|0:0,0:0:0:0:
32,364,197938,1,0,0:0:0:0:
160,360,198366,1,8,0:0:0:0:
276,304,198795,1,0,0:0:0:0:
328,184,199224,6,0,L|413:67,1,130
276,36,200081,2,0,L|199:141,1,130,8|0,0:0|0:0,0:0:0:0:
224,268,200938,2,0,L|264:344,2,65
112,200,201795,2,0,L|36:224,2,65,8|0|0,0:0|0:0|0:0,0:0:0:0:
160,332,202652,6,0,B|264:292|264:292|288:264|288:264|404:224,1,260,0|8,0:0|0:0,0:0:0:0:
316,48,204152,1,0,0:0:0:0:
316,48,204367,2,0,B|212:88|212:88|188:116|188:116|72:156,1,260,0|8,0:0|0:0,0:0:0:0:
160,256,205652,1,0,0:0:0:0:
284,292,206081,6,0,P|320:292|352:272,2,65,0|0|0,0:0|0:0|0:0,0:0:0:0:
296,164,206938,2,0,P|264:100|192:72,1,130,8|0,0:0|0:0,0:0:0:0:
176,196,207795,2,0,P|152:220|120:232,2,65,0|0|0,0:0|0:0|0:0,0:0:0:0:
280,276,208652,2,0,P|244:324|156:352,1,130
104,232,209509,6,0,L|80:148,2,65
144,284,210152,1,0,0:0:0:0:
196,324,210367,2,0,P|252:320|208:172,1,260,8|0,0:0|0:0,0:0:0:0:
100,144,211652,1,0,0:0:0:0:
80,272,212081,1,8,0:0:0:0:
196,324,212509,1,0,0:0:0:0:
256,192,212938,12,4,216367,0:0:0:0:
