osu file format v12

[General]
AudioFilename: MAXSTEP - PYL Younique Album Vol1.mp3
AudioLeadIn: 0
PreviewTime: 44938
Countdown: 0
SampleSet: Normal
StackLeniency: 0.7
Mode: 0
LetterboxInBreaks: 0
WidescreenStoryboard: 0

[Editor]
DistanceSpacing: 1
BeatDivisor: 4
GridSize: 4

[Metadata]
Title:MAXSTEP
TitleUnicode:MAXSTEP
Artist:YOUNIQUE UNIT
ArtistUnicode:유니크 유닛
Creator:AlpacaCokelat
Version:MX
Source:
Tags:PYL K-POP SM Entertainment Eunhyuk Hyoyeon Taemin Henry Kai Luhan KPOP Harez
BeatmapID:216726
BeatmapSetID:77115

[Difficulty]
HPDrainRate:7
CircleSize:4
OverallDifficulty:8
ApproachRate:9
SliderMultiplier:1.8
SliderTickRate:1

[Events]
//Background and Video events
0,0,"bg.jpg",0,0
Video,-320,"YOUNIQUE UNIT_MAXSTEP_Music Video.avi"
//Break Periods
//Storyboard Layer 0 (Background)
//Storyboard Layer 1 (Fail)
//Storyboard Layer 2 (Pass)
//Storyboard Layer 3 (Foreground)
//Storyboard Sound Samples
//Background Colour Transformations
3,100,163,162,255

[TimingPoints]
367,428.571428571429,4,1,1,65,1,0
12795,-200,4,1,1,65,0,0
13224,-100,4,1,1,65,0,0
13652,-200,4,1,1,65,0,0
14081,-100,4,1,1,65,0,0
20617,-100,4,1,1,15,0,0
20724,-100,4,1,1,70,0,0
48367,-100,4,1,1,70,0,1
60367,-100,4,1,1,60,0,0
62081,-100,4,1,1,65,0,0
89402,-100,4,1,1,25,0,0
89509,-100,4,1,1,65,0,0
92938,-200,4,1,1,65,0,0
94438,-100,4,1,1,65,0,0
120367,-100,4,1,1,70,0,1
134081,-100,4,1,1,60,0,0
147795,-200,4,1,1,60,0,0
148545,-200,4,1,1,20,0,0
148652,-100,4,1,1,60,0,0
151224,-80,4,1,1,70,0,1
151367,-80,4,1,1,70,0,0
154652,-200,4,1,1,70,0,0
155509,-100,4,1,1,70,0,0
157224,-200,4,1,1,70,0,0
158081,-80,4,1,1,70,0,0
163224,-100,4,1,1,50,0,0
188938,-100,4,1,1,70,0,1
200938,-100,4,1,1,60,0,0
202652,-100,4,1,1,70,0,1
216367,-100,4,1,1,60,0,0

[Colours]
Combo1 : 97,97,97
Combo2 : 255,0,0
Combo3 : 34,95,168
Combo4 : 196,196,0

[HitObjects]
256,192,3795,12,8,6367,0:0:0:0:
88,148,7224,5,4,0:0:0:0:
164,84,7438,1,0,0:0:0:0:
240,148,7652,2,0,P|304:144|384:100,1,120
354,122,8009,1,0,0:0:0:0:
354,122,8081,2,0,P|376:164|368:216,1,90,8|0,0:0|0:0,0:0:0:0:
280,244,8509,1,0,0:0:0:0:
280,244,8724,6,0,P|324:288|436:256,1,180
232,244,9367,2,0,P|188:288|88:264,1,135
92,248,9795,6,0,L|48:296,2,60,8|0|0,0:0|0:0|0:0,0:0:0:0:
88,180,10224,2,0,P|80:144|52:92,1,90
144,52,10652,21,0,0:0:0:0:
240,24,10867,1,0,0:0:0:0:
324,76,11081,2,0,B|364:104|404:104|404:104|404:164,1,120
404,137,11438,1,0,0:0:0:0:
404,137,11509,2,0,P|376:172|360:236,1,90,8|0,0:0|0:0,0:0:0:0:
396,308,11938,1,0,0:0:0:0:
312,360,12152,1,0,0:0:0:0:
220,328,12367,6,0,L|152:308,1,45
108,220,12581,2,0,L|151:232,1,45
272,184,12795,2,0,L|192:160,1,67.5
124,88,13224,6,0,L|172:72,1,45,10|0,0:0|0:0,0:0:0:0:
336,100,13438,2,0,L|280:80,1,45
400,152,13652,2,0,L|416:216,1,45,2|0,0:0|0:0,0:0:0:0:
410,195,13974,1,0,0:0:0:0:
410,195,14081,6,0,P|376:248|360:296,1,90
280,320,14509,1,0,0:0:0:0:
284,220,14724,2,0,L|280:184,2,30
284,220,14938,2,0,P|216:256|192:280,1,90,8|0,0:0|0:0,0:0:0:0:
124,320,15367,1,0,0:0:0:0:
76,196,15581,6,0,P|160:120|236:88,1,180
436,196,16224,2,0,P|352:120|296:88,1,135
288,128,16652,6,0,L|260:188,2,60,8|0|0,0:0|0:0|0:0,0:0:0:0:
272,216,17081,2,0,L|284:312,1,90
256,192,17509,12,0,20617,0:0:0:0:
184,116,20724,5,0,0:0:0:0:
184,116,20831,1,0,0:0:0:0:
184,116,20938,2,0,P|148:184|200:264,1,180,4|0,0:0|0:0,0:0:0:0:
328,116,21581,1,0,0:0:0:0:
328,116,21795,2,0,P|364:184|312:264,1,180,8|0,0:0|0:0,0:0:0:0:
132,296,22438,1,0,0:0:0:0:
220,340,22652,1,0,0:0:0:0:
320,328,22867,6,0,B|392:276|392:276|384:220|452:168,1,180,2|0,0:0|0:0,0:0:0:0:
480,256,23509,2,0,P|504:204|428:112,1,180,10|0,0:0|0:0,0:0:0:0:
360,36,24152,1,0,0:0:0:0:
276,112,24367,5,0,0:0:0:0:
265,122,24795,1,0,0:0:0:0:
255,132,25224,2,0,L|116:264,1,180,8|0,0:0|0:0,0:0:0:0:
147,352,25867,1,0,0:0:0:0:
238,315,26081,1,0,0:0:0:0:
332,348,26295,6,0,B|376:300|344:224|412:160,1,180,2|0,0:0|0:0,0:0:0:0:
416,56,26938,1,10,0:0:0:0:
296,144,27152,1,0,0:0:0:0:
488,128,27367,1,0,0:0:0:0:
328,64,27581,5,0,0:0:0:0:
328,64,27688,1,0,0:0:0:0:
328,64,27795,1,0,0:0:0:0:
308,64,28224,1,0,0:0:0:0:
288,64,28652,2,0,L|104:64,1,180,8|0,0:0|0:0,0:0:0:0:
48,144,29295,1,0,0:0:0:0:
256,192,29509,12,8,30367,0:0:0:0:
208,48,30795,5,0,0:0:0:0:
140,120,31009,1,0,0:0:0:0:
140,120,31224,2,0,P|132:176|240:252,1,180
380,140,31867,1,0,0:0:0:0:
380,140,32081,2,0,L|216:52,1,180,8|0,0:0|0:0,0:0:0:0:
52,88,32724,5,0,0:0:0:0:
45,263,32938,2,0,P|31:175|52:88,1,180
140,132,33581,1,0,0:0:0:0:
216,196,33795,2,0,P|138:210|139:132,1,180,8|0,0:0|0:0,0:0:0:0:
220,72,34438,5,0,0:0:0:0:
232,68,34545,1,0,0:0:0:0:
244,64,34652,2,0,L|348:40,1,90,4|0,0:0|0:0,0:0:0:0:
412,116,35081,2,0,L|308:144,1,90
156,152,35509,1,8,0:0:0:0:
344,256,35724,1,0,0:0:0:0:
104,276,35938,1,0,0:0:0:0:
236,352,36152,1,0,0:0:0:0:
344,344,36367,5,0,0:0:0:0:
432,284,36581,1,0,0:0:0:0:
456,180,36795,1,0,0:0:0:0:
408,84,37009,1,0,0:0:0:0:
312,36,37224,1,8,0:0:0:0:
248,188,37438,1,0,0:0:0:0:
152,44,37652,1,0,0:0:0:0:
80,208,37867,1,0,0:0:0:0:
152,44,38081,5,0,0:0:0:0:
152,44,38295,1,0,0:0:0:0:
152,44,38402,1,0,0:0:0:0:
152,44,38509,2,0,L|168:136,1,90
64,284,38938,2,0,P|108:292|164:272,1,90
336,280,39367,2,0,P|272:284|240:308,1,90
280,192,39795,6,0,P|352:192|388:208,2,90
188,252,40438,1,0,0:0:0:0:
76,136,40652,1,0,0:0:0:0:
208,56,40867,1,0,0:0:0:0:
368,80,41081,1,0,0:0:0:0:
448,200,41295,5,0,0:0:0:0:
442,212,41402,1,0,0:0:0:0:
435,225,41509,2,0,L|383:321,1,90
352,320,41831,1,0,0:0:0:0:
316,296,41938,2,0,P|256:284|216:284,1,90
184,284,42259,1,0,0:0:0:0:
140,272,42367,2,0,P|124:216|128:168,2,90
224,180,43009,1,0,0:0:0:0:
224,180,43224,6,0,L|320:188,1,90
316,80,43652,2,0,L|220:88,1,90
116,132,44081,6,0,L|76:224,2,60
180,100,44509,2,0,P|228:116|284:152,1,90
380,184,44938,5,0,0:0:0:0:
356,288,45152,1,0,0:0:0:0:
272,220,45367,1,0,0:0:0:0:
272,220,45795,5,0,0:0:0:0:
188,288,46009,1,0,0:0:0:0:
164,184,46224,1,0,0:0:0:0:
164,184,46652,6,0,L|244:112,1,90
380,256,47081,2,0,L|300:328,1,90
144,164,47509,2,0,L|224:92,2,90
88,288,48152,5,0,0:0:0:0:
88,288,48259,1,0,0:0:0:0:
88,288,48367,2,0,P|168:288|204:264,1,90,4|0,0:0|0:0,0:0:0:0:
252,208,48795,1,0,0:0:0:0:
288,108,49009,1,0,0:0:0:0:
320,4,49224,2,0,P|332:80|444:148,1,180,8|0,0:0|0:0,0:0:0:0:
412,36,49867,1,0,0:0:0:0:
412,36,50081,6,0,L|380:232,1,180
444,304,50724,1,0,0:0:0:0:
444,304,50938,2,0,L|348:288,1,90,8|0,0:0|0:0,0:0:0:0:
132,320,51367,2,0,L|220:334,1,90
424,184,51795,6,0,P|377:160|313:164,1,90
249,220,52224,2,0,P|295:243|359:239,1,90
408,324,52652,2,0,L|216:280,1,180,8|0,0:0|0:0,0:0:0:0:
112,184,53295,5,0,0:0:0:0:
112,184,53402,1,0,0:0:0:0:
112,184,53509,1,0,0:0:0:0:
176,96,53724,1,0,0:0:0:0:
148,276,53938,1,0,0:0:0:0:
272,128,54152,1,0,0:0:0:0:
272,128,54259,1,0,0:0:0:0:
272,128,54367,1,8,0:0:0:0:
428,60,54581,1,0,0:0:0:0:
392,172,54795,1,0,0:0:0:0:
388,184,54902,1,0,0:0:0:0:
384,196,55009,1,0,0:0:0:0:
384,208,55117,1,0,0:0:0:0:
384,220,55224,6,0,P|316:264|288:292,2,90
456,140,55867,1,0,0:0:0:0:
352,112,56081,2,0,P|284:156|184:248,1,180,8|0,0:0|0:0,0:0:0:0:
112,324,56724,6,0,L|76:236,1,90
192,160,57152,2,0,L|104:120,1,90
332,40,57581,2,0,L|204:28,1,90
376,156,58009,2,0,L|388:264,2,90
376,156,58652,6,0,P|300:152|204:236,1,180
112,196,59295,1,0,0:0:0:0:
180,280,59509,1,8,0:0:0:0:
272,224,59724,2,0,B|344:216|408:232|464:216,1,180
256,192,60367,12,0,61974,0:0:0:0:
104,124,62081,6,0,L|44:156,6,45,4|0|0|0|0|0|0,0:0|0:0|0:0|0:0|0:0|0:0|0:0,0:0:0:0:
136,116,62831,1,0,0:0:0:0:
168,112,62938,2,0,P|252:108|356:116,1,180,8|0,0:0|0:0,0:0:0:0:
436,200,63581,1,0,0:0:0:0:
368,312,63795,6,0,L|408:348,6,45
344,292,64545,1,0,0:0:0:0:
320,272,64652,2,0,P|260:236|148:220,1,180,8|0,0:0|0:0,0:0:0:0:
68,128,65295,1,0,0:0:0:0:
200,68,65509,6,0,L|164:32,6,45
220,92,66259,1,0,0:0:0:0:
244,116,66367,2,0,L|424:108,1,180,8|0,0:0|0:0,0:0:0:0:
412,216,67009,1,0,0:0:0:0:
300,256,67224,6,0,P|248:312|208:340,1,90,2|0,0:0|0:0,0:0:0:0:
180,316,67545,2,0,P|164:268|180:200,1,90,2|0,0:0|0:0,0:0:0:0:
120,196,67867,2,0,L|244:184,1,90,2|10,0:0|0:0,0:0:0:0:
444,168,68509,1,10,0:0:0:0:
428,284,68724,2,0,L|472:324,1,45
416,276,68938,5,0,0:0:0:0:
404,268,69045,1,0,0:0:0:0:
392,260,69152,1,0,0:0:0:0:
380,252,69259,1,0,0:0:0:0:
368,244,69367,1,0,0:0:0:0:
356,240,69474,1,0,0:0:0:0:
344,236,69581,1,0,0:0:0:0:
332,232,69688,1,0,0:0:0:0:
320,228,69795,2,0,P|240:224|136:252,1,180,8|0,0:0|0:0,0:0:0:0:
104,348,70438,1,0,0:0:0:0:
56,176,70652,5,0,0:0:0:0:
76,164,70759,1,0,0:0:0:0:
96,152,70867,1,0,0:0:0:0:
116,140,70974,1,0,0:0:0:0:
136,128,71081,1,0,0:0:0:0:
156,120,71188,1,0,0:0:0:0:
176,112,71295,1,0,0:0:0:0:
196,108,71402,1,0,0:0:0:0:
220,104,71509,2,0,L|404:92,1,180,8|0,0:0|0:0,0:0:0:0:
472,172,72152,1,0,0:0:0:0:
348,40,72367,5,0,0:0:0:0:
328,64,72474,1,0,0:0:0:0:
336,96,72581,1,0,0:0:0:0:
328,124,72688,1,0,0:0:0:0:
344,152,72795,1,0,0:0:0:0:
328,180,72902,1,0,0:0:0:0:
340,208,73009,1,0,0:0:0:0:
324,236,73117,1,0,0:0:0:0:
240,252,73224,2,0,P|304:316|400:268,1,180,8|0,0:0|0:0,0:0:0:0:
456,220,73867,5,0,0:0:0:0:
56,220,74081,1,0,0:0:0:0:
40,40,74509,5,6,0:0:0:0:
472,36,74938,1,6,0:0:0:0:
256,348,75367,1,6,0:0:0:0:
72,80,75795,6,0,L|100:116,1,45,4|0,0:0|0:0,0:0:0:0:
224,132,76009,2,0,L|196:168,1,45,4|0,0:0|0:0,0:0:0:0:
64,212,76224,2,0,L|92:248,1,45,4|0,0:0|0:0,0:0:0:0:
216,264,76438,2,0,L|188:300,1,45,4|0,0:0|0:0,0:0:0:0:
304,360,76652,2,0,P|336:316|308:164,1,180,8|0,0:0|0:0,0:0:0:0:
280,100,77295,1,0,0:0:0:0:
280,100,77509,6,0,L|252:156,1,45
340,224,77724,2,0,L|319:183,1,45
392,76,77938,2,0,L|364:132,1,45
452,200,78153,2,0,L|431:159,1,45
320,36,78367,2,0,P|268:24|208:128,1,180,8|0,0:0|0:0,0:0:0:0:
132,196,79009,1,0,0:0:0:0:
132,196,79224,6,0,L|204:216,1,45
204,296,79438,2,0,L|132:276,1,45
248,223,79652,2,0,L|292:236,1,45
324,328,79867,2,0,L|280:315,1,45
432,196,80081,2,0,L|252:144,1,180,8|0,0:0|0:0,0:0:0:0:
132,164,80724,1,0,0:0:0:0:
200,248,80938,6,0,P|264:268|312:300,1,90,2|0,0:0|0:0,0:0:0:0:
284,332,81259,2,0,L|400:272,1,90,2|0,0:0|0:0,0:0:0:0:
408,260,81581,2,0,L|392:128,1,90,2|10,0:0|0:0,0:0:0:0:
248,56,82009,1,0,0:0:0:0:
248,56,82224,2,0,L|237:145,1,90,10|0,0:0|0:0,0:0:0:0:
200,224,82652,5,0,0:0:0:0:
324,336,82867,1,0,0:0:0:0:
428,208,83081,1,0,0:0:0:0:
312,108,83295,1,0,0:0:0:0:
224,300,83509,5,8,0:0:0:0:
412,288,83724,1,0,0:0:0:0:
404,124,83938,1,0,0:0:0:0:
216,128,84152,1,0,0:0:0:0:
136,52,84367,6,0,P|96:112|96:168,1,90
96,264,84795,2,0,P|160:236|200:236,1,90
316,240,85224,2,0,P|384:248|444:172,1,135,8|0,0:0|0:0,0:0:0:0:
496,180,85652,2,0,P|428:160|404:124,1,90
320,52,86081,6,0,P|272:76|224:112,1,90
112,64,86509,2,0,P|76:100|32:116,1,90
112,64,86938,2,0,P|132:120|136:264,1,180,8|0,0:0|0:0,0:0:0:0:
60,348,87581,5,0,0:0:0:0:
60,348,87688,1,0,0:0:0:0:
60,348,87795,1,0,0:0:0:0:
180,288,88009,1,0,0:0:0:0:
312,316,88224,1,0,0:0:0:0:
400,216,88438,1,0,0:0:0:0:
256,192,88652,12,0,89402,0:0:0:0:
256,192,89509,12,0,92724,0:0:0:0:
256,360,92938,6,0,B|260:356|260:356|256:352|256:352|260:348|260:348|256:344|256:344|260:340|260:340|256:336|256:336|260:332|260:332|256:328|256:328|260:324|260:324|256:320|256:320|260:316|260:316|256:312|256:312|260:308|260:308|256:304|256:304|260:300|260:300|256:296|256:296|260:292|260:292|256:288|256:288|260:284|260:284|256:280|256:280|260:276|260:276|256:272|256:272|260:268|260:268|256:264|256:264|260:260|260:260|256:256|256:256|260:252|260:252|256:248|256:248|260:244|260:244|256:240|256:240|260:236|260:236|256:232|256:232|260:228|260:228|256:224|256:224|260:220|260:220|256:216|256:216|260:212|260:212|256:208|256:208|260:204|260:204|256:200|256:200|260:196|260:196|256:192|256:192|260:188|260:188|256:184|256:184|260:180|260:180|256:176|256:176|260:172|260:172|256:168|256:168|260:164|260:164|256:160|256:160|260:156|260:156|256:152|256:152|260:148|260:148|256:144|256:144|260:140|260:140|256:136|256:136|260:132|260:132|256:128,1,315
257,123,94545,1,0,0:0:0:0:
257,109,94652,1,0,0:0:0:0:
128,54,94867,5,8,0:0:0:0:
389,158,95081,1,0,0:0:0:0:
157,246,95295,1,8,0:0:0:0:
344,346,95509,2,0,P|389:316|445:197,1,180,10|8,0:0|0:0,0:0:0:0:
425,90,96152,1,0,0:0:0:0:
319,38,96367,5,2,0:0:0:0:
224,108,96581,1,0,0:0:0:0:
224,108,96688,1,0,0:0:0:0:
224,108,96795,1,2,0:0:0:0:
112,76,97009,1,0,0:0:0:0:
112,76,97117,1,0,0:0:0:0:
112,76,97224,2,0,P|88:132|88:188,1,90,10|0,0:0|0:0,0:0:0:0:
100,192,97545,1,0,0:0:0:0:
112,228,97652,2,0,P|128:296|112:344,1,90,2|0,0:0|0:0,0:0:0:0:
72,308,97974,1,0,0:0:0:0:
112,344,98081,6,0,P|176:304|192:216,2,135,2|0|0,0:0|0:0|0:0,0:0:0:0:
400,344,98938,2,0,P|336:304|320:216,2,135,10|0|0,0:0|0:0|0:0,0:0:0:0:
432,328,99688,1,0,0:0:0:0:
460,308,99795,6,0,L|512:348,3,45
420,224,100224,2,0,L|440:272,3,45
432,140,100652,2,0,L|416:200,3,45,8|0|0|0,0:0|0:0|0:0|0:0,0:0:0:0:
412,88,101081,1,0,0:0:0:0:
412,88,101295,1,0,0:0:0:0:
292,44,101509,5,0,0:0:0:0:
212,244,101724,1,0,0:0:0:0:
208,40,101938,5,0,0:0:0:0:
304,244,102152,1,0,0:0:0:0:
144,100,102367,5,8,0:0:0:0:
144,100,102795,1,0,0:0:0:0:
144,100,103009,1,0,0:0:0:0:
380,112,103224,5,0,0:0:0:0:
140,184,103438,1,0,0:0:0:0:
328,48,103652,5,0,0:0:0:0:
192,252,103867,1,0,0:0:0:0:
256,40,104081,5,8,0:0:0:0:
256,40,104509,1,0,0:0:0:0:
256,40,104724,1,0,0:0:0:0:
256,40,104938,6,0,L|256:224,1,180
176,292,105581,1,0,0:0:0:0:
176,292,105795,2,0,P|264:256|348:320,1,180,8|0,0:0|0:0,0:0:0:0:
424,164,106438,5,0,0:0:0:0:
424,164,106545,1,0,0:0:0:0:
424,164,106652,2,0,P|376:128|320:104,1,90,4|0,0:0|0:0,0:0:0:0:
162,114,107081,2,0,P|123:135|88:164,1,90
72,288,107509,2,0,B|120:288|180:320|180:320|188:264|212:220,1,180,8|0,0:0|0:0,0:0:0:0:
316,255,108152,6,0,B|324:264|332:320|332:320|392:288|440:288,1,180
428,160,108795,1,0,0:0:0:0:
336,72,109009,1,0,0:0:0:0:
208,200,109224,1,8,0:0:0:0:
120,44,109438,1,0,0:0:0:0:
72,216,109652,1,0,0:0:0:0:
240,40,109867,1,0,0:0:0:0:
416,56,110081,6,0,P|404:108|280:132,1,180
180,88,110724,1,0,0:0:0:0:
68,148,110938,2,0,P|72:212|160:320,1,180,8|0,0:0|0:0,0:0:0:0:
12,336,111581,6,0,L|224:284,1,180
500,336,112224,2,0,L|396:308,1,90
296,268,112652,1,8,0:0:0:0:
384,100,112867,1,0,0:0:0:0:
396,268,113081,1,0,0:0:0:0:
292,96,113295,5,0,0:0:0:0:
292,96,113402,1,0,0:0:0:0:
292,96,113509,2,0,L|188:120,2,90
408,44,114152,2,0,L|444:48,2,30
408,44,114367,2,0,P|400:96|420:224,1,180,8|0,0:0|0:0,0:0:0:0:
328,308,115009,1,0,0:0:0:0:
328,308,115224,2,0,P|256:288|152:304,1,180
32,336,115867,1,0,0:0:0:0:
76,216,116081,6,0,L|48:152,2,60,8|0|0,0:0|0:0|0:0,0:0:0:0:
160,212,116509,2,0,L|192:116,1,90
296,64,116938,5,0,0:0:0:0:
420,60,117152,1,0,0:0:0:0:
488,168,117367,1,0,0:0:0:0:
488,168,117795,5,8,0:0:0:0:
420,60,118009,1,0,0:0:0:0:
296,64,118224,1,0,0:0:0:0:
296,64,118652,6,0,P|216:68|176:96,1,90
144,180,119081,2,0,P|224:176|264:148,1,90
404,236,119509,2,0,P|324:240|284:268,2,90,8|0|0,0:0|0:0|0:0,0:0:0:0:
248,328,120152,5,0,0:0:0:0:
248,328,120259,1,0,0:0:0:0:
248,328,120367,1,4,0:0:0:0:
136,272,120581,1,0,0:0:0:0:
184,156,120795,1,0,0:0:0:0:
120,48,121009,1,0,0:0:0:0:
256,224,121224,2,0,P|272:180|197:62,1,180,8|0,0:0|0:0,0:0:0:0:
108,128,121867,5,0,0:0:0:0:
108,128,122081,2,0,L|72:216,1,90
144,316,122509,2,0,L|232:352,1,90
336,248,122938,2,0,L|252:213,1,90,8|0,0:0|0:0,0:0:0:0:
196,44,123367,1,0,0:0:0:0:
148,156,123581,1,0,0:0:0:0:
196,44,123795,6,0,P|252:52|292:92,1,90
438,203,124224,2,0,P|394:194|356:172,1,90
198,114,124652,2,0,P|286:116|355:171,1,180,8|0,0:0|0:0,0:0:0:0:
103,54,125295,5,0,0:0:0:0:
103,54,125403,1,0,0:0:0:0:
103,54,125510,1,0,0:0:0:0:
200,147,125724,1,0,0:0:0:0:
130,262,125938,1,0,0:0:0:0:
245,331,126152,1,0,0:0:0:0:
245,331,126259,1,0,0:0:0:0:
245,331,126367,1,8,0:0:0:0:
130,262,126581,1,0,0:0:0:0:
245,331,126795,5,0,0:0:0:0:
268,316,126902,1,0,0:0:0:0:
288,300,127009,1,0,0:0:0:0:
304,280,127117,1,0,0:0:0:0:
316,256,127224,2,0,P|332:200|320:144,1,90
217,57,127652,2,0,P|201:113|213:169,1,90
344,356,128081,2,0,P|384:300|402:153,1,180,8|0,0:0|0:0,0:0:0:0:
309,39,128724,5,0,0:0:0:0:
309,39,128938,2,0,L|238:226,1,180
114,241,129581,1,0,0:0:0:0:
299,358,129795,1,8,0:0:0:0:
68,337,130009,1,0,0:0:0:0:
322,258,130224,1,0,0:0:0:0:
68,337,130438,5,0,0:0:0:0:
68,337,130652,2,0,P|40:269|57:156,1,180
141,63,131295,1,0,0:0:0:0:
454,91,131509,2,0,L|275:74,1,180,8|0,0:0|0:0,0:0:0:0:
170,159,132152,1,0,0:0:0:0:
128,287,132367,5,0,0:0:0:0:
128,287,132581,2,0,P|192:279|245:255,1,90
384,287,133224,1,8,0:0:0:0:
384,287,133438,2,0,P|320:279|267:255,1,90
202,60,134081,5,0,0:0:0:0:
334,43,134295,1,0,0:0:0:0:
230,98,134509,1,0,0:0:0:0:
362,81,134724,1,0,0:0:0:0:
260,136,134938,2,0,B|318:201|318:201|429:231,1,180,8|0,0:0|0:0,0:0:0:0:
444,328,135581,1,0,0:0:0:0:
444,328,135795,6,0,L|340:306,1,90
167,313,136224,2,0,L|255:331,1,90
510,248,136652,2,0,L|406:226,1,90,8|0,0:0|0:0,0:0:0:0:
231,241,137081,2,0,L|319:259,1,90
440,336,137509,5,0,0:0:0:0:
440,192,137724,1,0,0:0:0:0:
344,300,137938,1,0,0:0:0:0:
488,140,138153,1,0,0:0:0:0:
320,106,138367,2,0,P|398:148|487:141,1,180,8|0,0:0|0:0,0:0:0:0:
192,176,139009,6,0,L|152:216,2,45
296,252,139438,1,0,0:0:0:0:
416,212,139652,1,0,0:0:0:0:
440,88,139867,1,0,0:0:0:0:
316,72,140081,2,0,P|232:52|212:56,1,90,8|0,0:0|0:0,0:0:0:0:
68,112,140509,2,0,P|152:132|172:128,1,90
180,124,140831,1,0,0:0:0:0:
204,116,140938,6,0,P|256:108|328:136,1,90
412,152,141367,1,0,0:0:0:0:
352,40,141581,1,0,0:0:0:0:
412,152,141795,2,0,P|388:204|404:328,1,180,8|0,0:0|0:0,0:0:0:0:
100,152,142438,5,0,0:0:0:0:
100,152,142652,2,0,P|124:204|108:328,1,180
280,136,143295,1,0,0:0:0:0:
416,172,143509,1,8,0:0:0:0:
388,312,143724,1,0,0:0:0:0:
248,288,143938,1,0,0:0:0:0:
192,76,144152,5,0,0:0:0:0:
192,76,144367,2,0,L|284:44,1,90
312,184,144795,2,0,L|412:204,2,90,0|0|8,0:0|0:0|0:0,0:0:0:0:
150,215,145438,2,0,P|237:230|312:184,1,180
376,56,146081,5,0,0:0:0:0:
440,120,146295,1,0,0:0:0:0:
444,208,146509,1,0,0:0:0:0:
136,56,146938,5,8,0:0:0:0:
72,120,147152,1,0,0:0:0:0:
68,208,147366,1,0,0:0:0:0:
256,336,147581,5,0,0:0:0:0:
256,336,147688,1,0,0:0:0:0:
256,336,147795,2,0,L|256:172,1,157.5
176,52,148652,6,0,L|72:52,2,60
336,152,149081,2,0,L|440:152,2,60
176,232,149509,2,0,L|72:232,2,60
336,332,149938,2,0,L|440:332,2,60
256,192,150367,5,8,0:0:0:0:
256,192,151224,6,0,P|172:224|100:272,1,150,6|0,0:0|0:0,0:0:0:0:
224,320,151652,2,0,P|324:328|392:352,1,150,0|0,0:0|0:0,0:0:0:0:
436,240,152081,2,0,P|400:164|392:88,1,150,2|0,0:0|0:0,0:0:0:0:
272,88,152509,2,0,L|96:52,1,150
128,180,152938,5,2,0:0:0:0:
92,296,153081,1,0,0:0:0:0:
208,260,153224,1,0,0:0:0:0:
148,130,153367,5,0,0:0:0:0:
144,252,153510,1,0,0:0:0:0:
246,187,153653,1,0,0:0:0:0:
160,85,153795,5,2,0:0:0:0:
188,204,153938,1,0,0:0:0:0:
269,114,154081,1,0,0:0:0:0:
376,56,154224,2,0,P|432:120|444:216,1,150
412,280,154652,6,2,L|240:316,1,150
172,292,155509,5,2,0:0:0:0:
208,200,155652,1,0,0:0:0:0:
112,216,155795,1,0,0:0:0:0:
256,248,155938,5,0,0:0:0:0:
359,188,156081,1,0,0:0:0:0:
256,128,156224,1,0,0:0:0:0:
112,40,156367,5,2,0:0:0:0:
8,100,156509,1,0,0:0:0:0:
111,160,156652,1,0,0:0:0:0:
400,40,156795,5,0,0:0:0:0:
504,100,156937,1,0,0:0:0:0:
401,160,157080,1,0,0:0:0:0:
256,52,157224,6,2,B|244:48|244:48|248:68|248:68|224:60|224:60|216:112|184:96|176:168,1,150
204,232,158081,6,0,P|268:280|372:304,1,150,2|0,0:0|0:0,0:0:0:0:
468,188,158509,2,0,P|404:140|300:116,1,150
196,44,158938,2,0,P|152:112|76:184,1,150,2|0,0:0|0:0,0:0:0:0:
52,296,159367,2,0,P|156:300|256:320,1,150
320,296,159795,5,2,0:0:0:0:
432,252,159938,1,0,0:0:0:0:
392,140,160081,1,0,0:0:0:0:
276,176,160224,1,0,0:0:0:0:
192,296,160652,5,2,0:0:0:0:
80,252,160795,1,0,0:0:0:0:
120,140,160938,1,0,0:0:0:0:
236,176,161081,1,0,0:0:0:0:
396,64,161509,6,0,L|460:56,1,37.5
392,140,161652,2,0,L|448:152,1,37.5
368,216,161795,2,0,L|396:244,1,37.5
304,272,161938,1,0,0:0:0:0:
116,64,162367,6,0,L|52:56,1,37.5
120,140,162510,2,0,L|64:152,1,37.5
144,216,162653,2,0,L|116:244,1,37.5
208,272,162796,1,0,0:0:0:0:
256,68,163224,5,0,0:0:0:0:
168,208,163367,1,0,0:0:0:0:
344,208,163509,1,0,0:0:0:0:
156,108,163652,5,0,0:0:0:0:
252,252,163795,1,0,0:0:0:0:
356,108,163938,1,0,0:0:0:0:
256,192,164081,12,4,164938,0:0:0:0:
