osu file format v12

[General]
AudioFilename: MAXSTEP - PYL Younique Album Vol1.mp3
AudioLeadIn: 0
PreviewTime: 44938
Countdown: 0
SampleSet: Normal
StackLeniency: 0.7
Mode: 0
LetterboxInBreaks: 0
WidescreenStoryboard: 0

[Editor]
Bookmarks: 203509
DistanceSpacing: 1.1
BeatDivisor: 4
GridSize: 4

[Metadata]
Title:MAXSTEP
TitleUnicode:MAXSTEP
Artist:YOUNIQUE UNIT
ArtistUnicode:유니크 유닛
Creator:AlpacaCokelat
Version:HD
Source:
Tags:PYL K-POP SM Entertainment Eunhyuk Hyoyeon Taemin Henry Kai Luhan KPOP Harez
BeatmapID:216725
BeatmapSetID:77115

[Difficulty]
HPDrainRate:5
CircleSize:4
OverallDifficulty:6
ApproachRate:8
SliderMultiplier:1.5
SliderTickRate:2

[Events]
//Background and Video events
0,0,"bg.jpg",0,0
Video,-320,"YOUNIQUE UNIT_MAXSTEP_Music Video.avi"
//Break Periods
2,165138,177902
//Storyboard Layer 0 (Background)
//Storyboard Layer 1 (Fail)
//Storyboard Layer 2 (Pass)
//Storyboard Layer 3 (Foreground)
//Storyboard Sound Samples
//Background Colour Transformations
3,100,163,162,255

[TimingPoints]
367,428.571428571429,4,1,1,60,1,0
48367,-100,4,1,1,70,0,1
60367,-100,4,1,1,60,0,0
120367,-100,4,1,1,70,0,1
134081,-100,4,1,1,70,0,0
151224,-100,4,1,1,70,0,1
151438,-100,4,1,1,70,0,0
178652,-100,4,1,1,60,0,0
184224,-100,4,1,1,65,0,0
188938,-80,4,1,1,70,0,1
200938,-80,4,1,1,70,0,0
202652,-80,4,1,1,70,0,1
216367,-80,4,1,1,70,0,0

[Colours]
Combo1 : 97,97,97
Combo2 : 255,0,0
Combo3 : 34,95,168
Combo4 : 196,196,0

[HitObjects]
256,192,3795,12,8,6367,0:0:0:0:
112,72,7224,6,0,L|164:128,1,75
232,96,7652,2,0,P|224:184|148:204,1,150,0|8,0:0|0:0,0:0:0:0:
100,196,8295,1,0,0:0:0:0:
44,244,8509,1,0,0:0:0:0:
96,296,8724,6,0,P|136:308|260:284,1,150
200,232,9367,2,0,P|248:276|340:296,1,150,0|10,0:0|0:0,0:0:0:0:
376,276,9938,6,0,L|432:248,2,50
376,276,10438,1,0,0:0:0:0:
336,212,10652,6,0,L|424:168,1,75
448,120,11081,1,0,0:0:0:0:
312,56,11509,2,0,L|244:89,1,75
172,100,11938,1,0,0:0:0:0:
108,140,12152,1,0,0:0:0:0:
160,192,12367,6,0,B|176:176|176:176|192:196|192:196|208:172|208:172|224:196|224:196|240:176|240:176|260:200,1,150,0|0,0:0|0:0,0:0:0:0:
252,340,13224,2,0,B|236:356|236:356|220:336|220:336|204:360|204:360|188:336|188:336|172:356|172:356|152:332,1,150,10|2,0:0|0:0,0:0:0:0:
100,180,14081,5,0,0:0:0:0:
100,180,14295,1,0,0:0:0:0:
100,180,14509,1,0,0:0:0:0:
232,108,14938,2,0,L|320:88,2,75,8|0|0,0:0|0:0|0:0,0:0:0:0:
232,108,15581,2,0,P|264:172|212:224,1,150
140,220,16224,2,0,P|92:169|124:105,1,150,0|8,0:0|0:0,0:0:0:0:
256,192,17081,5,0,0:0:0:0:
256,192,17295,1,0,0:0:0:0:
256,192,17509,12,0,20509,0:0:0:0:
80,336,20724,5,0,0:0:0:0:
80,336,20831,1,0,0:0:0:0:
80,336,20938,2,0,B|80:290|80:290|116:258|116:258|116:202,1,150
256,140,21795,2,0,B|312:140|312:140|344:176|344:176|392:176,1,150,8|0,0:0|0:0,0:0:0:0:
268,264,22652,6,0,B|222:264|222:264|190:300|190:300|134:300,2,150,0|0|8,0:0|0:0|0:0,0:0:0:0:
288,192,23724,2,0,L|308:116,2,75
268,264,24367,6,0,B|300:296|356:252|356:252|432:252,1,150
268,180,25224,2,0,B|236:148|180:192|180:192|104:192,1,150,8|0,0:0|0:0,0:0:0:0:
268,264,26081,2,0,B|328:244|368:288|444:252,2,150,0|0|8,0:0|0:0|0:0,0:0:0:0:
252,336,27152,2,0,P|216:316|200:268,2,75
352,308,27795,5,0,0:0:0:0:
476,220,28224,1,0,0:0:0:0:
356,132,28652,1,8,0:0:0:0:
468,48,29081,1,0,0:0:0:0:
468,48,29295,1,0,0:0:0:0:
468,48,29509,6,2,B|444:68|444:68|480:80|480:80|444:92|444:92|480:108|480:108|444:124|444:124|480:140|480:140|446:156|446:156|448:204,1,300,0|8,0:0|0:0,0:0:0:0:
448,344,30795,1,0,0:0:0:0:
256,192,31224,12,8,33795,0:0:0:0:
76,108,34438,5,0,0:0:0:0:
76,108,34545,1,0,0:0:0:0:
76,108,34652,2,0,P|112:172|200:192,1,150,4|0,0:0|0:0,0:0:0:0:
256,190,35295,1,0,0:0:0:0:
436,108,35509,2,0,P|400:172|312:192,1,150,8|0,0:0|0:0,0:0:0:0:
256,190,36152,1,0,0:0:0:0:
256,190,36367,6,0,L|256:272,1,75
257,190,36795,2,0,L|257:108,1,75,0|0,0:0|0:0,0:0:0:0:
164,112,37224,1,8,0:0:0:0:
216,40,37438,1,0,0:0:0:0:
292,40,37652,1,0,0:0:0:0:
344,112,37866,1,0,0:0:0:0:
420,112,38081,6,0,P|400:168|300:172,1,150
256,144,38724,1,0,0:0:0:0:
92,112,38938,2,0,P|112:168|212:172,1,150,8|0,0:0|0:0,0:0:0:0:
256,144,39581,1,0,0:0:0:0:
308,88,39795,6,0,L|392:64,1,75
380,67,40224,2,0,L|408:144,1,75
488,188,40652,1,8,0:0:0:0:
504,284,40867,1,0,0:0:0:0:
412,308,41081,1,0,0:0:0:0:
388,212,41295,1,0,0:0:0:0:
384,136,41509,6,0,P|340:148|320:248,1,150
260,288,42152,1,0,0:0:0:0:
308,80,42367,2,0,P|260:112|228:196,1,150,8|0,0:0|0:0,0:0:0:0:
172,244,43009,1,0,0:0:0:0:
116,192,43224,5,0,0:0:0:0:
116,116,43438,1,0,0:0:0:0:
156,52,43652,1,0,0:0:0:0:
228,32,43867,1,0,0:0:0:0:
300,44,44081,6,0,L|392:68,2,50,8|0|0,0:0|0:0|0:0,0:0:0:0:
300,44,44509,2,0,L|248:136,1,75
308,216,44938,6,0,L|348:136,2,75
328,236,45795,2,0,L|368:160,2,75,8|0|0,0:0|0:0|0:0,0:0:0:0:
172,284,46652,2,0,L|96:252,1,75
134,186,47081,2,0,B|210:218,1,75
237,148,47509,2,0,L|161:116,2,75,8|0|0,0:0|0:0|0:0,0:0:0:0:
324,196,48152,5,0,0:0:0:0:
324,196,48259,1,0,0:0:0:0:
324,196,48367,2,0,L|393:225,1,75
438,302,48795,1,0,0:0:0:0:
364,353,49009,1,0,0:0:0:0:
288,303,49224,2,0,P|250:273|136:264,1,150,8|0,0:0|0:0,0:0:0:0:
79,314,49867,1,0,0:0:0:0:
45,230,50081,6,0,L|39:143,1,75
42,65,50509,2,0,P|91:77|124:120,1,75
199,92,50938,2,0,P|229:70|265:64,1,75,8|0,0:0|0:0,0:0:0:0:
348,101,51367,1,0,0:0:0:0:
420,154,51581,1,0,0:0:0:0:
444,240,51795,6,0,L|268:297,1,150
223,332,52438,1,0,0:0:0:0:
138,363,52652,2,0,P|136:315|214:248,1,150,8|0,0:0|0:0,0:0:0:0:
285,207,53295,6,0,L|331:183,2,37.5
206,162,53724,2,0,L|155:95,2,75
206,252,54367,2,0,P|236:286|287:300,1,75,8|0,0:0|0:0,0:0:0:0:
351,307,54795,6,0,L|382:351,3,37.5
416,350,55224,1,0,0:0:0:0:
477,284,55438,1,0,0:0:0:0:
433,205,55652,1,0,0:0:0:0:
476,125,55867,1,0,0:0:0:0:
424,51,56081,2,0,P|365:78|330:226,1,225,8|0,0:0|0:0,0:0:0:0:
415,247,56938,6,0,P|403:194|259:124,1,225
175,149,57795,1,8,0:0:0:0:
112,213,58009,2,0,L|70:289,2,75
256,192,58652,12,4,60367,0:0:0:0:
256,80,62081,5,4,0:0:0:0:
256,304,62724,1,0,0:0:0:0:
256,304,62938,1,8,0:0:0:0:
412,136,63581,2,0,L|452:60,1,75,0|4,0:0|0:0,0:0:0:0:
447,70,64438,1,0,0:0:0:0:
447,70,64652,1,8,0:0:0:0:
100,136,65295,6,0,L|60:60,1,75,0|4,0:0|0:0,0:0:0:0:
65,69,66152,1,0,0:0:0:0:
65,69,66367,1,8,0:0:0:0:
64,292,67009,1,0,0:0:0:0:
64,292,67224,2,0,B|102:264|137:331|191:310,2,112.5
64,292,68081,1,0,0:0:0:0:
287,313,68509,1,8,0:0:0:0:
384,224,68724,1,0,0:0:0:0:
384,224,68831,1,0,0:0:0:0:
384,224,68938,6,0,B|320:164|240:276|140:204,1,225,4|0,0:0|0:0,0:0:0:0:
167,219,69795,1,8,0:0:0:0:
8,60,70438,1,0,0:0:0:0:
8,60,70652,2,0,B|72:120|152:8|252:80,1,225,4|0,0:0|0:0,0:0:0:0:
224,64,71509,1,8,0:0:0:0:
472,340,72152,5,0,0:0:0:0:
472,340,72367,2,0,B|424:292|424:292|388:340|352:292|352:292|284:352,1,225,4|0,0:0|0:0,0:0:0:0:
301,336,73224,1,8,0:0:0:0:
112,192,73867,1,0,0:0:0:0:
112,192,74081,1,0,0:0:0:0:
388,64,74509,5,6,0:0:0:0:
388,316,74938,1,6,0:0:0:0:
112,192,75367,1,6,0:0:0:0:
112,192,75795,6,0,B|160:240|160:240|196:192|232:240|232:240|300:180,1,225
404,104,76652,1,0,0:0:0:0:
404,104,77295,1,0,0:0:0:0:
404,104,77509,2,0,B|340:184|428:232|348:320,1,225
200,316,78367,1,8,0:0:0:0:
200,316,79009,1,0,0:0:0:0:
200,316,79224,6,0,B|136:236|224:188|144:92,1,225
312,92,80081,1,8,0:0:0:0:
312,92,80509,1,0,0:0:0:0:
312,92,80724,1,0,0:0:0:0:
312,92,80938,6,0,L|404:108,1,75
386,180,81367,2,0,L|312:167,1,75
312,92,81795,1,8,0:0:0:0:
248,132,82009,1,0,0:0:0:0:
176,112,82224,1,8,0:0:0:0:
124,168,82438,1,0,0:0:0:0:
124,168,82652,6,0,P|100:224|108:312,1,150,4|0,0:0|0:0,0:0:0:0:
184,312,83295,1,0,0:0:0:0:
260,312,83509,2,0,P|268:224|244:168,1,150,8|0,0:0|0:0,0:0:0:0:
220,100,84152,1,0,0:0:0:0:
144,104,84367,6,0,L|65:116,1,75
63,193,84795,2,0,L|158:222,1,75
208,232,85224,1,8,0:0:0:0:
244,168,85438,1,0,0:0:0:0:
284,232,85652,1,0,0:0:0:0:
320,168,85867,1,0,0:0:0:0:
396,176,86081,6,0,B|388:256|388:256|324:296,2,150,0|0|8,0:0|0:0|0:0,0:0:0:0:
396,176,87367,1,0,0:0:0:0:
336,128,87581,2,0,L|284:156,2,37.5
100,200,88224,5,4,0:0:0:0:
260,360,88652,1,4,0:0:0:0:
416,200,89081,1,4,0:0:0:0:
256,192,89509,12,0,92081,0:0:0:0:
36,204,92938,6,0,B|64:192|64:192|72:204|72:204|80:192|80:192|88:204|88:204|92:192|92:192|100:204|100:204|108:192|108:192|116:204|116:204|124:192|124:192|132:204|132:204|140:192|140:192|148:204|148:204|156:192|156:192|164:204|164:204|172:192|172:192|180:204|180:204|188:192|188:192|196:204|196:204|204:192|204:192|212:204|212:204|224:192|224:192|232:204|232:204|244:192|244:192|252:204|252:204|260:192|260:192|268:204|268:204|276:192|276:192|284:204|284:204|292:192|292:192|300:204|300:204|308:192|308:192|316:204|316:204|324:192|324:192|332:204|332:204|340:192|340:192|348:204|348:204|356:192|356:192,1,525
352,192,94545,1,0,0:0:0:0:
364,192,94652,1,0,0:0:0:0:
331,60,95081,2,0,L|167:64,1,150
255,196,95938,1,0,0:0:0:0:
255,272,96152,1,0,0:0:0:0:
223,340,96367,6,0,P|163:336|79:296,1,150
291,340,97224,2,0,P|351:336|435:296,1,150,8|0,0:0|0:0,0:0:0:0:
123,236,98081,2,0,P|203:192|215:128,1,150
387,236,98938,2,0,P|307:192|292:133,1,150,8|0,0:0|0:0,0:0:0:0:
332,76,99581,5,0,0:0:0:0:
332,76,99688,1,0,0:0:0:0:
332,76,99795,2,0,L|384:84,3,37.5
404,100,100224,2,0,L|440:128,3,37.5
444,160,100652,2,0,L|464:220,3,37.5,8|0|0|0,0:0|0:0|0:0|0:0,0:0:0:0:
432,224,101081,2,0,L|356:272,1,75
300,232,101509,5,0,0:0:0:0:
180,180,101724,1,0,0:0:0:0:
220,248,101938,1,0,0:0:0:0:
300,156,102152,1,0,0:0:0:0:
232,128,102367,1,8,0:0:0:0:
88,168,102795,1,0,0:0:0:0:
88,168,103009,1,0,0:0:0:0:
168,64,103224,5,0,0:0:0:0:
84,176,103438,1,0,0:0:0:0:
180,56,103652,1,0,0:0:0:0:
76,184,103867,1,0,0:0:0:0:
192,48,104081,1,8,0:0:0:0:
256,292,104509,6,0,P|308:320|400:276,1,150
388,140,105367,2,0,P|306:111|254:139,2,150,0|8|0,0:0|0:0|0:0,0:0:0:0:
320,220,106438,1,0,0:0:0:0:
320,220,106545,1,0,0:0:0:0:
320,220,106652,6,0,L|152:220,1,150,4|0,0:0|0:0,0:0:0:0:
104,180,107295,1,0,0:0:0:0:
44,136,107509,2,0,P|112:104|172:140,1,150,8|0,0:0|0:0,0:0:0:0:
104,180,108152,1,0,0:0:0:0:
68,244,108367,2,0,B|128:272|176:216|176:216|280:216,1,225
396,220,109224,1,8,0:0:0:0:
396,220,109652,1,0,0:0:0:0:
352,94,110081,6,0,P|291:63|201:88,1,150
272,148,110724,1,0,0:0:0:0:
336,216,110938,2,0,P|258:231|197:200,1,150,8|0,0:0|0:0,0:0:0:0:
112,120,111581,1,0,0:0:0:0:
116,236,111795,2,0,P|168:283|266:306,2,150,0|0|8,0:0|0:0|0:0,0:0:0:0:
112,120,113081,1,0,0:0:0:0:
316,74,113509,5,0,0:0:0:0:
384,163,113724,1,0,0:0:0:0:
368,172,113831,1,0,0:0:0:0:
351,181,113938,1,0,0:0:0:0:
255,239,114152,1,0,0:0:0:0:
198,140,114367,2,0,P|171:185|165:233,1,75,8|0,0:0|0:0,0:0:0:0:
38,224,114795,2,0,P|83:251|104:256,1,75
199,317,115224,6,0,L|298:321,1,75
356,243,115652,2,0,L|263:241,1,75
196,166,116081,6,0,P|224:168|256:152,2,50,8|0|0,0:0|0:0|0:0,0:0:0:0:
112,148,116509,2,0,P|96:204|96:252,1,75
184,305,116938,6,0,P|242:328|288:320,1,75
253,327,117367,1,0,0:0:0:0:
402,307,117795,2,0,P|344:330|298:322,1,75,8|0,0:0|0:0,0:0:0:0:
332,329,118224,1,0,0:0:0:0:
342,180,118652,2,0,L|346:87,1,75
256,194,119081,2,0,L|211:124,1,75
208,263,119509,2,0,L|125:273,2,75,8|0|0,0:0|0:0|0:0,0:0:0:0:
331,229,120152,5,0,0:0:0:0:
331,229,120259,1,0,0:0:0:0:
331,229,120367,2,0,L|420:192,1,75,4|0,0:0|0:0,0:0:0:0:
456,132,120795,1,0,0:0:0:0:
406,56,121009,1,0,0:0:0:0:
320,16,121224,2,0,P|380:136|471:123,1,225,8|0,0:0|0:0,0:0:0:0:
406,56,122081,6,0,L|243:222,1,225
177,159,122938,2,0,L|81:177,1,75,8|0,0:0|0:0,0:0:0:0:
314,275,123367,2,0,L|297:349,1,75
314,275,123795,6,0,P|330:236|425:164,1,150
487,216,124438,1,0,0:0:0:0:
485,126,124652,2,0,P|424:95|327:139,1,150,8|0,0:0|0:0,0:0:0:0:
262,143,125295,6,0,L|193:150,2,37.5
321,210,125724,1,0,0:0:0:0:
375,281,125938,1,0,0:0:0:0:
314,347,126152,1,0,0:0:0:0:
227,320,126367,2,0,L|147:305,2,75,8|0|0,0:0|0:0|0:0,0:0:0:0:
240,232,127009,5,0,0:0:0:0:
240,232,127117,1,0,0:0:0:0:
240,232,127224,1,0,0:0:0:0:
168,180,127438,1,0,0:0:0:0:
244,132,127652,1,0,0:0:0:0:
320,184,127867,1,0,0:0:0:0:
328,272,128081,2,0,B|404:264|408:160|408:160|476:116,1,225,8|0,0:0|0:0,0:0:0:0:
416,48,128938,5,0,0:0:0:0:
328,60,129152,2,0,L|240:116,1,75
184,56,129581,2,0,L|96:112,1,75,0|8,0:0|0:0,0:0:0:0:
160,176,130009,2,0,L|72:232,2,75
160,176,130652,6,0,L|260:176,1,75
320,200,131081,1,0,0:0:0:0:
408,176,131295,1,0,0:0:0:0:
340,288,131509,2,0,P|401:248|408:176,1,150,8|0,0:0|0:0,0:0:0:0:
368,96,132152,1,0,0:0:0:0:
300,36,132367,5,0,0:0:0:0:
300,36,132581,2,0,L|208:48,1,75
140,204,133224,1,8,0:0:0:0:
140,204,133438,2,0,L|232:192,1,75
416,70,134081,5,4,0:0:0:0:
365,144,134295,1,0,0:0:0:0:
406,223,134509,1,0,0:0:0:0:
365,144,134724,1,0,0:0:0:0:
365,144,134938,2,0,L|192:144,1,150,8|0,0:0|0:0,0:0:0:0:
156,76,135581,5,0,0:0:0:0:
156,76,135795,2,0,P|176:128|140:216,1,150
60,248,136438,1,0,0:0:0:0:
60,248,136652,2,0,P|92:288|192:276,1,150,8|0,0:0|0:0,0:0:0:0:
236,212,137295,2,0,P|276:200|320:208,1,75
376,264,137724,5,0,0:0:0:0:
452,220,137938,1,0,0:0:0:0:
432,132,138152,1,0,0:0:0:0:
464,48,138367,2,0,P|400:48|344:140,1,150,8|0,0:0|0:0,0:0:0:0:
260,132,139009,1,0,0:0:0:0:
172,108,139224,2,0,P|126:50|54:46,1,150
88,132,139867,6,0,L|48:184,2,37.5,0|0|8,0:0|0:0|0:0,0:0:0:0:
144,204,140295,1,0,0:0:0:0:
108,288,140509,1,0,0:0:0:0:
180,344,140724,5,0,0:0:0:0:
180,344,140831,1,0,0:0:0:0:
180,344,140938,2,0,L|268:308,1,75
304,176,141367,2,0,L|300:264,1,75
384,340,141795,2,0,L|392:164,1,150
372,100,142438,6,0,L|336:72,2,37.5
240,96,142867,2,0,L|200:104,2,37.5
164,184,143295,2,0,L|136:224,2,37.5
220,272,143724,2,0,P|264:268|316:276,2,75
256,356,144367,6,0,L|256:120,1,225
172,104,145224,2,0,P|248:44|344:112,1,225,8|0,0:0|0:0,0:0:0:0:
352,196,146081,6,0,L|368:280,2,75
160,196,146938,2,0,L|144:280,2,75,8|0|0,0:0|0:0|0:0,0:0:0:0:
256,192,147795,12,8,150367,0:0:0:0:
396,68,151224,6,0,P|436:108|408:184,1,100,6|0,0:0|0:0,0:0:0:0:
360,136,151652,2,0,P|376:200|428:224,1,100,2|0,0:0|0:0,0:0:0:0:
476,200,152081,2,0,P|456:276|404:296,1,100,2|0,0:0|0:0,0:0:0:0:
432,360,152509,2,0,P|392:352|364:292,1,100,2|0,0:0|0:0,0:0:0:0:
288,288,152938,6,0,L|190:275,2,50,2|0|0,0:0|0:0|0:0,0:0:0:0:
310,215,153367,2,0,L|321:148,2,50,2|0|0,0:0|0:0|0:0,0:0:0:0:
384,226,153795,2,0,L|482:239,2,50,2|0|0,0:0|0:0|0:0,0:0:0:0:
396,151,154224,2,0,L|421:46,1,100,2|0,0:0|0:0,0:0:0:0:
344,55,154652,6,2,B|316:75|316:75|308:55|308:55|300:75|300:75|292:55|292:55|288:75|288:75|280:55|280:55|272:75|272:75|264:55|264:55|256:75|256:75|248:55|248:55|240:75|240:75|232:55|232:55|224:75|224:75|216:55|216:55|208:75|208:75,1,300,2|2,0:0|0:0,0:0:0:0:
100,200,155938,1,0,0:0:0:0:
100,200,156152,1,0,0:0:0:0:
100,200,156367,2,2,B|128:180|128:180|136:200|136:200|144:180|144:180|152:200|152:200|156:180|156:180|164:200|164:200|172:180|172:180|180:200|180:200|188:180|188:180|196:200|196:200|204:180|204:180|212:200|212:200|220:180|220:180|228:200|228:200|236:180|236:180,1,300,2|2,0:0|0:0,0:0:0:0:
376,60,157652,1,0,0:0:0:0:
376,60,157867,1,0,0:0:0:0:
376,60,158081,6,0,L|388:168,1,100,2|0,0:0|0:0,0:0:0:0:
337,168,158509,2,0,L|285:79,1,100,2|0,0:0|0:0,0:0:0:0:
236,90,158938,2,0,L|228:206,1,100,2|0,0:0|0:0,0:0:0:0:
178,195,159367,2,0,L|128:108,1,100,2|0,0:0|0:0,0:0:0:0:
65,169,159795,6,0,L|70:233,2,50,2|0|0,0:0|0:0|0:0,0:0:0:0:
65,169,160224,1,2,0:0:0:0:
292,216,160652,2,0,L|300:152,2,50,2|0|0,0:0|0:0|0:0,0:0:0:0:
292,216,161081,1,2,0:0:0:0:
96,130,161509,6,0,L|60:174,3,50
220,318,162367,2,0,L|260:366,3,50
256,192,163224,12,4,164938,0:0:0:0:
336,104,178652,6,0,L|392:104,4,37.5,4|0|0|0|0,0:0|0:0|0:0|0:0|0:0,0:0:0:0:
336,104,179295,2,0,L|300:176,1,75,0|8,0:0|0:0,0:0:0:0:
80,192,180152,1,0,0:0:0:0:
80,192,180367,6,0,L|20:192,4,37.5
80,192,181009,2,0,L|84:272,1,75,0|8,0:0|0:0,0:0:0:0:
312,312,181867,1,0,0:0:0:0:
312,312,182081,6,0,L|364:264,4,37.5
312,312,182724,2,0,L|264:244,1,75,0|8,0:0|0:0,0:0:0:0:
448,68,183581,1,0,0:0:0:0:
448,68,183688,1,0,0:0:0:0:
448,68,183795,1,0,0:0:0:0:
312,312,184224,5,6,0:0:0:0:
200,68,184652,1,6,0:0:0:0:
84,312,185081,1,6,0:0:0:0:
256,192,185509,12,8,188081,0:0:0:0:
44,108,188938,6,0,L|144:128,1,93.75,4|0,0:0|0:0,0:0:0:0:
224,184,189367,1,0,0:0:0:0:
320,144,189581,1,0,0:0:0:0:
412,100,189795,2,0,P|352:52|236:92,1,187.5,8|0,0:0|0:0,0:0:0:0:
164,132,190438,1,0,0:0:0:0:
228,212,190652,6,0,P|288:260|404:220,1,187.5
448,152,191295,2,0,L|368:92,2,93.75,0|8|0,0:0|0:0|0:0,0:0:0:0:
420,252,191938,2,0,P|364:288|316:336,1,93.75
343,305,192367,6,0,L|128:272,1,187.5
80,212,193009,1,0,0:0:0:0:
68,108,193224,2,0,P|136:96|172:76,1,93.75,8|0,0:0|0:0,0:0:0:0:
252,48,193652,1,0,0:0:0:0:
352,72,193867,5,0,0:0:0:0:
352,72,193974,1,0,0:0:0:0:
352,72,194081,1,0,0:0:0:0:
428,144,194295,1,0,0:0:0:0:
348,208,194509,1,0,0:0:0:0:
408,292,194724,1,0,0:0:0:0:
316,340,194938,2,0,L|208:364,2,93.75,8|0|0,0:0|0:0|0:0,0:0:0:0:
260,252,195581,5,0,0:0:0:0:
260,252,195688,1,0,0:0:0:0:
260,252,195795,2,0,L|160:276,1,93.75
60,164,196224,2,0,L|160:188,1,93.75
344,236,196652,2,0,P|320:192|184:212,1,187.5,8|0,0:0|0:0,0:0:0:0:
112,252,197295,5,0,0:0:0:0:
112,252,197509,1,0,0:0:0:0:
192,320,197724,1,0,0:0:0:0:
192,320,197938,1,0,0:0:0:0:
296,324,198152,1,0,0:0:0:0:
296,324,198367,1,8,0:0:0:0:
392,284,198581,2,0,P|420:236|456:208,2,93.75
392,284,199224,6,0,P|384:208|332:68,1,187.5
256,56,199867,1,0,0:0:0:0:
164,104,200081,2,0,P|133:192|121:285,1,187.5,8|0,0:0|0:0,0:0:0:0:
212,340,200724,5,0,0:0:0:0:
212,340,200938,1,0,0:0:0:0:
212,340,201152,2,0,L|220:240,1,93.75
296,248,201795,1,8,0:0:0:0:
296,248,202009,2,0,L|304:348,1,93.75
440,188,202652,5,4,0:0:0:0:
352,136,202867,1,0,0:0:0:0:
260,180,203081,1,0,0:0:0:0:
176,120,203295,1,0,0:0:0:0:
84,72,203509,2,0,P|89:167|200:220,1,187.5,8|0,0:0|0:0,0:0:0:0:
256,56,204152,1,0,0:0:0:0:
256,56,204367,6,0,L|472:72,1,187.5
380,152,205009,2,0,L|296:148,2,46.875,0|0|8,0:0|0:0|0:0,0:0:0:0:
444,232,205438,1,0,0:0:0:0:
368,300,205652,1,0,0:0:0:0:
280,244,205867,1,0,0:0:0:0:
200,180,206081,6,0,P|164:240|160:284,2,93.75
168,80,206724,1,0,0:0:0:0:
168,80,206938,2,0,P|104:136|56:256,1,187.5,8|0,0:0|0:0,0:0:0:0:
136,296,207581,5,0,0:0:0:0:
136,296,207688,1,0,0:0:0:0:
136,296,207795,1,0,0:0:0:0:
240,300,208009,2,0,L|352:288,1,93.75
412,220,208438,1,0,0:0:0:0:
412,220,208545,1,0,0:0:0:0:
412,220,208652,1,8,0:0:0:0:
424,116,208867,2,0,P|364:128|320:168,1,93.75
236,144,209295,5,0,0:0:0:0:
236,144,209402,1,0,0:0:0:0:
236,144,209509,2,0,P|172:120|60:200,1,187.5
164,216,210152,1,0,0:0:0:0:
164,216,210367,2,0,L|108:28,1,187.5,8|0,0:0|0:0,0:0:0:0:
212,40,211009,6,0,L|284:40,2,46.875
264,128,211438,2,0,L|336:128,2,46.875
316,220,211867,2,0,L|388:220,2,46.875,0|0|8,0:0|0:0|0:0,0:0:0:0:
360,312,212295,1,0,0:0:0:0:
264,348,212509,1,0,0:0:0:0:
164,316,212724,1,0,0:0:0:0:
256,192,212938,12,0,216367,0:0:0:0:
