osu file format v14

[General]
AudioFilename: DnH.mp3
AudioLeadIn: 0
PreviewTime: 154862
Countdown: 0
SampleSet: Soft
StackLeniency: 0.7
Mode: 0
LetterboxInBreaks: 0
WidescreenStoryboard: 1

[Editor]
DistanceSpacing: 1
BeatDivisor: 4
GridSize: 4
TimelineZoom: 1.8

[Metadata]
Title:Daia no Hana
TitleUnicode:ダイアの花
Artist:YORICO
ArtistUnicode:より子
Creator:Setsurei
Version:Jeopardize
Source:BLACK CAT
Tags:Yoriko Opening DAITA ブラックキャット Underdogs
BeatmapID:486668
BeatmapSetID:206375

[Difficulty]
HPDrainRate:6.5
CircleSize:4.5
OverallDifficulty:7.5
ApproachRate:9
SliderMultiplier:2
SliderTickRate:1

[Events]
//Background and Video events
0,0,"BG.jpg",0,0
//Break Periods
2,128672,134270
//Storyboard Layer 0 (Background)
//Storyboard Layer 1 (Fail)
//Storyboard Layer 2 (Pass)
//Storyboard Layer 3 (Foreground)
//Storyboard Sound Samples

[TimingPoints]
514,399.866711096301,4,2,1,80,1,0
514,-133.333333333333,4,2,1,80,0,0
6911,-100,4,2,1,80,0,0
26105,-133.333333333333,4,2,1,60,0,0
51696,-100,4,2,1,80,0,1
64492,-100,4,2,1,80,0,0
77288,-200,4,2,1,60,0,0
80487,-100,4,2,1,80,0,0
102879,-100,4,2,1,80,0,1
128471,-100,4,2,1,80,0,0
142066,-100,4,2,1,80,0,0
154862,-133.333333333333,4,2,1,60,0,0
157661,-100,4,2,1,80,0,0
167658,-100,4,2,1,80,0,1
193249,-100,4,2,1,80,0,0
206045,-133.333333333333,4,2,1,60,0,0
212043,-100,4,2,1,40,0,0

[Colours]
Combo1 : 190,175,90
Combo2 : 190,90,90
Combo3 : 90,90,150
Combo4 : 190,190,190
Combo5 : 140,120,170
SliderBorder : 200,200,200

[HitObjects]
256,148,514,5,0,3:0:0:0:
320,180,714,1,0,0:0:0:0:
464,188,914,6,0,P|428:200|391:199,1,75.0000028610231,0|0,0:0|0:0,0:0:0:0:
348,52,1314,5,2,0:0:0:0:
276,28,1514,1,0,0:0:0:0:
208,64,1714,1,0,0:0:0:0:
176,128,1914,1,0,0:0:0:0:
48,188,2114,6,0,P|85:186|120:173,1,75.0000028610231,0|0,3:0|0:0,0:0:0:0:
200,202,2514,5,0,0:0:0:0:
245,265,2714,1,0,0:0:0:0:
200,328,2914,1,2,0:0:0:0:
125,303,3114,1,0,0:0:0:0:
125,226,3313,6,0,P|89:214|63:188,1,75.0000028610231,0|0,0:0|0:0,0:0:0:0:
125,72,3713,5,0,3:0:0:0:
125,150,3913,1,0,0:0:0:0:
255,236,4113,6,0,P|291:248|317:274,1,75.0000028610231,0|0,0:0|0:0,0:0:0:0:
388,312,4513,1,2,0:0:0:0:
428,240,4713,1,0,0:0:0:0:
416,160,4913,1,0,0:0:0:0:
344,120,5113,1,0,0:0:0:0:
257,148,5313,6,0,P|221:136|195:110,1,75.0000028610231,0|0,3:0|0:0,0:0:0:0:
125,72,5713,1,0,0:0:0:0:
76,136,5913,1,0,0:0:0:0:
100,212,6113,1,2,0:0:0:0:
256,192,6512,5,0,0:0:0:0:
451,143,6912,6,0,P|383:76|288:91,1,200,4|0,3:0|0:0,0:0:0:0:
256,168,7512,1,0,0:0:0:0:
344,289,7712,2,0,P|355:240|347:191,1,100,2|0,0:0|0:0,0:0:0:0:
184,234,8112,2,0,P|176:283|186:331,1,100,0|0,0:0|0:0,0:0:0:0:
255,167,8512,6,0,P|166:135|94:197,1,200,0|0,3:0|0:0,0:0:0:0:
184,234,9112,1,0,0:0:0:0:
348,192,9311,1,2,0:0:0:0:
280,260,9711,1,0,0:0:0:0:
348,192,9911,1,0,0:0:0:0:
394,48,10111,6,0,B|416:88|416:88|423:142,1,100,0|0,3:0|0:0,0:0:0:0:
348,192,10511,1,0,0:0:0:0:
164,136,10711,1,0,0:0:0:0:
248,88,10911,1,2,0:0:0:0:
252,184,11111,1,0,0:0:0:0:
180,247,11311,2,0,P|130:246|88:220,1,100,0|0,0:0|0:0,0:0:0:0:
164,136,11711,5,4,0:0:0:0:
272,276,11911,2,0,L|264:325,2,50,0|0|0,0:0|0:0|0:0,0:0:0:0:
348,192,12310,1,0,0:0:0:0:
352,208,12410,1,0,0:0:0:0:
356,224,12510,2,0,L|404:236,1,50,8|0,0:0|0:0,0:0:0:0:
464,160,12710,2,0,L|415:148,1,50,8|8,0:0|0:0,0:0:0:0:
352,104,12910,1,8,0:0:0:0:
268,208,13110,1,8,0:0:0:0:
255,8,13310,6,0,B|271:168|271:168|268:208,1,200,4|0,0:0|3:0,0:0:0:0:
352,104,13910,1,0,0:0:0:0:
160,136,14110,2,0,B|148:36,1,100,8|0,0:0|0:0,0:0:0:0:
352,104,14510,1,0,3:0:0:0:
268,208,14710,1,0,0:0:0:0:
148,36,14910,5,0,0:0:0:0:
352,104,15110,1,0,0:0:0:0:
148,36,15309,2,0,P|75:99|81:195,2,200,0|8|0,3:0|0:0|3:0,0:0:0:0:
232,88,16309,1,0,0:0:0:0:
400,0,16509,6,0,P|373:70|368:144,1,150,0|0,0:0|0:0,0:0:0:0:
380,188,16909,1,0,3:0:0:0:
460,136,17109,1,0,0:0:0:0:
291,52,17309,2,0,P|277:99|279:149,1,100,8|0,0:0|0:0,0:0:0:0:
220,331,17709,2,0,P|234:284|232:234,1,100,0|0,3:0|0:0,0:0:0:0:
180,152,18109,5,0,0:0:0:0:
332,232,18308,1,0,0:0:0:0:
348,228,18408,1,0,0:0:0:0:
364,224,18508,1,0,3:0:0:0:
388,120,18708,1,0,0:0:0:0:
372,124,18808,1,0,0:0:0:0:
356,128,18908,2,0,L|359:78,1,50,8|0,0:0|0:0,0:0:0:0:
276,148,19108,2,0,L|272:197,1,50,0|0,0:0|0:0,0:0:0:0:
280,72,19308,2,0,P|256:28|211:8,1,100,0|0,3:0|0:0,0:0:0:0:
140,52,19708,6,0,P|145:125|112:191,1,150,0|0,0:0|0:0,0:0:0:0:
96,243,20108,2,0,P|82:292|86:341,1,100,0|0,3:0|0:0,0:0:0:0:
180,200,20508,1,8,0:0:0:0:
256,312,20708,1,0,0:0:0:0:
256,312,20808,1,0,0:0:0:0:
256,312,20908,1,0,3:0:0:0:
332,200,21108,1,0,0:0:0:0:
415,243,21307,6,0,P|429:292|425:341,2,100,0|0|0,0:0|0:0|3:0,0:0:0:0:
368,108,21907,1,0,0:0:0:0:
368,108,22007,1,0,0:0:0:0:
368,108,22107,1,8,0:0:0:0:
332,200,22307,1,0,0:0:0:0:
244,164,22507,2,0,B|248:36|248:36|230:22,1,150,0|0,3:0|0:0,0:0:0:0:
196,16,22907,6,0,B|80:8|80:8|49:21,1,150,0|0,0:0|0:0,0:0:0:0:
32,64,23307,1,0,3:0:0:0:
144,108,23507,1,0,0:0:0:0:
52,175,23707,2,0,P|48:225|58:274,1,100,8|0,0:0|0:0,0:0:0:0:
132,352,24107,1,0,3:0:0:0:
236,232,24306,1,0,0:0:0:0:
380,352,24506,5,0,0:0:0:0:
236,232,24706,1,0,0:0:0:0:
236,216,24806,1,0,0:0:0:0:
236,200,24906,1,0,3:0:0:0:
320,100,25106,1,0,0:0:0:0:
320,116,25206,1,0,0:0:0:0:
320,132,25306,2,0,L|320:182,1,50,8|8,0:0|0:0,0:0:0:0:
408,200,25506,2,0,L|408:150,1,50,8|8,0:0|0:0,0:0:0:0:
332,260,25706,1,0,3:0:0:0:
236,112,25906,1,8,0:0:0:0:
152,160,26106,6,0,L|140:271,1,112.500004291535,4|0,0:0|0:0,0:0:0:0:
164,324,26506,1,0,0:0:0:0:
332,260,26706,1,0,0:0:0:0:
244,192,26906,2,0,L|240:266,1,75.0000028610231,2|0,0:0|0:0,0:0:0:0:
328,144,27305,1,0,3:0:0:0:
152,160,27505,1,4,3:0:0:0:
328,143,27705,6,0,P|382:153|419:194,1,112.500004291535,4|0,3:0|0:0,0:0:0:0:
424,252,28105,1,4,3:0:0:0:
244,172,28305,1,0,0:0:0:0:
244,172,28405,1,0,0:0:0:0:
244,172,28505,2,0,L|251:97,1,75.0000028610231,2|0,0:0|0:0,0:0:0:0:
68,16,28905,1,0,0:0:0:0:
68,16,29305,6,0,L|52:127,1,112.500004291535,4|0,3:0|0:0,0:0:0:0:
80,176,29705,1,0,0:0:0:0:
200,92,29905,1,0,0:0:0:0:
288,136,30105,2,0,L|306:246,1,112.500004291535,2|0,0:0|0:0,0:0:0:0:
276,296,30504,1,0,0:0:0:0:
152,220,30704,1,4,3:0:0:0:
287,44,30904,6,0,P|356:68|384:135,1,150.000005722046,4|0,3:0|0:0,0:0:0:0:
348,236,31504,1,0,0:0:0:0:
348,236,31604,1,0,0:0:0:0:
348,236,31704,2,0,L|354:272,1,37.5000014305115,2|0,0:0|0:0,0:0:0:0:
264,236,31904,2,0,L|270:199,1,37.5000014305115,0|0,0:0|0:0,0:0:0:0:
180,236,32104,2,0,B|68:224,1,112.500004291535,0|0,0:0|0:0,0:0:0:0:
26,190,32504,6,0,P|33:117|83:64,1,150.000005722046,4|0,0:0|0:0,0:0:0:0:
120,156,33104,1,0,3:0:0:0:
256,328,33303,1,4,3:0:0:0:
392,156,33503,1,0,3:0:0:0:
428,64,33703,2,0,P|478:117|485:190,1,150.000005722046,2|4,3:0|3:0,0:0:0:0:
256,376,34503,5,4,3:0:0:0:
188,307,34703,2,0,P|255:280|323:307,1,150.000005722046,0|0,0:0|0:0,0:0:0:0:
256,376,35303,2,0,L|256:263,1,112.500004291535,0|0,0:0|0:0,0:0:0:0:
256,104,35703,6,0,B|304:80|344:92|344:92|396:64,2,150.000005722046,4|0|2,3:0|0:0|0:0,0:0:0:0:
316,176,36702,1,0,0:0:0:0:
126,297,36902,1,0,0:0:0:0:
115,73,37102,1,0,0:0:0:0:
256,304,37302,5,4,3:0:0:0:
256,104,37702,2,0,B|256:128|256:128|248:144|248:144|264:160|264:160|256:192|256:192|256:244,1,150.000005722046,0|2,0:0|0:0,0:0:0:0:
127,173,38302,1,0,0:0:0:0:
335,89,38502,1,0,0:0:0:0:
304,312,38702,1,0,0:0:0:0:
412,316,38902,6,0,B|364:296|328:320|328:320|304:312,1,112.500004291535,0|0,0:0|0:0,0:0:0:0:
256,288,39301,1,0,0:0:0:0:
28,228,39501,1,0,0:0:0:0:
128,264,39701,2,0,B|144:224|128:192|128:192|128:153,1,112.500004291535,8|0,0:0|0:0,0:0:0:0:
132,96,40101,2,0,P|166:110|203:113,1,75.0000028610231,0|0,0:0|0:0,0:0:0:0:
412,68,40501,6,0,B|364:88|328:64|328:64|304:71,1,112.500004291535,0|0,0:0|0:0,0:0:0:0:
256,96,40901,1,0,0:0:0:0:
28,156,41101,1,0,0:0:0:0:
128,120,41301,2,0,B|144:160|128:192|128:192|128:230,1,112.500004291535,8|0,0:0|0:0,0:0:0:0:
132,288,41701,2,0,P|166:273|203:270,1,75.0000028610231,0|0,0:0|0:0,0:0:0:0:
308,320,42101,5,0,0:0:0:0:
292,192,42300,1,0,0:0:0:0:
420,132,42500,1,0,0:0:0:0:
420,252,42700,1,0,0:0:0:0:
308,64,42899,5,8,0:0:0:0:
420,132,43099,1,0,0:0:0:0:
292,192,43299,1,0,0:0:0:0:
420,252,43500,1,0,0:0:0:0:
308,320,43700,5,0,0:0:0:0:
196,136,43900,1,0,0:0:0:0:
196,136,44000,1,0,0:0:0:0:
196,136,44100,2,0,P|158:133|124:148,1,75.0000028610231,0|0,0:0|0:0,0:0:0:0:
20,200,44500,1,8,0:0:0:0:
196,252,44700,1,0,0:0:0:0:
143,339,44900,2,0,P|115:316|100:282,1,75.0000028610231,0|0,0:0|0:0,0:0:0:0:
196,136,45299,5,0,0:0:0:0:
271,219,45499,2,0,P|309:223|345:214,1,75.0000028610231,0|0,0:0|0:0,0:0:0:0:
116,216,45899,1,0,0:0:0:0:
196,136,46099,2,0,B|232:120|268:136|304:152|342:128,1,150.000005722046,8|0,0:0|0:0,0:0:0:0:
300,32,46699,1,0,0:0:0:0:
232,212,46899,6,0,P|267:223|304:220,1,75.0000028610231,0|0,0:0|0:0,0:0:0:0:
416,204,47299,1,0,0:0:0:0:
300,32,47499,1,0,0:0:0:0:
136,127,47699,2,0,P|127:202|146:274,1,150.000005722046,8|0,0:0|0:0,0:0:0:0:
364,312,48298,1,0,0:0:0:0:
327,100,48498,6,0,P|269:146|232:211,1,150.000005722046,0|0,0:0|0:0,0:0:0:0:
256,328,49098,1,0,0:0:0:0:
119,195,49298,2,0,P|83:188|45:187,1,75.0000028610231,8|0,0:0|0:0,0:0:0:0:
148,300,49698,1,0,0:0:0:0:
332,248,49898,1,0,0:0:0:0:
256,328,50098,6,0,P|224:261|239:189,1,150.000005722046,4|0,0:0|0:0,0:0:0:0:
352,144,50698,1,0,0:0:0:0:
332,248,50898,1,8,0:0:0:0:
81,281,51098,2,0,L|118:276,1,37.5000014305115,0|0,0:0|0:0,0:0:0:0:
216,159,51297,2,0,L|204:194,1,37.5000014305115,8|0,0:0|0:0,0:0:0:0:
256,328,51497,2,0,L|226:304,1,37.5000014305115
119,195,51697,6,0,P|135:100|220:57,2,200,4|0|0,0:0|0:0|0:0,0:0:0:0:
256,328,52697,1,0,0:0:0:0:
256,328,52797,1,0,0:0:0:0:
256,328,52897,1,8,0:0:0:0:
148,300,53097,1,0,0:0:0:0:
232,224,53297,6,0,P|281:217|330:207,1,100,0|0,0:0|0:0,0:0:0:0:
364,300,53697,1,8,0:0:0:0:
256,328,53897,1,0,0:0:0:0:
232,224,54097,2,0,B|224:96|224:96|231:75,1,150,0|0,0:0|0:0,0:0:0:0:
260,56,54496,1,8,0:0:0:0:
132,108,54696,1,0,0:0:0:0:
331,208,54896,6,0,L|346:109,1,100,0|0,0:0|0:0,0:0:0:0:
232,224,55296,1,8,0:0:0:0:
296,296,55496,1,0,0:0:0:0:
232,224,55696,1,0,0:0:0:0:
392,284,55896,1,0,0:0:0:0:
392,284,55996,1,0,0:0:0:0:
391,284,56096,2,0,P|423:245|432:196,1,100,8|0,0:0|0:0,0:0:0:0:
260,55,56496,6,0,P|245:128|264:200,1,150,0|0,0:0|0:0,0:0:0:0:
232,224,56896,2,0,P|183:232|153:270,1,100,8|0,0:0|0:0,0:0:0:0:
124,368,57295,1,0,0:0:0:0:
124,180,57495,1,0,0:0:0:0:
228,336,57695,1,8,0:0:0:0:
52,272,57895,1,0,0:0:0:0:
232,224,58095,6,0,L|235:124,1,100,0|0,0:0|0:0,0:0:0:0:
128,80,58495,2,0,L|124:180,1,100,8|0,0:0|0:0,0:0:0:0:
384,304,58895,2,0,L|388:204,1,100,0|0,0:0|0:0,0:0:0:0:
348,108,59295,1,8,0:0:0:0:
256,44,59495,1,0,0:0:0:0:
165,109,59695,5,0,0:0:0:0:
256,176,59895,1,0,0:0:0:0:
176,256,60095,2,0,L|78:235,1,100,8|0,0:0|0:0,0:0:0:0:
158,32,60494,1,0,0:0:0:0:
256,44,60694,2,0,B|224:32|224:32|158:32,1,100,0|8,0:0|0:0,0:0:0:0:
340,120,61094,1,0,0:0:0:0:
496,20,61294,6,0,P|508:67|502:117,1,100,0|0,0:0|0:0,0:0:0:0:
363,214,61694,2,0,P|342:169|340:120,1,100,8|0,0:0|0:0,0:0:0:0:
256,44,62094,1,0,0:0:0:0:
172,120,62294,1,0,0:0:0:0:
16,20,62494,2,0,P|3:67|9:117,1,100,8|0,0:0|0:0,0:0:0:0:
75,184,62894,6,0,P|142:154|208:185,1,150,0|0,0:0|0:0,0:0:0:0:
236,216,63293,1,8,0:0:0:0:
140,276,63493,1,0,0:0:0:0:
279,119,63693,2,0,P|320:148|339:194,1,100,0|0,0:0|0:0,0:0:0:0:
236,324,64093,1,8,0:0:0:0:
76,184,64293,1,0,0:0:0:0:
280,119,64493,6,0,P|374:139|419:225,1,200,4|8,0:0|0:0,0:0:0:0:
308,228,65093,1,0,0:0:0:0:
156,104,65293,1,0,0:0:0:0:
76,184,65493,1,0,0:0:0:0:
76,184,65593,1,0,0:0:0:0:
76,184,65693,2,0,B|64:208|64:208|71:280,1,100,8|0,0:0|0:0,0:0:0:0:
96,372,66093,5,0,0:0:0:0:
196,272,66292,2,0,L|235:303,2,50,0|0|8,0:0|0:0|0:0,0:0:0:0:
204,156,66692,1,0,0:0:0:0:
356,280,66892,1,0,0:0:0:0:
436,200,67092,1,0,0:0:0:0:
436,200,67192,1,0,0:0:0:0:
436,200,67292,2,0,B|448:176|448:176|441:104,1,100,8|0,0:0|0:0,0:0:0:0:
368,40,67692,5,0,0:0:0:0:
276,92,67892,2,0,L|236:60,2,50,0|0|8,0:0|0:0|0:0,0:0:0:0:
292,244,68292,1,0,0:0:0:0:
184,216,68492,1,0,0:0:0:0:
134,59,68692,1,0,0:0:0:0:
134,59,68792,1,0,0:0:0:0:
134,59,68892,2,0,B|108:67|108:67|62:123,1,100,8|0,0:0|0:0,0:0:0:0:
184,216,69291,6,0,P|204:310|290:355,1,200,0|8,0:0|0:0,0:0:0:0:
292,244,69891,1,0,0:0:0:0:
256,128,70091,1,0,0:0:0:0:
352,76,70291,1,0,0:0:0:0:
352,76,70391,1,0,0:0:0:0:
352,76,70491,2,0,B|376:64|376:64|448:71,1,100,8|0,0:0|0:0,0:0:0:0:
440,316,70891,6,0,P|390:307|342:317,1,100,0|0,0:0|0:0,0:0:0:0:
280,356,71291,1,8,0:0:0:0:
292,244,71491,1,0,0:0:0:0:
224,291,71691,2,0,P|150:305|76:297,1,150,0|0,0:0|0:0,0:0:0:0:
56,260,72091,2,0,L|36:161,1,100,8|0,0:0|0:0,0:0:0:0:
200,124,72490,5,0,0:0:0:0:
108,108,72690,1,0,0:0:0:0:
280,40,72890,2,0,L|272:189,1,150,8|0,0:0|0:0,0:0:0:0:
292,244,73290,2,0,P|338:259|387:252,1,100,0|0,0:0|0:0,0:0:0:0:
348,156,73690,1,8,0:0:0:0:
220,264,73890,1,0,0:0:0:0:
220,264,73990,1,0,0:0:0:0:
220,263,74090,6,0,P|173:280|123:275,1,100,0|0,0:0|0:0,0:0:0:0:
308,228,74490,1,8,0:0:0:0:
296,324,74690,1,0,0:0:0:0:
232,160,74890,2,0,L|133:179,1,100,0|0,0:0|0:0,0:0:0:0:
72,116,75289,1,8,0:0:0:0:
72,232,75489,1,0,0:0:0:0:
72,232,75589,1,0,0:0:0:0:
72,232,75689,5,0,0:0:0:0:
128,340,75889,1,0,0:0:0:0:
128,340,75989,1,0,0:0:0:0:
128,340,76089,1,8,0:0:0:0:
220,264,76289,5,0,0:0:0:0:
236,268,76389,1,8,0:0:0:0:
252,272,76489,2,0,L|252:322,1,50,4|0,3:0|0:0,0:0:0:0:
324,216,76689,2,0,L|324:166,1,50,0|8,3:0|0:0,0:0:0:0:
336,304,76889,1,0,0:0:0:0:
416,200,77089,1,4,3:0:0:0:
261,186,77289,6,0,L|163:164,1,100,6|2,0:0|0:0,0:0:0:0:
256,52,77889,1,0,0:0:0:0:
162,164,78089,2,0,P|172:239|164:313,1,150,2|0,0:0|0:0,0:0:0:0:
163,164,78888,6,0,L|261:186,1,100,2|2,0:0|0:0,0:0:0:0:
344,212,79488,1,0,0:0:0:0:
256,52,79688,2,0,L|158:30,1,100,2|2,0:0|0:0,0:0:0:0:
316,256,80288,1,0,0:0:0:0:
316,256,80388,1,0,0:0:0:0:
316,256,80488,5,12,0:0:0:0:
256,332,80688,1,0,0:0:0:0:
163,220,80888,2,0,P|168:170|164:120,1,100,0|0,0:0|0:0,0:0:0:0:
144,48,81287,1,8,0:0:0:0:
260,136,81487,1,0,0:0:0:0:
322,63,81687,1,0,0:0:0:0:
460,104,81887,1,0,0:0:0:0:
460,104,81987,1,0,0:0:0:0:
460,104,82087,6,0,P|479:149|478:199,1,100,0|0,0:0|0:0,0:0:0:0:
420,256,82487,2,0,L|372:241,3,50,0|0|0|0,0:0|0:0|0:0|0:0,0:0:0:0:
320,320,82887,2,0,L|336:368,1,50,8|0,0:0|0:0,0:0:0:0:
228,308,83087,2,0,L|204:352,1,50,0|0,0:0|0:0,0:0:0:0:
284,232,83287,2,0,B|316:108|316:108|308:87,1,150,0|0,0:0|0:0,0:0:0:0:
276,72,83687,6,0,L|177:53,1,100,0|0,0:0|0:0,0:0:0:0:
108,96,84087,1,0,0:0:0:0:
184,156,84286,1,0,0:0:0:0:
343,19,84486,2,0,P|388:79|392:152,1,150,8|0,0:0|0:0,0:0:0:0:
372,200,84886,1,0,0:0:0:0:
180,72,85086,1,0,0:0:0:0:
275,71,85286,6,0,P|305:111|309:160,1,100,0|0,0:0|0:0,0:0:0:0:
256,324,85686,1,0,0:0:0:0:
184,252,85886,1,0,0:0:0:0:
184,252,85986,1,0,0:0:0:0:
184,252,86086,1,8,0:0:0:0:
224,140,86286,1,0,0:0:0:0:
304,216,86486,2,0,B|428:212|428:212|447:195,1,150,0|0,0:0|0:0,0:0:0:0:
480,168,86886,6,0,L|460:69,1,100,0|0,0:0|0:0,0:0:0:0:
276,72,87285,1,0,0:0:0:0:
352,132,87485,1,0,0:0:0:0:
256,256,87685,2,0,L|256:356,1,100,8|0,0:0|0:0,0:0:0:0:
256,164,88085,1,0,0:0:0:0:
172,212,88285,1,0,0:0:0:0:
52,104,88485,6,0,P|33:149|34:199,1,100,0|0,0:0|0:0,0:0:0:0:
92,256,88885,2,0,L|140:241,3,50,0|0|0|0,0:0|0:0|0:0|0:0,0:0:0:0:
192,320,89285,2,0,L|176:368,1,50,8|0,0:0|0:0,0:0:0:0:
284,308,89485,2,0,L|308:352,1,50,0|0,0:0|0:0,0:0:0:0:
228,232,89685,2,0,B|242:104|242:104|257:88,1,150,0|0,0:0|0:0,0:0:0:0:
292,72,90085,6,0,P|335:48|440:80,1,150,0|0,0:0|0:0,0:0:0:0:
456,96,90484,1,0,0:0:0:0:
356,264,90684,1,0,0:0:0:0:
395,175,90884,2,0,P|323:167|268:214,1,150,8|0,0:0|0:0,0:0:0:0:
228,232,91284,2,0,L|129:247,1,100,0|0,0:0|0:0,0:0:0:0:
38,102,91684,6,0,P|103:138|176:127,1,150,0|0,0:0|0:0,0:0:0:0:
208,108,92084,2,0,B|228:104|228:104|268:60|268:60|286:53,1,100,0|0,0:0|0:0,0:0:0:0:
359,19,92484,1,8,0:0:0:0:
492,192,92884,1,0,0:0:0:0:
492,192,93283,6,0,P|455:129|383:120,1,150,0|0,0:0|0:0,0:0:0:0:
344,152,93683,1,0,0:0:0:0:
256,192,93883,1,0,0:0:0:0:
268,96,94083,1,8,0:0:0:0:
336,248,94483,2,0,B|316:328|316:328|300:337,1,100,0|0,0:0|0:0,0:0:0:0:
191,331,94883,6,0,P|106:286|83:191,1,200,0|0,0:0|0:0,0:0:0:0:
164,148,95483,1,0,0:0:0:0:
164,148,95583,1,0,0:0:0:0:
164,148,95683,1,8,0:0:0:0:
256,148,95883,1,0,0:0:0:0:
348,148,96083,2,0,P|397:155|445:145,1,100,0|0,0:0|0:0,0:0:0:0:
392,60,96482,6,0,B|392:224|392:224|376:256,1,200
256,320,97082,1,0,0:0:0:0:
136,256,97282,2,0,B|120:224|120:224|120:60,1,200,8|0,0:0|0:0,0:0:0:0:
192,70,98082,6,0,B|196:84|212:92|212:92|201:118|220:160,1,100,0|0,0:0|0:0,0:0:0:0:
256,256,98482,1,0,0:0:0:0:
292,160,98682,2,0,B|310:118|300:92|300:92|316:84|319:70,1,100,0|8,0:0|0:0,0:0:0:0:
420,136,99281,2,0,B|432:152|432:152|420:176|423:231,1,100,0|0,0:0|0:0,0:0:0:0:
255,307,99681,6,0,P|162:280|73:321,1,200,0|0,0:0|0:0,0:0:0:0:
256,76,100481,2,0,P|349:103|438:62,1,200,8|0,0:0|0:0,0:0:0:0:
256,76,101281,5,12,0:0:0:0:
256,256,101681,2,0,L|256:156,1,100
396,224,102081,1,8,0:0:0:0:
396,224,102180,1,0,0:0:0:0:
396,224,102280,1,0,0:0:0:0:
452,307,102480,2,0,P|483:269|495:221,1,100
431,61,102880,6,0,P|361:81|300:42,1,150,4|0,0:0|0:0,0:0:0:0:
264,28,103280,2,0,L|173:71,1,100,8|0,0:0|0:0,0:0:0:0:
132,275,103680,2,0,P|214:225|224:129,1,200,0|8,0:0|0:0,0:0:0:0:
116,164,104280,1,0,0:0:0:0:
80,322,104480,6,0,P|150:302|211:341,1,150,0|0,0:0|0:0,0:0:0:0:
248,356,104880,2,0,L|338:312,1,100,8|0,0:0|0:0,0:0:0:0:
379,108,105280,2,0,P|297:158|287:254,1,200,0|8,0:0|0:0,0:0:0:0:
396,220,105879,1,0,0:0:0:0:
379,108,106079,6,0,P|329:112|279:108,1,100,0|0,0:0|0:0,0:0:0:0:
180,52,106479,1,8,0:0:0:0:
472,57,106679,2,0,L|452:155,1,100,0|0,0:0|0:0,0:0:0:0:
320,260,107079,2,0,L|308:211,2,50,0|0|8,0:0|0:0|0:0,0:0:0:0:
432,280,107479,1,0,0:0:0:0:
244,340,107679,6,0,L|215:244,1,100,0|0,0:0|0:0,0:0:0:0:
228,208,107979,1,0,0:0:0:0:
228,208,108079,2,0,L|204:110,1,100,8|0,0:0|0:0,0:0:0:0:
276,48,108478,1,0,0:0:0:0:
228,208,108678,1,0,0:0:0:0:
36,131,108878,2,0,P|23:180|25:230,1,100,8|0,0:0|0:0,0:0:0:0:
244,340,109278,5,0,0:0:0:0:
148,284,109478,1,0,0:0:0:0:
228,208,109678,2,0,P|207:165|241:132,1,100,8|0,0:0|0:0,0:0:0:0:
148,284,110078,2,0,P|238:316|318:262,1,200,0|8,0:0|0:0,0:0:0:0:
128,176,110678,1,0,0:0:0:0:
296,60,110878,6,0,P|319:104|328:153,1,100,0|0,0:0|0:0,0:0:0:0:
304,252,111277,1,8,0:0:0:0:
128,176,111477,1,0,0:0:0:0:
212,100,111677,2,0,P|243:191|189:271,1,200,0|8,0:0|0:0,0:0:0:0:
128,176,112277,1,0,0:0:0:0:
296,60,112477,6,0,P|342:43|392:41,1,100,0|0,0:0|0:0,0:0:0:0:
440,132,112877,2,0,L|422:230,1,100,8|0,0:0|0:0,0:0:0:0:
328,264,113277,1,0,0:0:0:0:
244,192,113477,1,0,0:0:0:0:
328,264,113677,2,0,L|345:165,1,100,8|0,0:0|0:0,0:0:0:0:
74,24,114077,6,0,P|148:84|128:177,1,200,0|8,0:0|0:0,0:0:0:0:
328,264,114676,1,0,0:0:0:0:
244,191,114876,2,8,P|222:236|219:286,1,100,0|0,0:0|0:0,0:0:0:0:
280,364,115276,1,8,0:0:0:0:
432,292,115476,1,0,0:0:0:0:
327,262,115676,6,0,P|387:188|484:192,2,200,0|8|0,0:0|0:0|0:0,0:0:0:0:
219,286,116676,1,0,0:0:0:0:
219,286,116776,1,0,0:0:0:0:
218,285,116876,2,0,P|172:267|123:271,1,100,8|0,0:0|0:0,0:0:0:0:
39,159,117275,6,0,P|111:182|185:180,1,150,0|0,0:0|0:0,0:0:0:0:
212,172,117675,2,0,L|193:73,1,100,8|0,0:0|0:0,0:0:0:0:
295,40,118075,1,0,0:0:0:0:
342,21,118174,1,0,0:0:0:0:
391,15,118274,1,0,0:0:0:0:
460,44,118475,2,0,L|441:142,1,100,8|0,0:0|0:0,0:0:0:0:
336,140,118875,5,0,0:0:0:0:
460,252,119075,1,0,0:0:0:0:
360,300,119275,2,0,L|386:203,1,100,8|0,0:0|0:0,0:0:0:0:
428,356,119675,1,0,0:0:0:0:
264,318,119875,1,0,0:0:0:0:
268,291,119975,1,0,0:0:0:0:
272,264,120075,1,8,0:0:0:0:
184,192,120274,1,0,0:0:0:0:
80,232,120474,6,0,P|108:272|149:301,1,100,0|0,0:0|0:0,0:0:0:0:
284,144,120874,2,0,P|251:105|208:81,1,100,8|0,0:0|0:0,0:0:0:0:
184,192,121274,1,0,0:0:0:0:
224,232,121374,1,0,0:0:0:0:
272,264,121474,1,0,0:0:0:0:
424,220,121674,2,0,P|427:269|408:315,1,100,8|0,0:0|0:0,0:0:0:0:
387,111,122074,6,0,P|384:62|403:16,1,100,0|0,0:0|0:0,0:0:0:0:
492,80,122474,1,8,0:0:0:0:
324,192,122674,1,0,0:0:0:0:
220,88,122874,2,0,P|231:184|173:263,1,200,0|8,0:0|0:0,0:0:0:0:
136,160,123473,1,0,0:0:0:0:
279,304,123673,6,0,P|326:286|376:289,1,100,0|0,0:0|0:0,0:0:0:0:
412,191,124073,2,0,P|394:145|399:96,1,100,8|0,0:0|0:0,0:0:0:0:
308,44,124473,2,0,B|252:40|220:88|220:88|192:52|136:48,1,200,0|8,0:0|0:0,0:0:0:0:
136,160,125073,1,0,0:0:0:0:
295,127,125273,6,0,P|301:201|266:266,1,150,0|0,0:0|0:0,0:0:0:0:
220,288,125673,1,8,0:0:0:0:
316,344,125873,1,0,0:0:0:0:
220,288,126073,2,0,L|121:303,1,100,0|0,0:0|0:0,0:0:0:0:
48,236,126472,1,8,0:0:0:0:
80,128,126672,1,0,0:0:0:0:
256,192,126872,12,4,128472,0:0:0:0:
170,192,134870,6,0,B|192:188|192:188|212:208|212:208|248:200|248:200|281:220|281:220|337:216|347:193,1,200,0|8,0:0|0:0,0:0:0:0:
420,120,135470,1,0,0:0:0:0:
303,52,135669,2,0,P|288:99|293:148,1,100,0|0,0:0|0:0,0:0:0:0:
448,264,136068,1,8,0:0:0:0:
420,120,136268,1,0,0:0:0:0:
192,23,136468,6,0,P|176:71|173:121,1,100,0|0,0:0|0:0,0:0:0:0:
220,176,136868,1,8,0:0:0:0:
420,120,137068,1,0,0:0:0:0:
303,52,137269,2,0,P|288:99|293:148,1,100,0|0,0:0|0:0,0:0:0:0:
340,204,137669,1,8,0:0:0:0:
420,120,137869,1,0,0:0:0:0:
220,176,138069,5,0,0:0:0:0:
92,264,138268,1,0,0:0:0:0:
209,332,138468,2,0,P|224:285|219:236,1,100,8|0,0:0|0:0,0:0:0:0:
64,120,138868,1,0,0:0:0:0:
92,264,139068,1,0,0:0:0:0:
320,361,139268,2,0,P|336:313|339:263,1,100,8|0,0:0|0:0,0:0:0:0:
292,208,139668,5,0,0:0:0:0:
92,264,139868,1,0,0:0:0:0:
209,332,140068,2,0,P|224:285|219:236,1,100,8|0,0:0|0:0,0:0:0:0:
172,180,140467,1,0,0:0:0:0:
92,264,140667,1,0,0:0:0:0:
339,263,140867,1,12,0:0:0:0:
243,108,141068,1,4,0:0:0:0:
371,60,142067,5,4,3:0:0:0:
408,206,142267,1,0,0:0:0:0:
264,168,142467,2,0,B|244:212|244:212|207:248,1,100
173,263,142767,1,0,0:0:0:0:
128,260,142867,6,0,B|100:252|92:212|92:212|96:148|96:148|157:109,1,200,0|0,3:0|0:0,0:0:0:0:
256,56,143467,1,0,0:0:0:0:
400,224,143667,1,4,3:0:0:0:
400,224,144067,2,0,B|368:212|368:212|340:224|340:224|296:208|256:224,1,150,0|0,0:0|0:0,0:0:0:0:
256,260,144466,5,4,0:0:0:0:
255,152,144866,2,0,P|279:83|243:20,1,150,0|0,0:0|0:0,0:0:0:0:
196,19,145266,2,0,P|146:28|98:18,1,100,4|0,3:0|0:0,0:0:0:0:
40,84,145666,1,0,0:0:0:0:
128,124,145866,1,0,0:0:0:0:
44,260,146066,6,0,P|24:216|52:178,1,100,0|0,3:0|0:0,0:0:0:0:
120,320,146466,1,0,0:0:0:0:
28,352,146666,1,0,0:0:0:0:
132,223,146866,2,0,P|179:211|222:235,1,100,4|0,3:0|0:0,0:0:0:0:
280,308,147265,2,0,B|336:252|312:192|276:160|276:160|284:144|286:130,1,200,0|0,0:0|3:0,0:0:0:0:
235,44,147865,6,0,P|282:27|330:39,1,100,0|0,0:0|0:0,0:0:0:0:
414,246,148465,2,0,P|415:197|400:149,1,100,4|0,3:0|0:0,0:0:0:0:
296,208,148865,1,0,0:0:0:0:
288,115,149065,2,0,P|240:128|192:116,1,100,0|0,0:0|3:0,0:0:0:0:
116,256,149465,5,0,0:0:0:0:
92,171,149665,2,0,P|141:174|182:201,1,100,0|0,0:0|0:0,0:0:0:0:
236,280,150065,2,0,P|282:297|331:293,1,100,4|0,3:0|0:0,0:0:0:0:
414,246,150464,2,0,P|449:212|472:167,1,100,0|0,0:0|0:0,0:0:0:0:
404,48,150864,6,0,B|384:64|384:64|380:88|380:88|344:104|344:104|344:132|344:132|332:172|284:189,1,200,0|0,3:0|0:0,0:0:0:0:
192,156,151464,1,0,0:0:0:0:
112,212,151664,1,4,3:0:0:0:
68,302,151864,1,0,0:0:0:0:
68,302,151964,1,0,0:0:0:0:
68,302,152064,1,0,0:0:0:0:
112,212,152264,1,0,0:0:0:0:
168,293,152464,6,0,P|220:349|320:345,1,150,0|0,3:0|0:0,0:0:0:0:
262,264,152864,1,0,0:0:0:0:
286,260,152964,1,0,0:0:0:0:
306,248,153064,1,0,0:0:0:0:
322,232,153163,1,0,0:0:0:0:
334,211,153263,2,0,P|347:164|341:114,1,100,4|0,3:0|0:0,0:0:0:0:
196,45,153663,1,0,0:0:0:0:
260,116,153863,1,0,0:0:0:0:
260,116,153963,1,0,0:0:0:0:
260,116,154063,5,0,3:0:0:0:
316,45,154263,2,0,P|364:52|408:30,1,100
327,182,154863,5,2,0:0:0:0:
185,182,155063,1,0,0:0:0:0:
195,45,155263,2,0,P|164:111|185:182,1,150.000005722046,2|2,0:0|0:0,0:0:0:0:
327,181,155863,6,0,P|347:111|316:45,1,150.000005722046,0|0,0:0|0:0,0:0:0:0:
261,116,156462,2,0,B|296:132|336:108|384:80|405:105,1,150.000005722046,2|2,0:0|0:0,0:0:0:0:
392,220,157062,2,0,B|348:252|344:296|344:296|312:316|289:304,1,150.000005722046,0|0,0:0|0:0,0:0:0:0:
440,304,157662,5,12,0:0:0:0:
112,348,158062,2,0,P|161:346|203:320,1,100,4|0,0:0|0:0,0:0:0:0:
260,232,158462,2,0,P|213:216|164:226,1,100,0|0,0:0|0:0,0:0:0:0:
152,128,158862,5,8,0:0:0:0:
128,32,159062,1,0,0:0:0:0:
56,96,159261,1,0,0:0:0:0:
224,56,159461,1,0,0:0:0:0:
224,56,159561,1,0,0:0:0:0:
223,55,159661,2,0,P|272:63|319:47,1,100,8|0,0:0|0:0,0:0:0:0:
392,76,160061,2,0,P|433:103|458:146,2,100,0|0|8,0:0|0:0|0:0,0:0:0:0:
368,168,160661,6,0,P|377:216|365:264,1,100,0|0,0:0|0:0,0:0:0:0:
368,168,161261,1,8,0:0:0:0:
284,216,161661,1,0,0:0:0:0:
64,27,162061,6,0,P|44:73|43:123,1,100,8|0,0:0|0:0,0:0:0:0:
144,96,162460,1,0,0:0:0:0:
236,132,162660,1,0,0:0:0:0:
284,216,162860,2,0,L|268:314,1,100,8|0,0:0|0:0,0:0:0:0:
113,340,163260,2,0,L|212:356,1,100,0|0,0:0|0:0,0:0:0:0:
184,260,163660,5,8,0:0:0:0:
348,296,163860,2,0,L|446:280,1,100,0|0,0:0|0:0,0:0:0:0:
488,188,164260,1,0,0:0:0:0:
412,96,164460,2,0,L|393:194,1,100,8|0,0:0|0:0,0:0:0:0:
320,20,164860,2,0,L|285:217,1,200,0|8,0:0|0:0,0:0:0:0:
212,264,165459,6,0,L|115:238,1,100,0|0,0:0|0:0,0:0:0:0:
296,308,165859,1,0,0:0:0:0:
285,217,166059,1,8,0:0:0:0:
240,108,166259,2,0,L|248:59,2,50,0|0|0,0:0|0:0|0:0,0:0:0:0:
164,192,166658,1,0,0:0:0:0:
160,176,166758,1,0,0:0:0:0:
156,160,166859,6,0,L|108:148,1,50,8|0,0:0|0:0,0:0:0:0:
48,224,167059,2,0,L|97:236,1,50,0|0,0:0|0:0,0:0:0:0:
160,280,167258,1,0,0:0:0:0:
244,176,167458,1,0,0:0:0:0:
244,176,167559,1,0,0:0:0:0:
244,176,167659,6,0,P|291:194|340:187,2,100,4|0|8,0:0|0:0|0:0,0:0:0:0:
256,56,168258,1,0,0:0:0:0:
256,56,168358,1,0,0:0:0:0:
256,56,168458,5,0,0:0:0:0:
364,84,168658,1,0,0:0:0:0:
280,160,168858,2,0,P|231:167|182:177,1,100,8|0,0:0|0:0,0:0:0:0:
148,84,169258,1,0,0:0:0:0:
256,56,169458,1,0,0:0:0:0:
280,160,169658,2,0,B|288:288|288:288|281:309,1,150,8|0,0:0|0:0,0:0:0:0:
252,328,170057,5,0,0:0:0:0:
380,276,170257,1,0,0:0:0:0:
181,176,170458,2,0,L|166:275,1,100,8|0,0:0|0:0,0:0:0:0:
280,160,170857,1,0,0:0:0:0:
216,88,171057,1,0,0:0:0:0:
280,160,171257,1,8,0:0:0:0:
120,100,171457,1,0,0:0:0:0:
216,88,171657,5,0,0:0:0:0:
280,160,171857,1,0,0:0:0:0:
204,216,172057,2,0,P|155:226|106:217,1,100,8|0,0:0|0:0,0:0:0:0:
12,248,172457,2,0,P|31:293|30:343,1,100,0|0,0:0|0:0,0:0:0:0:
128,328,172857,1,8,0:0:0:0:
368,248,173057,1,0,0:0:0:0:
220,291,173257,6,0,B|288:284|324:328|324:328|376:344|406:324,1,200,0|8,0:0|0:0,0:0:0:0:
480,260,173857,1,0,0:0:0:0:
481,158,174057,2,0,P|454:118|408:100,1,100,0|0,0:0|0:0,0:0:0:0:
320,92,174456,2,0,P|271:98|225:80,1,100,8|0,0:0|0:0,0:0:0:0:
95,243,174856,5,0,0:0:0:0:
159,117,175055,2,0,P|173:164|163:213,1,100,0|8,0:0|0:0,0:0:0:0:
94,169,175456,1,0,0:0:0:0:
191,334,175656,2,0,P|245:255|339:267,1,200,0|8,0:0|0:0,0:0:0:0:
286,344,176256,1,0,0:0:0:0:
340,268,176456,6,0,L|320:169,1,100,0|0,0:0|0:0,0:0:0:0:
506,124,176856,1,8,0:0:0:0:
184,192,177056,1,0,0:0:0:0:
372,64,177255,2,0,L|391:162,1,100,0|0,0:0|0:0,0:0:0:0:
260,176,177655,1,8,0:0:0:0:
135,113,177855,1,0,0:0:0:0:
12,175,178055,5,0,0:0:0:0:
135,237,178255,1,0,0:0:0:0:
260,176,178455,2,0,L|232:382,1,200,8|0,0:0|0:0,0:0:0:0:
135,237,179055,1,0,0:0:0:0:
320,284,179255,2,0,L|332:184,1,100,12|0,0:0|0:0,0:0:0:0:
176,132,179655,6,0,L|188:232,1,100,2|0,0:0|0:0,0:0:0:0:
348,108,180055,2,0,L|248:96,1,100,2|0,0:0|0:0,0:0:0:0:
198,283,180454,1,0,0:0:0:0:
116,340,180654,1,0,0:0:0:0:
108,240,180854,2,0,L|76:42,1,200,8|0,0:0|0:0,0:0:0:0:
176,132,181454,6,0,L|189:231,1,100,0|8,0:0|0:0,0:0:0:0:
256,296,181854,1,0,0:0:0:0:
322,231,182054,2,0,L|336:132,1,100,0|0,0:0|0:0,0:0:0:0:
182,62,182454,2,0,P|255:5|329:62,1,200,8|0,0:0|0:0,0:0:0:0:
256,88,183054,5,0,0:0:0:0:
256,88,183153,1,0,0:0:0:0:
256,88,183253,1,8,0:0:0:0:
384,80,183453,1,0,0:0:0:0:
464,123,183653,2,0,P|434:163|388:180,1,100,0|0,0:0|0:0,0:0:0:0:
384,80,184053,2,0,P|421:48|470:42,1,100,8|0,0:0|0:0,0:0:0:0:
388,180,184453,5,0,0:0:0:0:
460,272,184653,1,0,0:0:0:0:
388,368,184853,1,8,0:0:0:0:
284,336,185053,1,0,0:0:0:0:
280,224,185253,2,0,L|277:124,1,100,0|0,0:0|0:0,0:0:0:0:
384,80,185653,2,0,L|388:180,1,100,8|0,0:0|0:0,0:0:0:0:
128,304,186053,5,0,0:0:0:0:
126,254,186152,1,0,0:0:0:0:
124,204,186252,1,0,0:0:0:0:
164,108,186452,1,8,0:0:0:0:
256,44,186651,1,0,0:0:0:0:
347,109,186851,1,0,0:0:0:0:
256,176,187052,1,0,0:0:0:0:
387,335,187252,2,0,P|416:294|425:245,1,100,8|0,0:0|0:0,0:0:0:0:
408,172,187652,6,0,L|378:76,1,100,0|0,0:0|0:0,0:0:0:0:
168,80,188052,2,0,P|225:157|322:159,1,200,8|0,0:0|0:0,0:0:0:0:
276,60,188652,1,0,0:0:0:0:
124,180,188852,2,0,L|136:300,1,100,8|0,0:0|0:0,0:0:0:0:
224,320,189251,5,0,0:0:0:0:
304,240,189451,1,0,0:0:0:0:
224,320,189651,2,0,L|220:219,1,100,8|0,0:0|0:0,0:0:0:0:
242,188,189951,1,0,0:0:0:0:
242,188,190051,2,0,L|244:87,1,100,0|0,0:0|0:0,0:0:0:0:
408,28,190451,2,0,L|420:128,1,100,8|0,0:0|0:0,0:0:0:0:
420,128,190751,1,0,0:0:0:0:
420,128,190851,5,0,0:0:0:0:
244,88,191051,1,0,0:0:0:0:
328,52,191251,2,0,L|332:152,1,100,8|0,0:0|0:0,0:0:0:0:
304,240,191651,1,8,0:0:0:0:
168,156,191851,1,0,0:0:0:0:
303,240,192051,2,0,P|353:236|396:212,1,100,0|0,0:0|0:0,0:0:0:0:
244,88,192450,5,8,0:0:0:0:
184,232,192650,2,0,L|203:330,1,100,0|0,0:0|0:0,0:0:0:0:
244,88,193050,1,0,0:0:0:0:
100,216,193250,2,0,L|119:314,1,100,4|0,0:0|0:0,0:0:0:0:
167,156,193650,2,0,P|216:159|253:192,1,100,0|0,0:0|0:0,0:0:0:0:
256,304,194050,5,8,0:0:0:0:
100,216,194250,1,0,0:0:0:0:
92,44,194450,2,0,P|186:71|276:34,1,200,0|0,0:0|0:0,0:0:0:0:
168,156,195050,1,0,0:0:0:0:
276,35,195249,2,0,P|309:73|326:120,1,100,0|0,0:0|0:0,0:0:0:0:
316,196,195649,5,8,0:0:0:0:
168,156,195849,1,0,0:0:0:0:
84,232,196049,2,0,L|103:330,1,100,0|0,0:0|0:0,0:0:0:0:
200,360,196449,1,0,0:0:0:0:
300,308,196649,1,0,0:0:0:0:
200,360,196849,2,0,L|211:260,1,100,0|0,0:0|0:0,0:0:0:0:
248,199,197249,6,0,P|295:187|344:199,1,100,8|0,0:0|0:0,0:0:0:0:
235,87,197649,1,0,0:0:0:0:
193,113,197749,1,0,0:0:0:0:
168,156,197848,1,0,0:0:0:0:
76,172,198049,2,0,P|63:124|75:75,1,100,0|0,0:0|0:0,0:0:0:0:
140,8,198448,1,0,0:0:0:0:
464,148,198848,5,8,0:0:0:0:
184,360,199248,2,0,P|166:313|173:264,1,100,8|0,0:0|0:0,0:0:0:0:
327,23,199648,2,0,P|345:70|338:119,1,100,4|0,0:0|0:0,0:0:0:0:
75,172,200048,2,0,P|122:155|170:166,1,100,0|0,0:0|0:0,0:0:0:0:
216,224,200448,5,8,0:0:0:0:
256,120,200648,1,0,0:0:0:0:
216,224,200848,2,0,P|262:240|311:230,1,100,8|0,0:0|0:0,0:0:0:0:
356,172,201247,1,0,0:0:0:0:
396,276,201447,1,0,0:0:0:0:
216,296,201647,1,8,0:0:0:0:
312,352,201847,1,0,0:0:0:0:
216,296,202047,6,0,L|117:311,1,100,8|0,0:0|0:0,0:0:0:0:
156,196,202447,1,8,0:0:0:0:
312,244,202647,1,0,0:0:0:0:
312,244,202747,1,0,0:0:0:0:
311,243,202847,2,0,P|303:194|306:144,1,100,0|0,0:0|0:0,0:0:0:0:
464,89,203247,2,0,P|478:137|480:187,1,100,8|0,0:0|0:0,0:0:0:0:
481,188,203547,1,0,0:0:0:0:
481,188,203647,5,8,0:0:0:0:
307,146,203847,1,0,0:0:0:0:
383,324,204047,2,0,P|392:274|382:226,1,100,0|0,0:0|0:0,0:0:0:0:
307,146,204446,1,0,0:0:0:0:
208,224,204646,1,0,0:0:0:0:
100,192,204846,2,0,P|92:142|105:95,1,100,8|0,0:0|0:0,0:0:0:0:
256,272,205246,6,0,L|256:372,1,100,0|0,0:0|0:0,0:0:0:0:
411,192,205646,2,0,P|419:142|406:95,1,100,0|8,0:0|0:0,0:0:0:0:
256,37,206046,6,0,L|256:112,1,75.0000028610231,2|0,0:0|0:0,0:0:0:0:
152,72,206446,1,2,0:0:0:0:
336,155,206646,2,0,P|343:119|339:82,1,75.0000028610231,0|2,0:0|0:0,0:0:0:0:
256,192,207046,5,0,0:0:0:0:
412,191,207245,2,0,P|427:119|416:45,1,150.000005722046,2|2,0:0|0:0,0:0:0:0:
340,268,207845,1,0,0:0:0:0:
256,192,208045,2,0,P|219:184|181:183,1,75.0000028610231,2|0,0:0|0:0,0:0:0:0:
86,313,208445,6,0,P|110:285|130:253,1,75.0000028610231,2|0,0:0|0:0,0:0:0:0:
64,104,208845,2,0,P|75:139|93:172,2,75.0000028610231,2|0|2,0:0|0:0|0:0,0:0:0:0:
140,20,209445,1,0,0:0:0:0:
256,108,209645,2,0,L|248:220,1,112.500004291535,2|0,0:0|0:0,0:0:0:0:
208,264,210045,5,2,0:0:0:0:
156,164,210244,1,0,0:0:0:0:
352,168,210444,2,0,L|346:242,1,75.0000028610231,2|0,0:0|0:0,0:0:0:0:
256,108,210844,1,2,0:0:0:0:
356,60,211044,1,0,0:0:0:0:
448,228,211244,2,0,L|441:302,1,75.0000028610231,2|0,0:0|0:0,0:0:0:0:
248,182,211644,6,0,L|256:108,1,75.0000028610231,2|0,0:0|0:0,0:0:0:0:
352,168,212044,6,0,B|344:196|352:216|352:216|340:240|340:240|340:264,1,100,0|0,0:0|0:0,0:0:0:0:
