osu file format v14

[General]
AudioFilename: DnH.mp3
AudioLeadIn: 0
PreviewTime: 154862
Countdown: 0
SampleSet: Soft
StackLeniency: 0.7
Mode: 0
LetterboxInBreaks: 0
WidescreenStoryboard: 1

[Editor]
DistanceSpacing: 1
BeatDivisor: 4
GridSize: 4
TimelineZoom: 1.8

[Metadata]
Title:Daia no Hana
TitleUnicode:ダイアの花
Artist:YORICO
ArtistUnicode:より子
Creator:Setsurei
Version:Hard
Source:BLACK CAT
Tags:Yoriko Opening DAITA ブラックキャット Underdogs
BeatmapID:733518
BeatmapSetID:206375

[Difficulty]
HPDrainRate:6
CircleSize:4
OverallDifficulty:6
ApproachRate:7
SliderMultiplier:1.7
SliderTickRate:1

[Events]
//Background and Video events
0,0,"BG.jpg",0,0
//Break Periods
//Storyboard Layer 0 (Background)
//Storyboard Layer 1 (Fail)
//Storyboard Layer 2 (Pass)
//Storyboard Layer 3 (Foreground)
//Storyboard Sound Samples

[TimingPoints]
514,399.866711096301,4,2,1,80,1,0
514,-133.333333333333,4,2,1,80,0,0
6911,-100,4,2,1,80,0,0
26105,-133.333333333333,4,2,1,60,0,0
51696,-100,4,2,1,80,0,1
64492,-100,4,2,1,80,0,0
77288,-200,4,2,1,60,0,0
80487,-100,4,2,1,80,0,0
102879,-100,4,2,1,80,0,1
128471,-100,4,2,1,80,0,0
142066,-100,4,2,1,80,0,0
154862,-133.333333333333,4,2,1,60,0,0
157661,-100,4,2,1,80,0,0
167658,-100,4,2,1,80,0,1
193249,-100,4,2,1,80,0,0
206045,-133.333333333333,4,2,1,60,0,0
212043,-100,4,2,1,40,0,0

[Colours]
Combo1 : 190,175,90
Combo2 : 190,90,90
Combo3 : 90,90,150
Combo4 : 190,190,190
Combo5 : 140,120,170
SliderBorder : 200,200,200

[HitObjects]
448,80,514,6,0,P|393:48|331:56,1,127.500004863739,0|0,3:0|0:0,0:0:0:0:
268,100,1113,1,0,0:0:0:0:
204,139,1313,2,0,P|178:158|147:164,1,63.7500024318696,2|0,0:0|0:0,0:0:0:0:
92,112,1713,2,0,P|117:93|148:87,1,63.7500024318696,0|0,0:0|0:0,0:0:0:0:
203,138,2113,6,0,P|257:170|318:155,1,127.500004863739,0|0,3:0|0:0,0:0:0:0:
388,124,2713,1,0,0:0:0:0:
456,160,2913,2,0,L|479:219,1,63.7500024318696,2|0,0:0|0:0,0:0:0:0:
412,252,3313,2,0,L|422:314,1,63.7500024318696,0|0,0:0|0:0,0:0:0:0:
340,344,3712,6,0,P|308:342|276:346,1,63.7500024318696,0|0,3:0|0:0,0:0:0:0:
204,368,4112,2,0,P|209:306|261:272,1,127.500004863739,0|2,0:0|0:0,0:0:0:0:
276,346,4712,1,0,0:0:0:0:
128,360,4912,2,0,P|76:325|67:263,1,127.500004863739,0|0,0:0|3:0,0:0:0:0:
204,368,5512,5,0,0:0:0:0:
144,280,5712,1,0,0:0:0:0:
128,204,5912,1,0,0:0:0:0:
128,204,6112,2,0,B|168:200|198:228|198:228|232:204|244:207,1,127.500004863739,2|0,0:0|0:0,0:0:0:0:
320,208,6711,2,0,L|337:234,1,31.8750012159348,0|0,0:0|0:0,0:0:0:0:
363,268,6911,6,0,P|445:252|497:187,1,170,4|0,3:0|0:0,0:0:0:0:
388,152,7511,1,0,0:0:0:0:
408,52,7711,2,0,P|447:66|474:99,2,85,2|0|0,0:0|0:0|0:0,0:0:0:0:
216,109,8511,6,0,B|132:112,1,85,0|0,3:0|0:0,0:0:0:0:
36,72,8911,2,0,P|57:41|105:13,1,85,0|0,0:0|0:0,0:0:0:0:
88,216,9311,2,0,P|51:194|26:160,1,85,2|0,0:0|0:0,0:0:0:0:
273,174,9710,2,0,P|238:195|196:198,1,85
132,112,10110,5,0,3:0:0:0:
216,109,10310,1,0,0:0:0:0:
265,39,10510,1,0,0:0:0:0:
346,64,10710,1,0,0:0:0:0:
347,150,10910,1,2,0:0:0:0:
332,227,11110,2,0,P|295:209|272:173,1,85,0|0,0:0|0:0,0:0:0:0:
216,109,11510,1,0,0:0:0:0:
193,204,11710,6,0,P|238:274|312:315,1,170,4|0,0:0|0:0,0:0:0:0:
247,371,12310,2,0,P|179:323|131:253,1,170,0|8,0:0|0:0,0:0:0:0:
135,152,12909,2,0,P|161:118|168:77,1,85,8|8,0:0|0:0,0:0:0:0:
84,84,13309,5,4,0:0:0:0:
121,7,13509,1,0,0:0:0:0:
169,78,13709,1,0,3:0:0:0:
248,116,13909,1,0,0:0:0:0:
335,92,14109,2,0,P|377:87|412:63,1,85,8|0,0:0|0:0,0:0:0:0:
347,9,14509,1,0,3:0:0:0:
265,36,14709,2,0,P|245:73|248:115,1,85,0|0,0:0|0:0,0:0:0:0:
303,199,15109,6,0,P|306:241|287:279,1,85,0|0,0:0|3:0,0:0:0:0:
222,223,15509,1,0,0:0:0:0:
304,200,15708,2,0,P|345:197|383:216,2,85,8|0|0,0:0|0:0|3:0,0:0:0:0:
222,223,16308,1,0,0:0:0:0:
84,244,16508,6,0,P|74:262|71:283,2,42.5,0|0|0,0:0|0:0|0:0,0:0:0:0:
132,174,16908,2,0,P|94:102|13:95,1,170,0|8,3:0|0:0,0:0:0:0:
132,175,17508,1,0,0:0:0:0:
49,173,17708,2,0,B|93:100,1,85,0|0,3:0|0:0,0:0:0:0:
176,68,18108,5,0,0:0:0:0:
260,40,18308,1,0,0:0:0:0:
316,104,18508,1,0,3:0:0:0:
392,64,18707,1,0,0:0:0:0:
392,64,18907,2,0,L|452:124,1,85,8|0,0:0|0:0,0:0:0:0:
404,196,19307,2,0,L|426:278,1,85,0|0,3:0|0:0,0:0:0:0:
359,331,19707,6,0,P|290:290|218:328,1,170,0|0,0:0|3:0,0:0:0:0:
144,372,20307,1,0,0:0:0:0:
75,317,20507,2,0,P|40:294|20:258,2,85,8|0|0,0:0|0:0|3:0,0:0:0:0:
104,236,21107,2,0,B|70:158|130:158|100:70,2,170,0|0|0,0:0|0:0|0:0,0:0:0:0:
176,191,22106,2,0,P|190:151|192:108,1,85,8|0,0:0|0:0,0:0:0:0:
256,212,22506,2,0,L|256:297,1,85,0|0,3:0|0:0,0:0:0:0:
335,191,22906,6,0,P|321:151|319:109,1,85,0|0,0:0|0:0,0:0:0:0:
312,24,23306,1,0,3:0:0:0:
390,58,23506,1,0,0:0:0:0:
319,109,23706,2,0,P|277:103|244:78,1,85,8|0,0:0|0:0,0:0:0:0:
176,28,24106,1,0,3:0:0:0:
92,52,24306,6,0,P|72:89|75:131,1,85,0|0,0:0|0:0,0:0:0:0:
102,211,24705,1,0,0:0:0:0:
56,280,24905,2,0,P|94:295|135:285,1,85,0|0,3:0|0:0,0:0:0:0:
227,262,25305,2,0,L|241:301,3,42.5,8|8|8|8,0:0|0:0|0:0|0:0,0:0:0:0:
298,334,25705,2,0,L|296:292,2,42.5,0|0|8,3:0|0:0|0:0,0:0:0:0:
340,340,26105,6,0,L|377:218,1,127.500004863739,4|0,0:0|0:0,0:0:0:0:
440,172,26705,2,0,P|378:179|329:140,1,127.500004863739,0|0,0:0|0:0,0:0:0:0:
276,84,27305,2,0,P|247:69|216:66,1,63.7500024318696,0|4,3:0|3:0,0:0:0:0:
144,76,27704,5,4,3:0:0:0:
76,112,27904,1,0,0:0:0:0:
44,184,28104,1,4,3:0:0:0:
76,252,28304,1,0,0:0:0:0:
139,295,28504,2,0,P|199:315|261:302,1,127.500004863739,2|0,0:0|0:0,0:0:0:0:
426,318,29304,6,0,P|399:261|407:198,1,127.500004863739,4|0,3:0|0:0,0:0:0:0:
431,127,29904,2,0,P|383:86|321:79,1,127.500004863739,0|0,0:0|0:0,0:0:0:0:
251,114,30504,2,0,L|260:177,1,63.7500024318696,0|4,0:0|3:0,0:0:0:0:
275,254,30903,5,4,3:0:0:0:
239,33,31303,1,0,0:0:0:0:
186,249,31703,1,2,0:0:0:0:
321,79,32103,1,0,0:0:0:0:
240,323,32503,6,0,P|179:340|121:316,1,127.500004863739,4|0,0:0|0:0,0:0:0:0:
80,248,33103,2,0,L|54:122,1,127.500004863739,0|0,3:0|3:0,0:0:0:0:
132,118,33702,2,0,L|144:180,1,63.7500024318696,2|0,3:0|0:0,0:0:0:0:
186,249,34102,5,4,3:0:0:0:
256,280,34302,1,0,0:0:0:0:
332,280,34502,1,4,3:0:0:0:
404,252,34702,1,0,0:0:0:0:
448,191,34902,2,0,B|470:144|470:144|448:104|463:72,1,127.500004863739,0|0,0:0|0:0,0:0:0:0:
336,134,35702,6,0,P|289:91|227:86,1,127.500004863739,4|0,3:0|0:0,0:0:0:0:
147,125,36502,2,0,P|169:184|143:241,1,127.500004863739,2|0,0:0|0:0,0:0:0:0:
250,306,37101,6,0,P|276:288|302:269,1,63.7500024318696,0|4,0:0|3:0,0:0:0:0:
338,48,37701,1,0,0:0:0:0:
391,264,38101,1,2,0:0:0:0:
256,94,38501,1,0,0:0:0:0:
316,328,38901,6,0,P|256:349|199:323,1,127.500004863739,0|0,0:0|0:0,0:0:0:0:
116,229,39501,1,0,0:0:0:0:
256,42,39700,2,0,L|256:169,1,127.500004863739,8|0,0:0|0:0,0:0:0:0:
256,248,40300,1,0,0:0:0:0:
176,240,40500,6,0,P|163:268|164:300,1,63.7500024318696,0|0,0:0|0:0,0:0:0:0:
256,290,40900,2,0,L|256:353,1,63.7500024318696,0|0,0:0|0:0,0:0:0:0:
347,300,41300,2,0,P|348:268|336:240,1,63.7500024318696,8|0,0:0|0:0,0:0:0:0:
287,60,41700,2,0,P|256:52|225:59,1,63.7500024318696,0|0,0:0|0:0,0:0:0:0:
256,135,42100,6,0,L|256:262,1,127.500004863739,0|0,0:0|0:0,0:0:0:0:
315,191,42699,1,0,0:0:0:0:
315,191,42899,2,0,P|256:213|196:193,1,127.500004863739,8|0,0:0|0:0,0:0:0:0:
162,130,43499,1,0,0:0:0:0:
162,130,43699,6,0,P|180:190|153:247,1,127.500004863739,0|0,0:0|0:0,0:0:0:0:
44,132,44499,1,8,0:0:0:0:
100,184,44700,1,0,0:0:0:0:
162,130,44900,2,0,B|184:100|184:100|204:56|251:45,1,127.500004863739,0|0,0:0|0:0,0:0:0:0:
330,70,45499,5,0,0:0:0:0:
377,143,45698,2,0,P|316:156|261:127,1,127.500004863739,0|8,0:0|0:0,0:0:0:0:
261,13,46498,1,0,0:0:0:0:
261,127,46698,1,0,0:0:0:0:
156,74,46898,6,0,P|136:134|148:196,1,127.500004863739,0|0,0:0|0:0,0:0:0:0:
219,264,47498,1,0,0:0:0:0:
286,211,47698,2,0,P|318:211|347:224,1,63.7500024318696,8|0,0:0|0:0,0:0:0:0:
297,293,48098,1,0,0:0:0:0:
220,263,48498,6,0,P|202:203|229:147,1,127.500004863739,0|0,0:0|0:0,0:0:0:0:
304,88,49097,1,0,0:0:0:0:
326,173,49297,1,8,0:0:0:0:
372,360,49697,2,0,P|419:301|408:236,2,127.500004863739,0|4|0,0:0|0:0|0:0,0:0:0:0:
298,323,50897,2,0,L|296:292,3,31.8750012159348,8|0|0|0,0:0|0:0|0:0|0:0,0:0:0:0:
227,262,51297,2,0,L|240:304,2,31.8750012159348,8|0|0,0:0|0:0|0:0,0:0:0:0:
326,173,51696,6,0,L|247:141,1,85,4|0,0:0|0:0,0:0:0:0:
103,160,52096,2,0,L|181:191,1,85,0|0,0:0|0:0,0:0:0:0:
321,255,52463,2,0,P|332:214|326:173,1,85,0|0,0:0|0:0,0:0:0:0:
186,110,52896,2,0,P|175:151|183:193,1,85,8|0,0:0|0:0,0:0:0:0:
267,304,53296,5,0,0:0:0:0:
384,299,53496,2,0,P|407:219|392:136,1,170,0|0,0:0|0:0,0:0:0:0:
124,68,54096,2,0,P|100:148|115:231,1,170,0|8,0:0|0:0,0:0:0:0:
214,224,54695,1,0,0:0:0:0:
248,47,54895,6,0,P|316:7|378:58,1,170,0|8,0:0|0:0,0:0:0:0:
340,125,55495,2,0,P|382:134|422:121,1,85,0|0,0:0|0:0,0:0:0:0:
460,200,55895,2,0,P|380:225|300:199,1,170,0|0,0:0|0:0,0:0:0:0:
222,174,56495,5,0,0:0:0:0:
143,208,56695,2,0,P|135:249|146:289,1,85,0|8,0:0|0:0,0:0:0:0:
223,318,57095,1,0,0:0:0:0:
302,287,57295,2,0,L|380:318,1,85,0|0,0:0|0:0,0:0:0:0:
464,332,57694,2,0,P|459:290|435:255,1,85,8|0,0:0|0:0,0:0:0:0:
364,212,58094,6,0,P|326:192|305:156,1,85,0|0,0:0|0:0,0:0:0:0:
391,122,58494,1,8,0:0:0:0:
454,185,58694,1,0,0:0:0:0:
479,103,58894,2,0,P|431:38|349:39,1,170,0|8,0:0|0:0,0:0:0:0:
268,80,59494,1,0,0:0:0:0:
203,24,59694,6,0,P|186:62|186:104,1,85,0|0,0:0|0:0,0:0:0:0:
204,188,60094,1,8,0:0:0:0:
228,268,60294,1,0,0:0:0:0:
309,312,60494,2,0,B|336:328|336:328|373:254|338:196,1,170,0|8,0:0|0:0,0:0:0:0:
319,95,61093,2,0,P|299:59|298:17,1,85,0|0,0:0|0:0,0:0:0:0:
380,36,61493,5,0,0:0:0:0:
338,196,61693,1,8,0:0:0:0:
418,174,61893,1,0,0:0:0:0:
299,58,62093,1,0,0:0:0:0:
439,94,62293,1,0,0:0:0:0:
278,138,62493,2,0,P|235:139|195:153,1,85,8|0,0:0|0:0,0:0:0:0:
140,272,62893,6,0,L|192:339,1,85,0|0,0:0|0:0,0:0:0:0:
234,256,63293,2,0,L|305:301,1,85,8|0,0:0|0:0,0:0:0:0:
324,216,63692,2,0,L|407:233,1,85,0|0,0:0|0:0,0:0:0:0:
480,276,64092,2,0,P|487:234|479:193,1,85,8|0,0:0|0:0,0:0:0:0:
428,124,64491,1,0,0:0:0:0:
