osu file format v5

[General]
AudioFilename: YMCK - Magical 8Bit Tour.mp3
AudioLeadIn: 2000
PreviewTime: -1
Countdown: 0
SampleSet: Soft
StackLeniency: 0.4
Mode: 0
LetterboxInBreaks: 1
EditorBookmarks: 3168,14154,55562,82604,96125,123168,144083,150421

[Metadata]
Title:Magical 8bit Tour
Artist:YMCK
Creator:Nharox
Version:Hard
Source:
Tags:

[Difficulty]
HPDrainRate:6
CircleSize:3
OverallDifficulty:6
SliderMultiplier:1.4
SliderTickRate:0.5

[Events]
//Background and Video events
0,0,"YMCK.png"
//Break Periods
2,12502,13134
2,72663,81554
2,89354,95075
//Storyboard Layer 0 (Background)
//Storyboard Layer 1 (Failing)
//Storyboard Layer 2 (Passing)
//Storyboard Layer 3 (Foreground)
//Storyboard Sound Samples
//Background Colour Transformations
3,100,163,162,255

[TimingPoints]
472,422.535211267606,4,2,0,100,1
14184,422.535211267606,4,1,0,70,1
42916,-100,4,2,0,100,0
43761,422.535211267606,4,1,0,100,0
44817,422.535211267606,4,2,0,100,0
45451,422.535211267606,4,1,0,100,0
49676,422.535211267606,4,2,0,100,0
50522,422.535211267606,4,1,0,100,0
82634,422.535211267606,4,2,0,100,0
96155,422.535211267606,4,1,0,100,0
97000,422.535211267606,4,2,0,100,0
97845,422.535211267606,4,1,0,100,0
98902,422.535211267606,4,2,0,100,0
99536,422.535211267606,4,1,0,100,0
103761,422.535211267606,4,2,0,100,0
104606,422.535211267606,4,1,0,100,0
110733,422.535211267606,4,2,0,100,0
111367,422.535211267606,4,1,0,100,0
112423,422.535211267606,4,2,0,100,0
113057,422.535211267606,4,1,0,100,0
117282,422.535211267606,4,2,0,100,0
118127,422.535211267606,4,1,0,100,0

[Colours]
Combo1 : 128,128,128
Combo2 : 255,255,128
Combo3 : 255,128,192
Combo4 : 128,255,255

[HitObjects]
256,192,471,2,0,B|256:160|256:160|288:160|288:160|288:192|288:192|288:224|288:224|256:224|256:224|224:224|224:224|224:192|224:192|224:160|224:160|250:160,2,280,0|2|0
256,192,2267,12,8,3007
256,192,3218,5,0
256,96,3429,1,0
352,96,3641,1,0
352,192,3852,2,0,B|384:224|384:224|384:192|384:192|384:160|384:160|354:187,1,140
448,192,4486,1,0
448,288,4697,1,0
352,288,4908,1,0
256,288,5119,1,0
256,192,5331,1,0
256,96,5542,6,0,B|320:96|320:96|320:192,1,140
320,256,6176,1,0
224,256,6387,2,0,B|198:230|198:230|230:198|230:198|198:166|198:166|226:135,1,140
192,64,7021,2,0,B|288:64,1,70
352,64,7443,1,0
352,160,7655,1,0
256,160,7866,1,0
160,160,8077,2,0,B|96:160|96:160|96:64,1,140
192,64,8711,1,0
288,64,8922,1,0
256,160,9133,5,2
256,160,9239,1,2
256,160,9345,1,2
256,160,9450,1,2
256,160,9556,1,2
256,160,9662,1,2
256,160,9767,1,2
256,256,9979,5,2
256,256,10084,1,2
256,256,10190,1,2
256,256,10295,1,2
256,256,10401,1,2
256,256,10507,1,2
256,256,10612,1,2
256,352,10824,5,2
256,352,10929,1,2
256,352,11035,1,2
256,352,11141,1,2
256,352,11246,1,2
256,352,11352,1,2
256,352,11457,1,2
256,192,11563,12,8,12302
256,32,14184,6,8,B|256:128,3,70
256,160,15029,5,0
320,160,15240,1,0
320,224,15451,1,0
256,224,15662,1,0
192,224,15874,1,0
192,160,16085,1,0
192,96,16296,2,0,B|288:96,1,70
320,96,16719,1,0
384,96,16930,1,0
384,160,17141,1,0
384,224,17353,1,8
384,288,17564,1,8
320,288,17775,1,8
256,288,17986,2,8,B|160:288,1,70,8|0
128,288,18409,5,0
128,224,18620,1,0
128,160,18831,1,0
128,96,19043,1,0
128,32,19254,1,0
192,32,19465,1,0
256,32,19676,1,0
320,32,19888,2,0,B|416:32,1,70,0|0
448,32,20310,1,0
448,96,20522,1,8
448,160,20733,1,8
96,32,21789,5,0
96,96,22000,1,0
96,160,22212,1,0
96,224,22423,1,0
96,288,22634,1,0
96,352,22845,1,0
160,352,23057,1,0
224,352,23268,1,0
288,352,23479,1,0
352,352,23691,1,0
416,352,23902,1,0
480,352,24113,1,8
480,288,24324,2,8,B|480:192,1,70
480,160,24747,2,8,B|480:64,1,70,8|0
480,32,25169,5,0
416,32,25381,1,0
352,32,25592,1,0
352,96,25803,1,0
416,96,26014,1,0
416,160,26226,1,0
352,160,26437,1,0
352,224,26648,2,0,B|448:224,1,70
416,288,27071,1,0
352,288,27282,1,8
288,288,27493,1,8
224,288,27705,6,4,B|160:288,6,35
160,288,28550,5,0
96,288,28761,1,0
96,224,28972,2,0,B|192:224,1,70
160,160,29395,1,0
96,160,29606,1,0
96,96,29817,2,0,B|192:96,1,70
160,32,30240,1,0
96,32,30451,1,0
160,32,30662,2,0,B|256:32,1,70
288,32,31085,1,8
288,96,31296,1,8
288,32,31507,1,8
288,160,31930,5,0
256,224,32141,1,0
224,160,32353,1,0
192,224,32564,2,0,B|192:320,1,70
256,288,32986,1,0
320,256,33198,1,0
320,192,33409,1,0
320,128,33620,2,8,B|224:128,1,70
192,128,34043,1,8
192,64,34254,1,2
448,288,35310,5,4
384,256,35522,1,4
448,224,35733,1,4
384,192,35944,2,4,B|288:192,1,70,4|0
160,192,36578,1,0
160,192,36789,5,0
96,192,37000,1,0
128,256,37212,1,0
96,320,37423,1,0
160,320,37634,1,0
128,256,37845,1,8
96,192,38057,1,8
160,192,38268,1,8
128,128,38479,1,8
256,128,38902,5,2
384,128,39324,5,0
384,192,39536,1,0
384,256,39747,1,0
384,192,39958,1,0
384,128,40169,1,0
384,192,40381,1,0
384,256,40592,1,0
384,320,40803,1,0
320,320,41014,1,0
256,320,41226,5,8
256,320,41437,1,8
256,256,41648,1,8
256,256,41860,1,8
256,256,42071,5,0
192,224,42282,1,0
256,192,42493,1,0
192,160,42705,1,0
256,128,42916,1,0
256,128,43022,1,0
256,128,43127,1,0
256,128,43233,1,0
256,128,43338,1,0
256,128,43444,1,0
256,128,43550,1,0
192,96,43761,5,8
256,64,43972,1,8
192,32,44184,1,8
128,64,44395,1,8
128,192,44817,1,0
128,192,44923,1,0
128,192,45029,1,0
128,192,45134,1,0
128,192,45240,1,0
128,256,45451,5,0
160,320,45662,1,0
192,256,45874,1,0
160,192,46085,1,0
224,192,46296,1,0
256,256,46507,1,0
224,320,46719,1,0
288,320,46930,1,0
320,256,47141,1,0
288,192,47353,1,0
256,128,47564,1,0
192,128,47775,2,0,B|192:192|192:192|160:128|160:128|160:224,1,210,0|8
160,352,48831,5,0
224,352,49043,1,0
160,352,49254,1,0
96,352,49465,1,0
96,288,49676,1,0
96,288,49782,1,0
96,288,49888,1,0
96,288,49993,1,0
96,288,50099,1,0
96,288,50205,1,0
96,288,50310,1,0
160,288,50522,1,8
224,288,50733,1,8
192,224,50944,1,8
192,160,51155,1,12
480,32,52212,5,0
448,96,52423,1,0
416,160,52634,1,0
352,160,52845,1,0
320,96,53057,1,0
288,32,53268,1,0
352,32,53479,1,0
416,32,53691,1,2
384,160,54113,1,2
384,288,54536,2,0,B|448:288|448:288|448:352|448:352|352:352,1,210,2|8
256,352,55592,5,0
256,288,55803,1,0
192,288,56014,1,0
192,224,56226,1,0
192,160,56437,1,0
256,160,56648,1,0
320,160,56860,1,0
320,224,57071,1,0
256,224,57282,1,0
192,224,57493,1,0
128,224,57705,1,0
128,288,57916,1,8
128,352,58127,1,8
192,352,58338,1,8
256,352,58550,1,2
384,352,58972,5,0
352,288,59184,1,0
384,224,59395,1,0
352,160,59606,1,0
384,96,59817,1,0
352,32,60029,1,0
384,96,60240,1,0
352,160,60451,1,0
384,224,60662,1,0
352,288,60874,1,0
384,352,61085,1,0
320,352,61296,1,2
352,224,61719,1,2
352,96,62141,1,2
288,96,62353,5,0
224,64,62564,1,0
224,128,62775,1,0
224,64,62986,1,2
192,288,63620,1,0
128,288,63831,1,0
256,288,64254,1,0
128,288,64676,1,0
192,288,64888,1,0
256,288,65099,1,0
320,288,65310,1,2
320,288,65522,1,2
288,160,65944,5,0
224,64,66367,1,0
288,32,66578,1,0
352,64,66789,1,0
288,192,67212,1,8
288,320,67634,1,8
288,192,68057,1,12
256,192,68268,12,8,72493
256,32,82634,5,0
224,96,82845,1,0
256,160,83057,1,0
288,96,83268,1,2
384,96,83585,1,2
384,192,83902,1,0
448,192,84113,1,2
448,288,84430,1,2
352,288,84747,1,0
352,224,84958,2,0,B|320:256|320:256|288:224|288:224|256:256|256:256|224:224|224:224|192:256,1,210,2|0
208,240,85803,1,2
64,192,86226,5,0
96,128,86437,1,2
32,128,86648,1,0
64,192,86860,1,2
64,256,87071,1,2
64,320,87282,1,0
64,256,87493,1,2
160,256,87810,1,2
256,256,88127,1,2
256,192,88338,1,2
256,64,88761,1,2
256,64,89184,1,6
256,224,96155,5,0
256,160,96367,1,0
256,224,96578,1,0
256,160,96789,1,0
192,192,97000,1,0
192,192,97106,1,0
192,192,97212,1,0
192,192,97317,1,0
192,192,97423,1,0
192,192,97529,1,0
192,192,97634,1,0
128,192,97845,5,8
160,256,98057,1,8
192,192,98268,1,8
160,128,98479,1,8
160,256,98902,1,0
160,256,99007,1,0
160,256,99113,1,0
160,256,99219,1,0
160,256,99324,1,0
224,256,99536,5,0
288,288,99747,1,0
352,256,99958,1,0
416,224,100169,1,0
352,192,100381,1,0
288,160,100592,1,0
224,192,100803,1,0
160,160,101014,1,0
96,128,101226,1,0
160,96,101437,1,0
224,64,101648,1,0
288,64,101860,2,0,B|352:64|352:64|288:96|288:96|384:96,1,210,0|8
384,224,102916,5,0
384,224,103127,1,0
320,224,103338,1,0
320,224,103550,1,0
256,224,103761,1,0
256,224,103867,1,0
256,224,103972,1,0
256,224,104078,1,0
256,224,104183,1,0
256,224,104289,1,0
256,224,104395,1,0
192,224,104606,1,8
192,224,104817,1,8
128,224,105029,1,8
128,224,105240,1,8
448,64,106296,5,0
384,96,106507,1,0
320,128,106719,1,0
256,160,106930,1,0
256,224,107141,1,0
320,256,107353,1,0
384,288,107564,1,0
448,320,107775,1,2
448,192,108198,1,2
320,160,108620,2,0,B|388:161|420:161|420:193|420:225|388:225|310:224,1,210,2|8
192,192,109676,5,0
128,192,109888,1,0
192,192,110099,1,0
128,192,110310,1,0
256,192,110733,1,0
256,192,110838,1,0
256,192,110944,1,0
256,192,111050,1,0
256,192,111155,1,0
320,160,111367,5,8
320,224,111578,1,8
384,224,111789,1,8
384,160,112000,1,8
256,192,112423,1,0
256,192,112529,1,0
256,192,112634,1,0
256,192,112740,1,0
256,192,112845,1,0
192,160,113057,5,0
192,224,113268,1,0
192,288,113479,1,0
128,256,113691,1,0
128,192,113902,1,0
64,224,114113,1,0
128,256,114324,1,0
128,192,114536,1,2
256,224,114958,1,2
384,224,115381,1,2
160,224,116014,1,6
288,224,116437,5,0
320,160,116648,1,0
352,96,116860,1,0
288,96,117071,1,0
224,96,117282,1,0
224,96,117388,1,0
224,96,117493,1,0
224,96,117599,1,0
224,96,117705,1,0
224,96,117810,1,0
224,96,117916,1,0
160,96,118127,5,8
192,160,118338,1,8
224,224,118550,1,8
256,160,118761,1,8
64,320,119817,1,0
32,256,120029,1,0
64,192,120240,1,0
32,128,120451,1,0
64,64,120662,1,0
96,128,120874,1,0
128,192,121085,1,0
96,256,121296,1,8
96,128,121719,1,8
96,256,122141,1,12
480,192,123198,5,0
480,192,123409,1,0
480,192,123620,1,0
416,192,123831,1,0
416,192,124043,1,0
416,192,124254,1,0
352,192,124465,1,0
352,192,124676,1,0
352,192,124888,1,0
288,192,125099,1,0
288,192,125310,1,0
288,192,125522,1,8
224,192,125733,1,8
224,192,125944,1,8
224,192,126155,1,8
224,192,126578,5,0
192,128,126789,1,0
128,128,127000,1,0
96,192,127212,1,0
128,256,127423,1,0
192,256,127634,1,0
224,192,127845,1,0
192,128,128057,1,0
128,128,128268,1,0
96,192,128479,1,0
128,256,128691,1,2
160,192,128902,1,2
256,32,129958,5,12
256,128,130169,1,8
256,224,130381,1,8
256,320,130592,1,8
32,320,131226,1,0
96,320,131437,1,0
64,192,131860,1,0
64,64,132282,1,8
128,64,132493,1,8
160,128,132705,1,8
192,64,132916,1,8
224,128,133127,1,8
352,96,133550,5,0
384,224,133972,1,2
320,224,134183,1,2
352,288,134395,1,10
352,160,134817,1,8
352,288,135240,1,8
352,160,135662,1,2
64,224,136507,1,2
192,224,136930,5,0
320,192,137353,1,2
320,256,137564,1,2
384,224,137775,1,10
256,224,138198,1,8
384,224,138620,1,8
320,96,139043,1,2
320,320,139676,1,8
320,320,139888,1,8
192,320,140310,5,8
192,192,140733,1,8
448,64,141578,1,8
448,192,142000,1,8
448,320,142423,1,8
192,192,143268,1,10
256,192,144113,12,8,149184
256,192,149606,6,0,B|256:95|256:95|256:160,1,140
256,288,150451,1,12
