osu file format v5

[General]
AudioFilename: YMCK - Curry da yo!.mp3
AudioLeadIn: 2007
PreviewTime: 40833
Countdown: 0
SampleSet: Normal
StackLeniency: 0.4
Mode: 0
LetterboxInBreaks: 1
EditorBookmarks: 500,3165,14166,33833,44499,63666,73499,74166,76499,80499,111833,133833,136499

[Metadata]
Title:Curry da yo!
Artist:YMCK
Creator:Nharox
Version:SPICY!
Source:
Tags:

[Difficulty]
HPDrainRate:5
CircleSize:5
OverallDifficulty:7
SliderMultiplier:1.6
SliderTickRate:0.5

[Events]
//Background and Video events
0,0,"YMCK.png"
//Break Periods
//Storyboard Layer 0 (Background)
//Storyboard Layer 1 (Failing)
//Storyboard Layer 2 (Passing)
//Storyboard Layer 3 (Foreground)
//Storyboard Sound Samples
//Background Colour Transformations
3,100,255,255,255

[TimingPoints]
500,333.333333333333,4,1,0,100,1
33499,-100,4,2,0,100,0
33833,-100,4,1,0,100,0
52999,-100,4,2,0,100,0
53499,-100,4,1,0,100,0
69499,-100,4,2,0,100,0
69833,-100,4,1,0,100,0
71499,-100,4,2,0,100,0
71999,-100,4,1,0,100,0
93499,-50,4,1,0,100,0
100999,-100,4,2,0,100,0
101499,-50,4,1,0,100,0
111833,-100,4,2,0,100,0
112166,-100,4,1,0,100,0
117499,-100,4,2,0,100,0
117833,-100,4,1,0,100,0
120166,-100,4,2,0,100,0
120499,-100,4,1,0,100,0
122833,-100,4,2,0,100,0
123166,-100,4,1,0,100,0
125499,-100,4,2,0,100,0
125833,-100,4,1,0,100,0

[Colours]
Combo1 : 0,0,0
Combo2 : 255,255,0
Combo3 : 255,0,128
Combo4 : 0,128,255

[HitObjects]
256,32,499,1,0
256,32,666,1,0
176,176,999,1,0
336,176,1333,1,0
256,32,1666,1,0
256,96,1833,5,0
256,96,1999,2,0,B|256:192,1,80
256,240,2333,1,0
256,240,2500,1,0
256,96,2833,5,0
64,64,3166,5,0
128,128,3333,1,0
192,64,3500,1,0
256,128,3666,1,0
320,64,3833,1,0
384,128,4000,1,0
448,64,4166,1,0
448,64,4333,2,0,B|448:160,1,80
448,144,4666,2,0,B|448:256,1,80
448,224,4999,1,0
448,224,5166,5,0
384,160,5333,1,0
320,224,5500,1,0
256,160,5666,1,0
192,224,5833,1,0
128,160,6000,1,0
64,224,6166,1,0
64,224,6333,2,0,B|64:320,1,80
64,304,6666,2,0,B|151:304,1,80
144,304,6999,1,0
144,224,7166,5,0
224,224,7333,1,0
224,144,7500,1,0
304,144,7666,1,0
304,64,7833,1,0
384,64,8000,1,0
384,144,8166,1,0
384,224,8333,1,0
304,224,8499,2,0,B|208:224,1,80
224,224,8833,2,0,B|224:128,1,80
224,144,9166,5,0
144,144,9333,1,0
144,224,9500,1,0
224,224,9666,1,0
304,224,9833,1,0
304,144,10000,1,0
384,144,10166,1,0
384,224,10333,1,0
384,304,10500,1,0
304,304,10666,1,0
304,224,10832,1,0
224,224,10999,1,0
224,304,11166,6,0,B|128:304,1,80
144,304,11499,2,0,B|48:304,1,80
64,304,11833,2,0,B|64:192,1,80
64,224,12166,2,0,B|160:224,1,80
144,224,12499,2,0,B|144:128,1,80
144,144,12833,2,0,B|240:144,1,80
304,144,13166,5,0
320,112,13249,1,0
352,96,13333,1,0
384,112,13416,1,0
400,144,13499,1,0
384,176,13583,1,0
352,192,13666,1,0
320,176,13749,1,0
304,144,13833,1,0
256,320,14166,5,0
256,160,14500,1,0
256,224,14666,1,0
256,64,14999,1,0
256,192,15333,5,8
256,192,15416,1,0
256,192,15499,1,8
256,192,15583,1,0
256,192,15666,1,8
256,192,15749,1,0
256,192,15833,1,8
256,128,15999,5,0
192,192,16166,1,0
256,256,16333,1,0
320,192,16499,1,0
128,192,16833,5,0
288,192,17166,1,0
224,192,17333,1,0
384,192,17666,1,0
384,192,17833,2,8,B|480:192,2,80
384,192,18333,5,0
320,128,18499,1,0
256,192,18665,1,0
320,256,18832,1,0
384,192,18999,1,0
256,192,19165,1,0
256,192,19499,5,0
256,192,19833,1,0
256,192,19999,1,0
256,192,20333,2,0,B|192:128|192:288|96:160,1,160,0|8
256,192,20999,5,0
192,192,21166,1,0
320,192,21333,1,0
256,192,21499,1,0
256,64,21833,1,0
256,192,22166,1,0
256,256,22333,1,0
256,368,22666,6,0,B|256:272,1,80
192,288,22999,1,0
256,288,23166,1,0
320,288,23333,1,0
384,224,23499,1,0
320,160,23666,1,0
256,160,23833,1,0
192,160,23999,1,0
128,224,24166,1,0
160,224,24249,1,0
192,224,24333,1,0
224,224,24416,1,0
256,224,24499,1,0
256,64,24833,5,0
256,192,25167,1,0
256,192,25333,1,0
256,320,25666,1,0
256,192,26000,5,8
256,192,26083,1,0
256,192,26166,1,8
256,192,26249,1,0
256,192,26333,1,8
256,192,26416,1,0
256,192,26500,1,8
192,256,26666,5,0
192,128,26833,1,0
320,128,27000,1,0
320,256,27166,1,0
256,352,27500,5,0
256,224,27833,1,0
256,224,28000,1,0
256,96,28333,1,0
256,96,28499,2,8,B|256:0,2,80
256,96,29000,5,0
192,160,29166,1,0
256,224,29332,1,0
320,288,29499,1,0
256,352,29666,1,0
192,288,29832,1,0
256,160,30166,5,0
256,160,30500,1,0
256,160,30666,1,0
192,288,30999,2,0,B|255:378|319:282,1,160,0|8
256,160,31666,5,0
192,96,31833,1,0
256,32,32000,1,0
320,96,32166,1,0
256,256,32500,1,0
256,256,32833,1,0
193,257,32999,2,0,B|255:59|313:264,1,240
192,96,33833,6,0,B|258:2|327:108,1,160
352,256,34499,1,0
320,256,34583,1,0
288,256,34666,1,0
256,256,34749,1,0
224,256,34833,1,0
192,256,34916,1,0
160,256,34999,1,0
256,32,35499,6,0,B|320:96,1,80
312,88,35833,2,0,B|248:152,1,80
256,144,36166,2,0,B|192:80,1,80
200,88,36499,2,0,B|264:24,1,80
256,32,36833,2,0,B|320:96,1,80
312,88,37166,2,0,B|248:152,1,80
256,144,37499,2,0,B|192:80,1,80
256,88,37833,1,0
256,88,37916,1,0
256,88,37999,1,0
256,88,38083,1,0
256,88,38166,1,0
256,144,38333,1,0
256,352,38833,5,0
256,352,38916,1,0
256,352,38999,1,0
192,288,39166,5,0
192,288,39249,1,0
192,288,39333,1,0
256,224,39499,5,0
256,224,39583,1,0
256,224,39666,1,0
320,288,39833,5,0
320,288,39916,1,0
320,288,39999,1,0
320,160,40166,5,0
320,160,40249,1,0
320,160,40333,1,0
192,160,40499,5,0
192,160,40583,1,0
192,160,40666,1,0
256,224,40833,6,0,B|192:288,1,80
200,280,41167,2,0,B|264:344,1,80
256,336,41500,2,0,B|320:272,1,80
312,280,41833,2,0,B|248:216,1,80
256,224,42167,2,0,B|192:288,1,80
200,280,42500,2,0,B|264:344,1,80
256,336,42833,2,0,B|320:272,1,80
312,279,43166,1,0
312,279,43333,5,0
256,192,43666,1,0
192,96,43999,1,0
256,192,44333,1,0
256,192,44499,5,0
256,192,44666,2,0,B|256:288,1,80
256,272,44999,1,0
256,272,45166,1,0
256,128,45499,5,0
384,128,45833,1,0
384,128,45999,1,0
384,128,46166,1,0
384,128,46333,2,0,B|384:224,1,80
384,208,46666,5,0
384,208,46833,1,0
384,208,46999,2,0,B|288:208,1,80
304,208,47333,5,0
304,208,47499,1,0
304,208,47666,2,0,B|304:304,1,80
304,288,47999,5,0
304,288,48166,1,0
304,288,48333,2,0,B|208:288,1,80
224,288,48666,5,0
224,288,48833,1,0
224,288,48999,2,0,B|112:288,1,80
144,288,49333,5,0
144,288,49499,1,0
144,288,49666,2,0,B|144:192,1,80
144,208,49999,5,0
144,208,50166,1,0
144,208,50333,2,0,B|240:208,1,80
224,208,50666,5,0
224,208,50749,1,0
224,208,50833,1,0
224,208,50916,1,0
224,208,50999,1,0
224,208,51083,1,0
224,208,51166,2,0,B|416:208,1,160
464,208,51666,1,0
256,192,51708,12,0,52999
171,174,53499,5,0
171,174,53833,2,0,B|363:174,1,160
331,174,54333,1,0
331,174,54499,2,0,B|251:22,1,160
256,32,54999,1,0
256,32,55166,2,0,B|163:190,1,160
174,169,55833,1,0
256,320,56166,5,0
256,192,56500,1,0
256,192,56666,1,0
256,192,56833,1,0
256,192,57000,1,0
256,128,57166,1,0
320,128,57333,6,0,B|416:128,2,80
256,128,57833,1,0
256,64,57999,6,0,B|256:-32,2,80
256,128,58499,1,0
192,128,58666,6,0,B|96:128,2,80
256,128,59166,1,0
256,192,59333,6,0,B|262:239|177:185,1,80
128,192,59666,2,0,B|84:206|132:270,1,80
128,320,60000,5,0
192,256,60166,1,0
256,320,60333,1,0
320,256,60499,1,0
256,192,60666,6,0,B|250:239|335:185,1,80
384,192,60999,2,0,B|428:206|380:270,1,80
388,257,61333,5,0
320,320,61499,1,0
256,256,61666,1,0
320,320,61833,2,0,B|128:320,1,160
64,320,62333,2,0,B|140:98|268:2|396:98|460:354,1,640
256,192,64166,5,0
256,192,64499,2,0,B|320:96|384:224,1,160
256,192,64999,1,0
256,192,65166,2,0,B|192:288|128:160,1,160
256,192,65666,1,0
256,192,65833,2,0,B|352:256|224:320,1,160
256,192,66333,1,0
256,192,66499,2,0,B|160:128|288:64,1,160
256,192,66999,1,0
256,192,67166,1,0
256,192,67208,12,0,69499
256,192,69666,5,0
256,192,69749,1,0
256,192,69833,1,0
256,192,69874,12,0,71499
256,192,71999,5,0
256,192,72083,1,0
256,192,72166,1,0
256,192,72249,1,0
256,192,72333,1,0
256,192,72416,1,0
256,192,72499,2,0,B|256:128|160:128|128:256|256:288|192:288|288:320|384:256|384:192|352:128|288:96|224:96,1,480
256,192,73999,5,0
256,192,74083,1,0
256,192,74166,1,0
256,192,74249,1,0
256,192,74333,1,0
256,192,74416,1,0
256,192,74499,5,0
256,192,74583,1,0
256,192,74666,1,0
256,192,74749,1,0
256,192,74833,1,0
256,192,74916,1,0
256,192,74999,5,0
256,192,75083,1,0
256,192,75166,1,0
256,192,75249,1,0
256,192,75333,1,0
256,192,75416,1,0
256,192,75499,5,0
256,192,75583,1,0
256,192,75666,1,0
256,192,75749,1,0
256,192,75833,1,0
256,192,75916,1,0
256,192,75999,5,0
256,192,76083,1,0
256,192,76166,1,0
256,192,76249,1,0
256,192,76333,1,0
256,256,76499,5,0
192,256,76666,1,0
256,256,76833,1,0
320,256,76999,1,0
256,256,77166,1,0
256,256,77333,2,0,B|256:64,1,160
256,32,77999,5,0
256,32,78083,1,0
256,32,78166,2,0,B|256:96,3,40
256,96,78499,6,0,B|256:160,3,40
256,160,78833,6,0,B|256:224,3,40
256,224,79166,6,0,B|256:288,3,40
256,288,79499,6,0,B|256:352,3,40
256,328,79833,5,0
256,328,79916,1,0
256,328,79999,1,0
256,328,80083,1,0
256,328,80166,1,0
256,328,80249,1,0
256,328,80333,1,0
192,320,80499,6,0,B|192:224,1,80
320,256,80833,2,0,B|320:160,1,80
192,160,81166,2,0,B|192:64,1,80
320,96,81499,2,0,B|320:0,1,70
336,192,81833,6,0,B|144:192,3,160
176,192,82999,5,8
176,192,83083,1,8
176,192,83166,1,8
256,288,83499,5,0
320,256,83666,1,0
256,224,83833,1,0
192,192,83999,1,0
256,160,84166,1,0
320,128,84333,1,0
256,96,84499,1,0
192,64,84666,1,0
256,96,84833,5,0
192,128,84999,1,0
256,160,85166,1,0
320,192,85333,1,0
256,224,85499,1,0
192,256,85666,1,0
256,288,85833,2,0,B|256:96,2,160
256,192,86666,1,0
256,192,86833,6,0,B|320:96|384:192,2,160
256,192,87666,1,0
256,192,87833,2,0,B|192:288|128:192,2,160
160,144,88833,6,0,B|160:48,2,80
256,112,89333,1,0
208,32,89499,2,0,B|304:32,2,80
256,112,89999,1,0
336,64,90166,2,0,B|336:160,2,80
256,112,90666,1,0
288,192,90833,2,0,B|192:192,2,80
288,192,91333,5,0
192,32,91666,1,0
64,192,91999,1,0
192,32,92333,1,0
192,32,92499,5,0
192,32,92666,2,0,B|192:128,1,80
192,112,92999,1,0
192,112,93166,1,0
256,352,93499,5,0
256,224,93833,1,0
256,224,93999,1,0
256,224,94166,1,0
256,224,94333,2,0,B|256:32,1,160
256,64,94666,5,0
256,64,94833,1,0
256,64,94999,2,0,B|64:64,1,160
96,64,95333,5,0
96,64,95499,1,0
96,64,95666,2,0,B|96:256,1,160
96,224,95999,5,0
96,224,96166,1,0
96,224,96333,2,0,B|288:224,1,160
256,224,96666,5,0
256,224,96833,1,0
256,224,96999,2,0,B|448:224,1,160
416,224,97333,5,0
416,224,97499,1,0
416,224,97666,2,0,B|256:320,1,160
278,306,97999,5,0
278,306,98166,1,0
280,304,98333,2,0,B|120:208,1,160
142,222,98666,5,0
142,222,98833,1,0
142,222,98999,1,0
142,222,99166,2,0,B|200:134|264:294|287:181,3,160
256,192,99687,12,0,100999
256,192,101499,5,0
256,64,101833,2,0,B|64:192|256:320,1,320
245,312,102333,1,0
248,312,102499,2,0,B|440:184|248:56,1,320
258,63,102999,1,0
256,64,103166,2,0,B|64:192|256:320,1,320
245,312,103666,1,0
245,312,103833,1,0
96,192,104166,5,0
96,32,104499,1,0
96,32,104666,2,0,B|288:32,1,160
256,32,104999,2,0,B|448:32,1,160
416,96,105333,6,0,B|224:96,1,160
256,96,105666,2,0,B|64:96,1,160
96,160,105999,6,0,B|288:160,1,160
256,160,106333,2,0,B|448:160,1,160
416,224,106666,6,0,B|224:224,1,160
256,224,106999,2,0,B|64:224,1,160
96,288,107333,6,0,B|288:288,1,160
256,288,107666,2,0,B|448:288,1,160
320,352,107999,6,0,B|320:160,1,160
320,192,108333,2,0,B|320:0,1,160
224,32,108666,6,0,B|224:224,1,160
224,192,108999,2,0,B|224:384,1,160
256,264,109333,6,0,B|256:72,6,160
256,192,110354,12,0,111833
256,64,112166,5,0
384,192,112499,1,0
256,320,112833,1,0
128,192,113166,1,0
256,64,113499,1,0
256,320,113833,1,0
128,192,114166,1,0
384,192,114499,1,0
256,64,114833,1,0
256,320,115166,1,0
256,192,115208,12,0,117499
256,104,117666,5,0
256,104,117749,1,0
256,104,117833,1,0
256,192,117874,12,0,120166
160,264,120333,5,0
160,264,120416,1,0
160,264,120499,1,0
256,192,120541,12,0,122833
352,264,122999,5,0
352,264,123083,1,0
352,264,123166,1,0
256,192,123208,12,0,125499
256,192,125833,5,0
192,256,125999,1,0
128,192,126166,1,0
192,128,126333,1,0
256,64,126499,1,0
320,128,126666,1,0
384,64,126833,1,0
448,128,126999,1,0
384,192,127166,1,0
320,128,127333,1,0
256,64,127499,5,0
192,128,127666,1,0
256,192,127833,1,0
320,256,127999,1,0
384,192,128166,1,0
448,256,128333,1,0
384,320,128499,1,0
320,256,128666,1,0
256,320,128833,1,0
192,256,128999,1,0
256,192,129166,5,0
256,192,129333,1,0
192,128,129499,1,0
192,128,129666,1,0
256,64,129833,1,0
256,64,129999,1,0
320,128,130166,1,0
320,128,130333,1,0
320,256,130499,1,0
192,256,130666,1,0
256,192,130833,6,0,B|256:288,2,80
256,192,131333,2,0,B|160:192,2,80
256,192,131833,2,0,B|352:192,2,80
256,128,132333,1,0
256,192,132499,5,0
256,128,132666,1,0
320,192,132833,1,0
256,256,132999,1,0
192,192,133166,1,0
256,192,133333,5,0
256,192,133416,5,0
256,192,133499,5,0
256,192,133583,5,0
256,192,133666,5,0
256,192,133749,5,0
256,192,133833,5,0
256,192,133999,12,0,136499
256,192,137832,5,0
256,192,137916,1,0
256,192,137999,1,0
