osu file format v5

[General]
AudioFilename: YMCK - Curry da yo!.mp3
AudioLeadIn: 2007
PreviewTime: 40833
Countdown: 0
SampleSet: Normal
StackLeniency: 0.3
Mode: 0
LetterboxInBreaks: 1
EditorBookmarks: 500,3165,14166,33833,44499,63666,77999,80499,111833,125833,133833,136499

[Metadata]
Title:Curry da yo!
Artist:YMCK
Creator:Nharox
Version:Mild~
Source:
Tags:

[Difficulty]
HPDrainRate:5
CircleSize:3
OverallDifficulty:5
SliderMultiplier:1.2
SliderTickRate:2

[Events]
//Background and Video events
0,0,"YMCK.png"
//Break Periods
2,71699,76799
//Storyboard Layer 0 (Background)
//Storyboard Layer 1 (Failing)
//Storyboard Layer 2 (Passing)
//Storyboard Layer 3 (Foreground)
//Storyboard Sound Samples
//Background Colour Transformations
3,100,255,255,255

[TimingPoints]
500,333.333333333333,4,1,0,100,1
52999,-100,4,2,0,100,0
53499,-100,4,1,0,100,0
69499,-100,4,2,0,100,0
77999,-100,4,1,0,100,0
80499,-100,4,1,0,100,0
100999,-100,4,2,0,100,0
101499,-100,4,1,0,100,0
111833,-100,4,2,0,100,0
112166,333.333333333333,4,2,0,100,1
112166,-100,4,1,0,100,0
117499,-100,4,2,0,100,0
117832,-100,4,1,0,100,0
120166,-100,4,2,0,100,0
120499,-100,4,1,0,100,0
122832,-100,4,2,0,100,0
123166,-100,4,1,0,100,0
125499,-100,4,2,0,100,0
125832,-100,4,1,0,100,0

[Colours]
Combo1 : 0,0,0
Combo2 : 255,255,0
Combo3 : 255,0,128
Combo4 : 0,128,255

[HitObjects]
160,160,1833,6,0,B|257:15|353:175,1,240
256,192,2833,5,0
256,192,3166,6,0,B|64:320|0:32,2,360
256,192,5499,1,0
256,192,5833,6,0,B|448:320|512:32,2,360
256,192,8166,1,0
256,192,8499,6,0,B|64:64|0:352,2,360
256,192,10833,1,0
256,192,11166,6,0,B|448:64|512:352,2,360
256,192,13833,5,0
256,64,14166,5,0
128,64,14500,1,0
128,128,14666,1,0
256,128,14999,1,0
256,320,15499,1,8
256,128,15999,6,0,B|320:96|320:96|320:224,1,180
320,320,16833,5,0
192,320,17166,1,0
192,256,17333,1,0
320,256,17666,1,0
288,96,18333,6,0,B|288:32,2,60,0|0|0
224,96,18833,2,0,B|224:32,2,60
256,224,19499,5,0
256,352,19833,1,0
256,352,19999,1,0
256,224,20333,1,0
160,32,20999,5,0
224,32,21166,1,0
288,32,21333,1,0
352,32,21499,1,0
256,128,21833,1,0
256,256,22166,1,0
256,320,22333,1,0
128,256,22666,6,0,B|160:224|192:192|224:192|224:224|256:256|288:288|320:288|352:256|384:224,2,300
128,256,24499,1,0
256,256,24833,5,0
256,128,25167,1,0
320,128,25333,1,0
448,128,25666,1,0
448,320,26166,5,8
256,320,26666,6,0,B|224:288|224:288|224:352|224:352|192:320|192:320|160:320,1,180
32,320,27500,5,0
32,192,27833,1,0
32,128,28000,1,0
160,128,28333,1,0
416,128,29000,5,0
352,128,29166,1,0
352,192,29332,1,0
288,192,29499,1,0
288,256,29666,1,0
224,256,29832,1,0
224,128,30166,5,0
96,128,30500,1,0
96,192,30666,1,0
96,320,30999,1,0
352,320,31666,6,0,B|416:320,3,60
288,320,32500,1,0
160,320,32833,1,0
96,320,32999,1,0
192,32,33833,6,0,B|328:32,3,120
256,288,35499,5,0
128,256,35833,1,0
256,224,36166,1,0
384,192,36499,1,0
256,160,36833,1,0
128,128,37166,1,0
256,96,37499,1,0
384,64,37833,1,0
256,32,38166,1,0
256,32,38333,1,0
256,224,38833,6,0,B|192:192|160:288,2,120
256,352,39833,2,0,B|320:384|352:288,2,120,0|0|0
160,256,40833,6,0,B|288:256,1,120
384,192,41499,2,0,B|256:192,1,120
160,128,42166,2,0,B|288:128,1,120
384,64,42833,2,0,B|256:64,1,120
256,128,43333,5,0
256,256,43666,1,0
256,128,43999,1,0
256,256,44333,1,0
160,256,44499,6,0,B|257:111|353:271,1,240
256,160,45499,5,0
160,64,45833,1,0
224,32,45999,1,0
288,32,46166,1,0
352,64,46333,1,0
384,192,46666,6,0,B|384:128,2,60
256,192,47333,6,0,B|256:128,2,60
128,192,47999,6,0,B|128:128,2,60
256,192,48666,6,0,B|256:128,2,60
384,192,49333,6,0,B|384:128,2,60
256,192,49999,6,0,B|256:128,2,60
160,288,50666,5,0
224,320,50833,1,0
288,320,50999,1,0
352,288,51166,1,0
256,128,51666,1,0
256,192,51708,12,0,52999
256,224,53499,5,0
160,288,53833,2,0,B|251:413|379:273,3,240
448,192,56166,5,0
448,192,56499,2,0,B|416:160|416:160|416:256|416:256|384:224,1,180,0|0
256,224,57333,6,0,B|256:288,2,60
256,96,58000,5,0
256,96,58166,1,0
256,96,58333,1,0
128,96,58666,6,0,B|128:32,2,60
128,224,59333,5,0
128,224,59500,1,0
128,224,59666,1,0
256,224,59999,6,0,B|320:224,2,60
128,224,60666,5,0
128,224,60833,1,0
128,224,61000,1,0
256,224,61333,6,0,B|288:192|288:192|288:288|288:288|320:256,1,180
144,183,62333,2,0,B|96:183|64:183|32:183|0:151|0:119|0:87|0:55|32:23|64:23|96:23|128:23|160:55|160:87|160:119|213:198,1,480
256,352,64166,5,0
256,352,64499,2,0,B|384:352,1,120
256,352,65166,2,0,B|128:352,1,120
256,352,65833,2,0,B|256:224,1,120
256,112,66499,2,0,B|256:240,1,120,0|0
256,112,67166,1,0
256,192,67208,12,0,69499
256,192,69833,12,0,71499
256,32,77999,6,0,B|256:64,26,30
192,160,80499,6,0,B|192:288,3,120
312,280,81833,6,0,B|312:152,3,120
160,320,83499,5,0
288,320,83833,2,0,B|416:320,1,120
320,224,84499,1,0
192,224,84833,2,0,B|64:224,1,120
160,128,85499,1,0
288,128,85833,2,0,B|416:128,1,120
408,128,86333,1,0
256,256,86833,6,0,B|320:192|247:132,2,120
256,256,87833,2,0,B|192:320|270:376,2,120
128,256,88833,6,0,B|76:196|140:132,2,120
253,265,89833,2,0,B|253:137,1,120
377,162,90499,2,0,B|429:222|365:286,2,120
384,96,91333,5,0
256,96,91666,1,0
128,96,91999,1,0
256,96,92333,1,0
256,96,92499,5,0
256,96,92666,1,0
384,96,92999,1,0
384,96,93166,1,0
256,96,93499,5,0
256,224,93833,5,0
320,224,93999,2,0,B|384:224,1,60
448,224,94333,1,0
448,352,94666,5,0
384,352,94833,2,0,B|320:352,1,60
192,352,95333,6,0,B|192:288,1,60
192,224,95666,1,0
192,96,95999,5,0
128,96,96166,2,0,B|64:96,1,60
64,224,96666,6,0,B|128:224,1,60
192,224,96999,1,0
320,224,97333,5,0
384,224,97500,2,0,B|384:160,1,60
320,64,98000,6,0,B|384:64,1,60
448,64,98333,1,0
448,192,98666,5,0
448,256,98833,1,0
384,224,98999,1,0
320,224,99166,2,0,B|256:224,3,60
256,192,99708,12,0,100999
256,32,101499,5,0
173,126,101833,2,0,B|258:206|258:206|357:121,3,240
256,32,104166,5,0
256,160,104499,2,0,B|192:160,1,60
128,160,104833,2,0,B|128:224,1,60
256,224,105333,6,0,B|320:224,2,60
128,224,105999,5,0
128,288,106166,2,0,B|128:352,1,60
256,352,106665,6,0,B|256:288,1,60
256,224,106999,1,0
256,96,107332,5,0
320,96,107499,1,0
384,96,107665,1,0
384,224,107999,6,0,B|448:224,2,60
256,224,108665,5,0
256,288,108832,2,0,B|256:352,1,60
384,352,109331,6,0,B|384:288,1,60
384,224,109666,2,0,B|384:160,1,60
256,192,110333,12,0,111833
32,224,112166,5,0
96,128,112499,1,0
160,224,112833,1,0
224,128,113166,1,0
352,128,113499,1,0
288,224,113833,1,0
416,224,114166,2,0,B|416:243|416:275|448:275|480:275|477:215,3,120
256,192,115207,12,0,117499
256,192,117833,12,0,120166
256,192,120499,12,0,122832
256,192,123166,12,0,125499
128,160,125832,6,0,B|32:256|64:320|192:320,2,240
192,64,127499,1,0
256,160,127832,1,0
320,64,128165,1,0
416,160,128499,6,0,B|512:256|480:320|352:320,2,240
320,64,130165,1,0
256,160,130499,1,0
192,64,130832,1,0
128,160,131165,6,0,B|32:256|64:320|192:320,2,240
192,64,132832,1,0
256,160,133165,1,0
320,64,133499,1,0
256,192,133999,12,0,136499
256,192,137832,5,0
