osu file format v5

[General]
AudioFilename: YMCK - Curry da yo!.mp3
AudioLeadIn: 2007
PreviewTime: 40833
Countdown: 0
SampleSet: Normal
StackLeniency: 0.4
Mode: 0
LetterboxInBreaks: 1
EditorBookmarks: 500,3165,14166,33833,44499,63666,73499,74166,76499,80499,111833,125833,133833,136499

[Metadata]
Title:Curry da yo!
Artist:YMCK
Creator:Nharox
Version:HOT!
Source:
Tags:

[Difficulty]
HPDrainRate:7
CircleSize:4
OverallDifficulty:6
SliderMultiplier:1.4
SliderTickRate:2

[Events]
//Background and Video events
0,0,"YMCK.png"
//Break Periods
//Storyboard Layer 0 (Background)
//Storyboard Layer 1 (Failing)
//Storyboard Layer 2 (Passing)
//Storyboard Layer 3 (Foreground)
//Storyboard Sound Samples
//Background Colour Transformations
3,100,255,255,255

[TimingPoints]
500,333.333333333333,4,1,0,100,1
33499,-100,4,2,0,100,0
33833,-100,4,1,0,100,0
52999,-100,4,2,0,100,0
53499,-100,4,1,0,100,0
69499,-100,4,2,0,100,0
69833,-100,4,1,0,100,0
71499,-100,4,2,0,100,0
71999,-100,4,1,0,100,0
80166,-100,4,2,0,100,0
80499,-100,4,1,0,100,0
100999,-100,4,2,0,100,0
101499,-100,4,1,0,100,0
111833,-100,4,2,0,100,0
112166,333.333333333333,4,2,0,100,1
112166,-100,4,1,0,100,0
117499,-100,4,2,0,100,0
117832,-100,4,1,0,100,0
120166,-100,4,2,0,100,0
120499,-100,4,1,0,100,0
122832,-100,4,2,0,100,0
123166,-100,4,1,0,100,0
125499,-100,4,2,0,100,0
125832,-100,4,1,0,100,0

[Colours]
Combo1 : 0,0,0
Combo2 : 255,255,0
Combo3 : 255,0,128
Combo4 : 0,128,255

[HitObjects]
256,192,499,1,0
192,160,666,2,0,B|256:96|320:160,3,140
256,192,1833,5,0
256,192,1999,1,0
256,320,2333,1,0
256,320,2500,1,0
256,192,2833,5,0
256,64,3166,5,0
320,64,3333,1,0
384,64,3500,1,0
448,64,3666,1,0
448,128,3833,2,0,B|352:128,1,70
378,128,4166,2,0,B|288:128,1,70
256,128,4500,1,0
256,192,4666,1,0
320,192,4832,1,0
384,192,4999,1,0
448,192,5166,6,0,B|448:288,2,70
384,192,5666,2,0,B|384:288,2,70
320,192,6166,2,0,B|320:288,2,70
256,192,6666,2,0,B|256:288,2,70
256,128,7166,5,0
256,128,7333,1,0
320,128,7500,1,0
320,128,7666,1,0
320,192,7833,1,0
320,192,8000,1,0
320,256,8166,1,0
320,256,8333,1,0
256,256,8500,1,0
256,256,8666,1,0
256,192,8832,1,0
256,192,8999,1,0
192,192,9166,6,0,B|96:192,2,70
192,192,9666,2,0,B|192:288,2,70
192,192,10166,2,0,B|288:192,2,70
192,192,10666,2,0,B|192:96,2,70
192,192,11166,5,0
192,128,11333,1,0
192,64,11500,1,0
128,64,11666,1,0
64,64,11833,1,0
64,128,11999,1,0
64,192,12166,1,0
128,192,12333,1,0
128,256,12500,1,0
128,320,12666,1,0
192,320,12832,1,0
256,320,12999,1,0
256,320,13166,6,0,B|480:352|416:160,1,280
256,192,14166,5,0
128,192,14500,1,0
128,256,14666,1,0
256,256,14999,1,0
384,256,15333,5,8
384,192,15499,1,8
384,128,15666,1,8
384,64,15833,1,8
320,64,15999,5,0
320,128,16166,1,0
320,192,16333,1,0
320,256,16499,1,0
192,256,16833,5,0
192,128,17166,1,0
128,128,17333,1,0
128,256,17666,1,0
128,256,17833,2,8,B|128:352,2,70
128,256,18333,5,0
128,192,18499,1,0
128,192,18665,1,0
128,128,18832,1,0
128,128,18999,1,0
128,64,19165,1,0
256,64,19499,5,0
256,192,19833,1,0
256,192,19999,1,0
256,320,20333,2,0,B|416:320,1,140,0|8
416,192,20999,5,0
384,128,21166,1,0
352,192,21333,1,0
384,256,21499,1,0
256,256,21833,1,0
256,128,22166,1,0
256,128,22333,1,0
128,160,22666,6,0,B|32:160,5,70
96,224,23666,6,0,B|192:224,5,70
288,224,24833,5,0
288,96,25167,1,0
288,96,25333,1,0
288,224,25666,1,0
288,96,26000,5,8
224,128,26166,1,8
288,160,26333,1,8
352,128,26500,1,8
352,192,26666,5,0
416,160,26833,1,0
416,224,27000,1,0
480,192,27166,1,0
288,288,27500,5,0
128,288,27833,1,0
128,224,28000,1,0
128,96,28333,1,0
128,96,28499,2,8,B|128:0,2,70
128,160,29000,5,0
192,160,29166,1,0
192,224,29332,1,0
256,224,29499,1,0
256,288,29666,1,0
320,288,29832,1,0
320,160,30166,5,0
320,32,30500,1,0
320,32,30666,1,0
320,32,30999,2,0,B|320:192,1,140,0|8
352,288,31666,5,0
288,288,31833,1,0
224,288,32000,1,0
160,288,32166,1,0
256,192,32500,1,0
256,64,32833,1,0
192,64,32999,2,0,B|256:224|320:64,1,210
184,192,33833,6,0,B|344:192,3,140
256,32,35499,5,0
160,128,35833,1,0
256,224,36166,1,0
352,128,36499,1,0
256,224,36833,1,0
160,320,37166,1,0
256,224,37499,1,0
352,320,37833,2,0,B|352:224,1,70
352,192,38166,1,0
352,192,38333,1,0
256,64,38833,5,0
256,192,39166,1,0
256,320,39499,1,0
256,192,39833,1,0
256,64,40166,1,0
256,192,40499,1,0
256,320,40833,5,0
160,224,41166,1,0
256,128,41499,1,0
352,224,41833,1,0
256,320,42166,1,0
160,224,42499,1,0
256,128,42833,1,0
352,224,43166,1,0
352,224,43333,5,0
160,224,43666,1,0
256,320,43999,1,0
256,128,44333,1,0
256,128,44499,5,0
256,128,44666,1,0
256,256,44999,1,0
256,256,45166,1,0
256,128,45499,5,0
160,32,45833,1,0
224,32,45999,1,0
288,32,46166,1,0
352,32,46333,1,0
320,160,46666,5,0
256,160,46833,1,0
192,160,46999,1,0
320,224,47333,5,0
320,288,47499,1,0
320,352,47666,1,0
384,224,47999,5,0
448,224,48166,1,0
512,224,48333,1,0
384,160,48666,5,0
384,96,48833,1,0
384,32,48999,1,0
320,160,49333,5,0
256,160,49499,1,0
192,160,49666,1,0
192,288,49999,5,0
192,224,50166,1,0
192,160,50333,1,0
64,160,50666,5,0
128,160,50833,1,0
192,160,50999,1,0
256,160,51166,1,0
480,160,51666,1,0
256,192,51708,12,0,52999
256,192,53499,5,0
114,332,53833,2,0,B|274:332,1,140
394,332,54499,2,0,B|234:332,1,140
256,192,55166,2,0,B|256:352,1,140
256,192,55833,1,0
256,64,56166,5,0
256,192,56500,1,0
192,224,56666,1,0
256,256,56833,1,0
320,224,57000,1,0
448,224,57333,5,0
448,160,57500,1,0
384,160,57666,1,0
256,160,58000,5,0
256,96,58166,1,0
192,96,58333,1,0
64,96,58666,5,0
64,160,58833,1,0
128,160,59000,1,0
128,288,59333,5,0
64,288,59500,1,0
64,224,59666,1,0
192,224,60000,5,0
256,224,60166,1,0
256,288,60333,1,0
384,288,60666,5,0
448,288,60833,1,0
448,224,61000,1,0
448,96,61333,5,0
384,96,61500,1,0
384,160,61666,1,0
320,160,61833,1,0
462,249,62333,2,0,B|238:473|14:217,1,490
256,192,64166,5,0
256,192,64499,2,0,B|416:192,1,140
256,192,65166,2,0,B|96:192,1,140
256,192,65833,2,0,B|256:352,1,140
256,192,66499,2,0,B|256:32,1,140
256,192,67166,1,0
256,192,67208,12,0,69499
256,192,69833,5,0
256,192,69874,12,0,71458
256,192,71999,6,0,B|256:128,5,35
256,192,72499,2,0,B|224:192|192:192|160:192|128:224|128:256|128:288|128:320|160:352|192:352|224:352|256:352|288:320|288:256|288:224,1,420
352,192,73999,6,0,B|288:192,4,35
320,192,74416,6,0,B|256:192,4,35
288,192,74833,6,0,B|224:192,4,35
256,192,75249,6,0,B|192:192,4,35
224,192,75666,6,0,B|160:192,4,35
192,192,76083,6,0,B|128:192,4,35
160,192,76499,2,0,B|64:192,4,70
160,192,77333,2,0,B|256:320|350:167,1,210
256,192,77999,12,0,80166
160,192,80499,6,0,B|160:288,1,70
224,192,80833,2,0,B|224:288,1,70
288,192,81166,2,0,B|288:288,1,70
352,192,81499,2,0,B|352:288,1,70
320,320,81833,5,0
192,320,82166,1,0
320,320,82499,1,0
192,320,82833,1,0
256,192,83499,5,0
256,64,83833,1,0
128,192,84166,1,0
256,320,84499,1,0
384,192,84833,1,0
192,224,85166,1,0
320,224,85499,1,0
192,128,85833,2,0,B|288:128,1,70
328,128,86166,2,0,B|232:128,1,70
288,288,86833,6,0,B|352:224|288:160,2,140
224,224,87833,2,0,B|160:288|224:352,2,140
256,96,88833,5,0
128,96,89166,1,0
128,224,89499,1,0
128,352,89833,1,0
256,352,90166,1,0
384,352,90499,1,0
384,224,90833,1,0
384,96,91166,1,0
384,96,91333,5,0
256,96,91666,1,0
128,96,91999,1,0
256,96,92333,1,0
256,96,92499,5,0
256,96,92666,1,0
384,96,92999,1,0
384,96,93166,1,0
256,96,93499,5,0
256,224,93833,1,0
256,288,93999,1,0
192,288,94166,1,0
192,224,94333,2,0,B|192:128,1,70
192,96,94666,5,0
128,96,94833,1,0
128,160,94999,2,0,B|32:160,1,70
64,96,95333,5,0
128,96,95499,1,0
192,96,95666,2,0,B|192:192,1,70
256,160,95999,5,0
256,96,96166,1,0
320,96,96333,2,0,B|320:192,1,70
320,224,96666,5,0
256,224,96833,1,0
256,288,96999,2,0,B|352:288,1,70
384,288,97333,5,0
384,352,97499,1,0
320,352,97666,2,0,B|224:352,1,70
192,352,97999,5,0
128,352,98166,1,0
64,352,98333,2,0,B|64:256,1,70
128,288,98666,5,0
192,288,98833,1,0
160,224,98999,1,0
160,224,99166,2,0,B|218:136|282:296|346:168,1,210
256,192,99708,12,0,100999
256,32,101499,5,0
192,160,101833,2,0,B|352:96,1,140
336,192,102499,2,0,B|176:256,1,140
224,320,103166,2,0,B|384:256,1,140
256,192,103833,1,0
256,64,104166,5,0
384,64,104499,1,0
384,128,104666,2,0,B|480:128,1,70
448,192,104999,2,0,B|448:288,1,70
384,256,105333,6,0,B|384:160,1,70
320,192,105666,2,0,B|224:192,1,70
192,192,105999,6,0,B|96:192,1,70
64,192,106333,2,0,B|64:96,1,70
64,64,106666,6,0,B|160:64,1,70
192,64,106999,2,0,B|192:160,1,70
192,192,107333,6,0,B|192:288,1,70
192,320,107666,2,0,B|288:320,1,70
320,320,107999,6,0,B|320:224,1,70
320,192,108333,2,0,B|416:192,1,70
384,128,108666,6,0,B|288:128,1,70
256,128,108999,2,0,B|256:224,1,70
256,256,109333,6,0,B|256:352,6,70
256,192,110374,12,0,111833
96,64,112166,5,0
160,160,112499,1,0
224,64,112833,1,0
288,160,113166,1,0
352,64,113499,1,0
416,160,113833,1,0
352,256,114166,1,0
256,160,114499,1,0
160,256,114833,1,0
256,352,115166,1,0
256,192,115207,12,0,117499
256,128,117833,5,0
256,192,117874,12,0,120165
192,256,120499,5,0
256,192,120540,12,0,122832
320,256,123166,5,0
256,192,123207,12,0,125499
64,320,125833,6,0,B|64:224|64:224|192:224,1,210
179,224,126499,6,0,B|179:128|179:128|51:128,1,210
66,129,127166,6,0,B|66:33|66:33|194:33,1,210
181,34,127833,6,0,B|277:34|277:34|277:162,1,210
277,148,128499,6,0,B|181:148|181:148|181:20,1,210
181,35,129166,6,0,B|85:35|85:35|85:163,1,210
85,149,129833,6,0,B|85:245|85:245|213:245,1,210
198,244,130499,6,0,B|198:148|198:148|326:148,1,210
312,148,131166,6,0,B|408:148|408:148|408:276,1,210
409,261,131833,6,0,B|313:261|313:261|313:133,1,210
288,96,132499,5,0
288,96,132666,5,0
224,96,132833,5,0
224,96,132999,5,0
256,160,133166,5,0
256,160,133332,6,0,B|256:224,6,35
256,192,133999,12,0,136499
256,192,137833,6,0,B|256:128,2,35
