osu file format v12

[General]
AudioFilename: Cover Of BigYajue [].mp3
AudioLeadIn: 2000
PreviewTime: 4845
Countdown: 0
SampleSet: None
StackLeniency: 0.7
Mode: 0
LetterboxInBreaks: 1
WidescreenStoryboard: 1

[Editor]
Bookmarks: 66020,74742
DistanceSpacing: 1
BeatDivisor: 4
GridSize: 4
TimelineZoom: 2.7

[Metadata]
Title:BIG YAJUE
TitleUnicode:BIG YAJUE
Artist:YJSNPI
ArtistUnicode:野獣先輩
Creator:Alternative
Version:soudayo
Source:ニコニコ動画
Tags:真夏の夜の淫夢 Yajue Big blue kusai kusasou homo inm babylon stage 114514 nonke manatsu no yoru no inmu tadocoro tadokoro kouji N_a_s_y_a sekai no toono Nasya world of toono 世界のトオノ 田所
BeatmapID:384942
BeatmapSetID:156430

[Difficulty]
HPDrainRate:7
CircleSize:4
OverallDifficulty:7
ApproachRate:9
SliderMultiplier:1.92
SliderTickRate:1

[Events]
//Background and Video events
0,0,"50eGvAN.jpg",0,0
//Break Periods
//Storyboard Layer 0 (Background)
//Storyboard Layer 1 (Fail)
//Storyboard Layer 2 (Pass)
//Storyboard Layer 3 (Foreground)
//Storyboard Sound Samples
//Background Colour Transformations
3,100,163,162,255

[TimingPoints]
566,272.727272727273,4,2,1,80,1,0
21156,-200,4,2,1,80,0,0
22111,-100,4,2,1,80,0,0
37656,-200,4,2,1,80,0,0
39020,-100,4,2,1,80,0,0

[Colours]
Combo1 : 138,138,0
Combo2 : 0,136,0
Combo3 : 187,61,0
Combo4 : 91,0,91

[HitObjects]
296,244,566,6,0,B|344:252|344:252|412:236,1,96
460,176,838,1,0,0:0:0:0:
416,92,975,2,0,P|372:112|332:144,1,96
296,244,1247,1,0,0:0:0:0:
240,164,1384,2,0,P|196:184|156:216,1,96
120,316,1656,1,0,0:0:0:0:
48,192,1793,6,0,P|48:124|60:80,2,96
80,304,2202,1,0,0:0:0:0:
168,264,2338,1,0,0:0:0:0:
264,256,2475,1,0,0:0:0:0:
228,104,2611,5,0,0:0:0:0:
264,256,2747,1,0,0:0:0:0:
228,104,2884,1,0,0:0:0:0:
264,256,3020,1,0,0:0:0:0:
340,144,3156,6,0,L|452:152,1,96
472,248,3429,1,0,0:0:0:0:
252,112,3566,2,0,L|364:120,1,96
384,216,3839,1,0,0:0:0:0:
204,252,3975,6,0,L|152:260,1,48,4|0,3:2|3:0,0:0:0:0:
68,276,4111,1,2,0:3:0:0:
88,140,4247,1,8,0:3:0:0:
196,212,4384,1,8,0:3:0:0:
156,64,4520,1,4,0:3:0:0:
116,212,4656,1,4,0:3:0:0:
236,20,4793,1,4,3:0:0:0:
300,192,4929,5,4,0:0:0:0:
300,192,5066,2,0,L|424:200,1,96,0|2,0:0|0:0,0:0:0:0:
324,328,5338,2,0,L|208:352,1,96,8|2,0:0|0:0,0:0:0:0:
116,212,5611,2,0,L|148:104,1,96,0|2,0:0|0:0,0:0:0:0:
340,88,5884,2,0,L|260:180,1,96,8|0,0:0|0:0,0:0:0:0:
208,280,6156,1,2,0:0:0:0:
360,220,6293,2,0,L|468:224,1,96,8|0,0:0|0:0,0:0:0:0:
216,136,6566,5,2,0:0:0:0:
340,88,6702,1,2,0:0:0:0:
392,212,6838,1,2,0:0:0:0:
268,260,6974,1,8,0:0:0:0:
104,160,7111,5,2,0:0:0:0:
64,280,7247,1,0,0:0:0:0:
208,228,7384,2,0,P|264:224|320:228,1,96,8|0,0:2|0:0,0:0:0:0:
412,336,7656,2,0,P|356:340|300:336,2,96,8|4|2,0:3|0:3|0:0,0:0:0:0:
448,192,8066,2,0,L|464:76,1,96,4|0,0:1|0:0,0:0:0:0:
320,80,8338,5,8,0:3:0:0:
324,176,8475,1,4,0:3:0:0:
328,272,8611,1,4,0:3:0:0:
216,340,8747,2,0,L|100:320,1,96,8|0,0:3|0:0,0:0:0:0:
104,208,9020,2,0,L|-12:228,1,96,4|0,0:3|0:0,0:0:0:0:
184,96,9293,5,4,0:1:0:0:
220,187,9429,1,0,0:0:0:0:
261,275,9566,2,0,P|305:339|345:375,1,96,8|2,0:0|0:0,0:0:0:0:
376,220,9838,2,0,P|420:156|460:120,1,96,0|2,0:0|0:0,0:0:0:0:
464,308,10111,1,8,0:0:0:0:
232,180,10247,6,0,P|168:188|128:196,1,96,4|0,0:1|0:0,0:0:0:0:
96,304,10519,1,8,0:3:0:0:
137,193,10656,1,4,0:3:0:0:
40,148,10792,1,0,0:0:0:0:
180,272,10928,6,0,L|188:368,1,96,8|0,0:3|0:0,0:0:0:0:
296,248,11201,2,0,L|304:152,1,96,4|0,0:3|0:0,0:0:0:0:
188,56,11475,5,2,0:0:0:0:
96,84,11611,1,0,0:0:0:0:
84,180,11747,1,8,0:0:0:0:
164,232,11884,1,0,0:0:0:0:
240,172,12020,1,8,0:3:0:0:
328,204,12156,1,0,0:0:0:0:
332,300,12293,1,4,0:3:0:0:
248,344,12429,1,4,0:1:0:0:
240,172,12566,6,0,P|276:124|316:92,1,96,2|0,0:0|0:0,0:0:0:0:
332,300,12838,2,0,P|296:348|256:380,1,96,8|0,0:0|0:0,0:0:0:0:
352,192,13111,2,0,P|400:228|432:268,1,96,2|0,0:0|0:0,0:0:0:0:
224,284,13383,2,0,P|176:248|144:208,1,96,8|0,0:0|3:0,0:0:0:0:
80,72,13656,6,0,L|56:180,1,96,4|0,0:1|0:0,0:0:0:0:
100,272,13929,2,0,P|160:252|224:240,1,96,8|0,0:0|0:0,0:0:0:0:
352,192,14202,1,2,0:0:0:0:
356,316,14338,1,0,0:0:0:0:
468,248,14475,1,0,0:0:0:0:
352,192,14611,2,0,P|288:176|216:168,1,96,12|0,0:0|0:0,0:0:0:0:
164,156,14884,1,2,0:0:0:0:
352,192,15020,6,0,L|220:200,1,96,8|0,0:0|0:0,0:0:0:0:
132,308,15293,2,2,L|264:300,1,96,0|0,0:0|0:0,0:0:0:0:
132,164,15566,2,0,L|0:172,1,96,8|0,0:0|0:0,0:0:0:0:
132,308,15838,5,4,0:1:0:0:
200,240,15975,1,2,0:0:0:0:
268,308,16111,1,8,0:0:0:0:
312,224,16247,1,0,0:0:0:0:
392,280,16384,2,0,P|312:256|260:260,1,96,8|0,0:3|0:0,0:0:0:0:
256,144,16656,1,4,0:3:0:0:
176,284,16793,2,0,P|256:308|308:304,1,96,4|0,0:1|0:0,0:0:0:0:
392,280,17066,5,2,0:0:0:0:
256,144,17202,1,8,0:0:0:0:
148,304,17338,1,0,0:0:0:0:
252,112,17475,5,2,0:0:0:0:
368,256,17611,1,0,0:0:0:0:
248,80,17747,1,8,0:0:0:0:
164,272,17884,1,8,0:0:0:0:
244,52,18020,6,0,L|356:64,1,96,4|0,0:1|0:0,0:0:0:0:
420,196,18293,2,0,L|308:184,1,96,8|0,0:0|0:0,0:0:0:0:
172,192,18566,1,8,0:3:0:0:
224,304,18702,1,4,0:3:0:0:
104,100,18838,1,0,0:0:0:0:
156,312,18975,6,0,L|188:408,1,96,4|0,0:1|0:0,0:0:0:0:
248,220,19247,1,2,0:0:0:0:
92,180,19384,2,0,P|40:224|8:264,1,96,8|0,0:0|0:0,0:0:0:0:
176,336,19656,5,2,0:0:0:0:
208,244,19793,1,2,0:0:0:0:
244,156,19929,1,2,0:0:0:0:
276,64,20066,1,2,0:0:0:0:
328,184,20202,6,0,L|224:192,1,96,4|0,0:1|0:0,0:0:0:0:
304,296,20475,2,0,L|408:288,1,96,8|0,0:0|0:0,0:0:0:0:
384,88,20747,5,8,0:3:0:0:
268,216,20884,1,4,0:3:0:0:
192,84,21020,1,4,0:3:0:0:
72,264,21156,6,0,P|132:264|396:368,1,336,4|0,0:1|0:0,0:0:0:0:
380,200,22384,6,0,P|300:228|272:244,1,96,4|0,0:1|0:0,0:0:0:0:
128,308,22656,2,0,L|160:176,1,96,8|0,0:0|0:0,0:0:0:0:
192,128,22929,1,2,0:0:0:0:
272,76,23066,1,0,0:0:0:0:
368,72,23202,1,8,0:0:0:0:
444,200,23338,6,0,P|364:200|324:204,1,96,2|0,0:0|0:0,0:0:0:0:
400,296,23611,1,0,0:0:0:0:
320,120,23747,2,0,P|240:120|200:124,1,96,8|0,0:0|0:0,0:0:0:0:
88,220,24020,5,2,0:0:0:0:
184,220,24156,1,0,0:0:0:0:
280,236,24293,1,8,0:0:0:0:
368,276,24429,1,0,0:0:0:0:
320,120,24566,6,0,L|236:176,1,96,2|0,0:0|0:0,0:0:0:0:
108,128,24838,2,0,L|88:226,1,96,8|0,0:0|0:0,0:0:0:0:
212,352,25111,2,0,L|192:254,2,96,2|0|8,0:0|0:0|0:0,0:0:0:0:
328,352,25520,6,0,P|396:320|508:336,1,192,2|2,0:0|0:0,0:0:0:0:
444,212,25929,2,0,P|436:144|432:88,1,96,8|0,0:0|0:0,0:0:0:0:
312,192,26202,1,2,0:0:0:0:
252,276,26338,1,0,0:0:0:0:
388,284,26475,1,8,0:0:0:0:
252,104,26611,1,0,0:0:0:0:
120,208,26747,6,0,P|96:272|88:328,1,96,2|0,0:0|0:0,0:0:0:0:
252,276,27020,2,0,P|248:196|240:156,1,96,8|0,0:0|0:0,0:0:0:0:
116,48,27293,1,2,0:0:0:0:
76,192,27429,1,0,0:0:0:0:
236,48,27566,1,8,0:0:0:0:
164,184,27702,6,0,L|72:356,1,192,2|0,0:0|0:0,0:0:0:0:
288,340,28111,2,0,L|300:204,1,96,8|0,0:0|0:0,0:0:0:0:
392,80,28384,5,2,0:0:0:0:
404,208,28520,1,0,0:0:0:0:
288,148,28656,1,8,0:0:0:0:
392,80,28793,1,0,0:0:0:0:
296,268,28929,6,0,P|160:300|76:292,2,192,2|8|2,0:0|0:0|0:0,0:0:0:0:
288,148,29611,1,0,0:0:0:0:
400,304,29747,1,8,0:0:0:0:
468,156,29884,2,0,P|376:132|324:204,1,192,2|0,0:0|0:0,0:0:0:0:
304,36,30293,5,8,0:0:0:0:
48,172,30566,1,8,0:0:0:0:
296,312,30838,2,0,P|332:276|468:292,1,192,8|4,0:0|0:1,0:0:0:0:
462,287,31179,1,0,0:0:0:0:
462,287,31247,1,0,0:0:0:0:
412,120,31384,2,0,L|392:56,2,48
160,120,31656,5,2,0:0:0:0:
88,288,31793,1,0,0:0:0:0:
256,360,31929,1,8,0:0:0:0:
328,192,32066,2,0,L|376:92,1,96,4|0,0:1|0:0,0:0:0:0:
232,72,32338,5,2,0:0:0:0:
232,72,32475,2,0,L|116:84,1,96,8|0,0:0|0:0,0:0:0:0:
128,212,32747,1,2,0:0:0:0:
128,212,32884,2,0,L|12:200,2,96,0|8|0,0:0|0:0|0:0,0:0:0:0:
236,320,33293,6,0,L|304:352,2,48,2|0|0,0:0|0:0|0:0,0:0:0:0:
376,240,33566,2,0,L|444:208,2,48,8|0|0,0:0|0:0|0:0,0:0:0:0:
256,136,33838,1,2,0:0:0:0:
96,28,33975,1,0,0:0:0:0:
56,212,34111,1,8,0:0:0:0:
256,136,34247,6,0,P|348:120|392:124,1,96,4|0,0:1|0:0,0:0:0:0:
472,192,34520,1,8,0:3:0:0:
472,192,34656,1,4,0:3:0:0:
472,192,34929,5,4,0:3:0:0:
304,192,35066,1,8,0:3:0:0:
152,104,35202,1,4,0:3:0:0:
72,248,35338,1,4,0:3:0:0:
216,160,35475,6,0,P|272:136|320:128,1,96,4|0,0:1|0:0,0:0:0:0:
392,216,35747,1,8,0:0:0:0:
288,316,35884,2,0,L|272:208,1,96,2|0,0:0|0:0,0:0:0:0:
152,104,36156,1,0,0:0:0:0:
108,216,36293,1,8,0:0:0:0:
188,308,36429,1,0,0:0:0:0:
312,156,36566,6,0,P|380:160|416:176,1,96,2|0,0:0|0:0,0:0:0:0:
456,340,36838,1,8,0:0:0:0:
456,340,36975,2,0,P|376:300|348:264,1,96,2|0,0:0|0:0,0:0:0:0:
256,88,37247,5,8,0:3:0:0:
140,92,37384,1,4,0:3:0:0:
52,168,37520,1,4,0:3:0:0:
40,284,37656,6,0,B|168:220|200:348|336:256,1,288,4|8,0:1|0:0,0:0:0:0:
376,108,38747,2,0,L|396:208,1,96
394,202,39293,5,8,0:3:0:0:
256,202,39497,1,4,0:3:0:0:
117,202,39702,1,4,0:3:0:0:
180,72,39838,6,0,L|296:60,1,96,4|0,0:1|0:0,0:0:0:0:
336,164,40111,2,0,L|452:176,1,96,8|0,0:0|0:0,0:0:0:0:
220,172,40384,1,2,0:0:0:0:
200,304,40520,1,0,0:0:0:0:
104,120,40656,1,8,0:0:0:0:
84,252,40792,1,0,0:0:0:0:
252,96,40929,6,0,P|304:88|364:92,1,96
412,288,41202,1,8,0:0:0:0:
272,228,41338,2,0,P|232:272|208:320,2,96,2|0|0,0:0|0:0|0:0,0:0:0:0:
176,104,41747,2,0,L|60:92,1,96,8|0,0:0|0:0,0:0:0:0:
84,252,42020,5,2,0:0:0:0:
188,200,42156,1,0,0:0:0:0:
224,312,42293,1,8,0:0:0:0:
324,256,42429,2,0,L|444:208,1,96
344,68,42702,2,0,P|284:88|216:228,1,192,2|0,0:0|0:0,0:0:0:0:
304,332,43111,5,0,0:0:0:0:
304,332,43179,1,0,0:0:0:0:
304,332,43247,1,0,0:0:0:0:
340,192,43384,1,8,0:0:0:0:
212,96,43520,1,0,0:0:0:0:
176,236,43656,1,0,0:0:0:0:
340,192,43793,2,0,P|408:196|464:304,1,192,0|8,0:0|0:0,0:0:0:0:
208,324,44202,5,4,0:1:0:0:
236,232,44338,1,0,0:0:0:0:
300,160,44475,1,8,0:0:0:0:
388,124,44611,2,0,P|328:208|216:192,1,192
120,72,45020,2,0,P|192:88|248:112,1,96,8|0,0:0|0:0,0:0:0:0:
328,244,45293,5,0,0:0:0:0:
344,352,45429,1,0,0:0:0:0:
424,184,45566,1,8,0:0:0:0:
244,312,45702,6,0,L|44:320,1,192,2|0,0:0|0:0,0:0:0:0:
132,192,46111,2,0,L|240:216,1,96,8|0,0:0|0:0,0:0:0:0:
328,244,46384,5,2,0:0:0:0:
424,184,46520,1,0,0:0:0:0:
488,276,46656,1,8,0:0:0:0:
392,336,46792,1,0,0:0:0:0:
204,176,46929,5,2,0:0:0:0:
344,160,47066,1,0,0:0:0:0:
364,300,47202,1,8,0:0:0:0:
224,316,47338,2,0,P|156:304|64:224,1,192,2|0,0:0|0:0,0:0:0:0:
64,224,47747,6,0,P|112:279|160:303,1,96,8|2,0:0|0:0,0:0:0:0:
224,316,48020,1,0,0:0:0:0:
204,176,48156,1,2,0:0:0:0:
224,316,48293,1,0,0:0:0:0:
204,176,48429,1,2,0:0:0:0:
344,256,48566,6,0,P|384:212|428:176,1,96,4|2,0:1|0:0,0:0:0:0:
360,36,48838,2,0,P|340:96|328:136,1,96,8|2,0:0|0:0,0:0:0:0:
216,228,49111,2,0,P|204:160|184:108,1,96,0|2,0:0|0:0,0:0:0:0:
56,200,49384,1,8,0:0:0:0:
112,332,49520,2,0,P|168:332|332:344,1,192,2|0,0:0|0:0,0:0:0:0:
400,240,49929,5,8,0:0:0:0:
332,136,50066,1,0,0:0:0:0:
272,244,50202,1,2,0:0:0:0:
356,96,50338,1,0,0:0:0:0:
244,280,50475,1,8,0:0:0:0:
380,60,50611,1,2,0:0:0:0:
220,320,50747,6,0,L|104:332,1,96,2|0,0:0|0:0,0:0:0:0:
128,220,51020,2,0,L|12:232,1,96,8|0,0:0|0:0,0:0:0:0:
184,96,51293,2,0,L|288:100,2,96,2|0|8,0:0|0:0|0:0,0:0:0:0:
128,220,51702,2,0,P|200:316|304:304,1,192,2|0,0:0|0:0,0:0:0:0:
412,264,52111,1,8,0:0:0:0:
324,224,52247,1,0,0:0:0:0:
228,208,52384,5,2,0:0:0:0:
412,264,52520,1,2,0:0:0:0:
128,220,52656,1,0,0:0:0:0:
324,224,52793,1,8,0:0:0:0:
256,80,52929,5,4,0:1:0:0:
176,24,53066,1,2,0:0:0:0:
152,116,53202,1,8,0:0:0:0:
360,44,53338,5,2,0:0:0:0:
336,136,53475,1,2,0:0:0:0:
256,80,53611,1,8,0:0:0:0:
128,220,53747,5,2,0:0:0:0:
236,176,53884,1,2,0:0:0:0:
324,264,54020,1,8,0:0:0:0:
192,268,54156,5,2,0:0:0:0:
300,224,54293,1,2,0:0:0:0:
388,312,54429,1,8,0:0:0:0:
152,348,54566,5,0,0:0:0:0:
360,348,54702,1,0,0:0:0:0:
256,276,54838,6,0,B|224:196|292:168|240:72,1,192,0|2,0:3|0:0,0:0:0:0:
124,40,55247,5,2,0:0:0:0:
88,184,55384,1,8,0:0:0:0:
200,116,55520,1,2,0:0:0:0:
192,268,55656,5,2,0:0:0:0:
48,96,55793,1,8,0:0:0:0:
216,24,55929,1,8,3:0:0:0:
256,196,56066,1,4,3:0:0:0:
124,116,56202,5,4,0:3:0:0:
344,52,56338,1,8,0:3:0:0:
300,276,56475,1,4,0:3:0:0:
170,65,56611,5,4,0:3:0:0:
396,104,56747,1,4,0:3:0:0:
258,286,56884,1,4,0:3:0:0:
234,41,57020,5,4,0:3:0:0:
420,175,57156,1,4,0:3:0:0:
216,278,57293,2,0,L|156:312,3,48,4|0|0|0,0:1|0:0|0:0|0:0,0:0:0:0:
296,208,57566,2,0,L|356:242,3,48,0|0|0|0,3:0|0:0|0:0|0:0,0:0:0:0:
212,140,57838,2,0,L|152:174,3,48
292,70,58111,2,0,L|352:104,3,48,0|0|0|0,3:0|0:0|0:0|0:0,0:0:0:0:
256,64,58384,5,0,0:0:0:0:
256,80,58452,1,0,0:0:0:0:
256,96,58520,1,0,0:0:0:0:
256,112,58588,1,0,0:0:0:0:
256,128,58656,1,0,3:0:0:0:
256,144,58725,1,0,0:0:0:0:
256,160,58793,1,0,0:0:0:0:
256,176,58861,1,0,0:0:0:0:
256,192,58929,1,0,0:0:0:0:
256,208,58997,1,0,0:0:0:0:
256,224,59066,1,0,0:0:0:0:
256,240,59134,1,0,0:0:0:0:
256,256,59202,1,0,3:0:0:0:
256,272,59270,1,0,0:0:0:0:
256,288,59338,1,0,0:0:0:0:
256,304,59406,1,0,0:0:0:0:
256,320,59475,6,0,L|384:368,1,96
436,232,59747,1,8,3:2:0:0:
356,176,59884,1,0,0:0:0:0:
340,272,60020,1,0,0:0:0:0:
448,120,60156,1,0,0:0:0:0:
296,8,60293,1,8,3:2:0:0:
188,160,60429,1,0,0:0:0:0:
340,272,60566,5,0,0:0:0:0:
284,108,60702,1,0,0:0:0:0:
172,332,60838,1,8,3:2:0:0:
232,216,60975,1,0,0:0:0:0:
324,372,61111,5,0,0:0:0:0:
312,192,61247,1,0,0:0:0:0:
140,244,61384,1,8,3:2:0:0:
252,288,61520,1,8,3:2:0:0:
172,84,61656,6,0,P|100:60|-4:124,1,192,4|8,0:0|3:2,0:0:0:0:
48,276,62066,2,0,B|216:364|356:216|544:320,1,480
256,64,63020,1,8,3:2:0:0:
256,344,63293,6,0,L|256:192,2,144,8|4|4,0:3|0:3|0:3,0:0:0:0:
256,192,63838,12,0,64793,0:0:0:0:
136,72,65066,5,4,0:3:0:0:
60,192,65202,1,2,0:3:0:0:
376,312,65475,5,4,0:3:0:0:
452,192,65611,1,2,0:3:0:0:
256,328,65884,5,2,0:3:0:0:
256,56,66020,1,4,0:1:0:0:
