osu file format v12

[General]
AudioFilename: Cover Of BigYajue [].mp3
AudioLeadIn: 2000
PreviewTime: 4845
Countdown: 0
SampleSet: Soft
StackLeniency: 0.7
Mode: 0
LetterboxInBreaks: 1
WidescreenStoryboard: 0

[Editor]
Bookmarks: 66020,74742
DistanceSpacing: 1
BeatDivisor: 4
GridSize: 4
TimelineZoom: 1

[Metadata]
Title:BIG YAJUE
TitleUnicode:BIG YAJUE
Artist:YJSNPI
ArtistUnicode:野獣先輩
Creator:Alternative
Version:Roar of the BEAST
Source:ニコニコ動画
Tags:真夏の夜の淫夢 Yajue Big blue kusai kusasou homo inm babylon stage 114514 nonke manatsu no yoru no inmu tadocoro tadokoro kouji N_a_s_y_a sekai no toono Nasya world of toono 世界のトオノ 田所
BeatmapID:383313
BeatmapSetID:156430

[Difficulty]
HPDrainRate:7
CircleSize:5
OverallDifficulty:8
ApproachRate:9
SliderMultiplier:1.92
SliderTickRate:1

[Events]
//Background and Video events
0,0,"50eGvAN.jpg",0,0
//Break Periods
//Storyboard Layer 0 (Background)
//Storyboard Layer 1 (Fail)
//Storyboard Layer 2 (Pass)
//Storyboard Layer 3 (Foreground)
//Storyboard Sound Samples
//Background Colour Transformations
3,100,163,162,255

[TimingPoints]
566,272.727272727273,4,2,1,80,1,0
566,-133.333333333333,4,2,1,40,0,0
4929,-100,4,2,1,60,0,1
4997,-100,4,2,1,60,0,0
12566,-111.111111111111,4,2,1,60,0,0
13656,-100,4,2,1,60,0,0
16588,-100,4,2,1,15,0,0
16656,-100,4,2,1,60,0,0
26952,-100,4,2,1,15,0,0
27020,-100,4,2,1,60,0,0
30838,-133.333333333333,4,2,1,60,0,0
31043,-133.333333333333,4,2,1,60,0,0
31111,-111.111111111111,4,2,1,60,0,0
33225,-111.111111111111,4,2,1,20,0,0
33293,-111.111111111111,4,2,1,60,0,0
39293,-125,4,2,1,60,0,0
39838,-100,4,2,1,60,0,0
48566,-125,4,2,1,60,0,0
52929,-111.111111111111,4,2,1,60,0,0
54566,-125,4,2,1,30,0,0
55043,-125,4,2,1,15,0,0
55111,-111.111111111111,4,2,1,60,0,0
56952,-111.111111111111,4,2,1,15,0,0
57020,-111.111111111111,4,2,1,60,0,0
57293,-125,4,2,1,40,0,0
57838,-125,4,2,1,45,0,0
58384,-111.111111111111,4,2,1,50,0,0
58929,-111.111111111111,4,2,1,55,0,0
59475,-90.9090909090909,4,2,1,60,0,1
65406,-90.9090909090909,4,2,1,30,0,1
65475,-90.9090909090909,4,2,1,60,0,1
65816,-90.9090909090909,4,2,1,30,0,1
65884,-90.9090909090909,4,2,1,60,0,1
66020,-100,4,2,1,60,0,0

[Colours]
Combo1 : 138,138,0
Combo2 : 0,136,0
Combo3 : 187,61,0
Combo4 : 91,0,91

[HitObjects]
256,132,566,6,0,P|272:100|304:88,2,72.0000027465821
256,260,975,2,0,P|240:292|208:304,2,72.0000027465821
256,132,1384,6,0,L|328:132,1,72.0000027465821
400,132,1656,1,0,0:0:0:0:
256,260,1793,2,0,L|184:260,1,72.0000027465821
112,260,2065,1,0,0:0:0:0:
88,140,2202,5,0,0:0:0:0:
144,64,2338,1,0,0:0:0:0:
224,112,2475,1,0,0:0:0:0:
424,244,2611,1,0,0:0:0:0:
368,320,2747,1,0,0:0:0:0:
288,272,2884,1,0,0:0:0:0:
256,192,3020,5,0,0:0:0:0:
256,192,3156,2,0,L|312:136,1,72.0000027465821
428,28,3429,1,0,0:0:0:0:
428,28,3566,2,0,L|476:88,1,72.0000027465821
512,140,3838,1,0,0:0:0:0:
476,296,3975,5,4,0:0:0:0:
408,232,4111,1,0,0:0:0:0:
328,188,4247,1,0,0:0:0:0:
328,188,4316,1,0,0:0:0:0:
328,188,4384,1,0,0:0:0:0:
240,160,4520,1,0,0:0:0:0:
152,192,4656,1,0,0:0:0:0:
92,264,4793,1,0,0:0:0:0:
36,336,4929,5,4,0:0:0:0:
456,56,5747,2,0,L|456:168,1,96,8|0,0:0|0:0,0:0:0:0:
256,192,6156,5,0,0:0:0:0:
256,192,6293,1,8,0:0:0:0:
168,104,6566,5,0,0:0:0:0:
72,24,6702,1,0,0:0:0:0:
16,136,6838,1,8,0:0:0:0:
112,216,6975,1,0,0:0:0:0:
168,104,7111,5,4,0:0:0:0:
168,104,7929,2,0,L|268:88,1,96,8|4,0:0|0:0,0:0:0:0:
256,192,8202,12,0,9020,0:0:0:0:
256,112,9293,5,4,0:0:0:0:
256,112,10111,2,0,L|256:232,1,96,8|4,0:0|0:0,0:0:0:0:
256,192,11475,5,4,0:0:0:0:
256,356,12293,2,0,L|256:252,1,96,8|4,0:0|0:0,0:0:0:0:
256,192,12566,6,0,P|248:148|224:112,1,86.3999973632813
124,96,12838,2,0,P|132:140|156:176,1,86.3999973632813,8|0,0:0|0:0,0:0:0:0:
256,192,13111,2,0,L|360:192,1,86.3999973632813
440,120,13384,2,0,L|332:120,1,86.3999973632813,8|0,0:0|0:0,0:0:0:0:
256,120,13656,6,0,P|208:108|176:72,1,96,4|0,0:0|0:0,0:0:0:0:
256,28,13929,1,8,0:0:0:0:
256,28,14066,1,0,0:0:0:0:
168,192,14202,2,0,L|116:280,1,96
60,192,14475,1,8,0:0:0:0:
256,300,14611,1,0,0:0:0:0:
256,120,14747,6,0,P|304:112|352:120,1,96
304,220,15020,2,0,P|256:228|208:220,1,96,8|0,0:0|0:0,0:0:0:0:
108,180,15293,1,0,0:0:0:0:
180,64,15429,1,0,0:0:0:0:
108,180,15566,2,0,L|48:272,1,96,8|0,0:0|0:0,0:0:0:0:
4,332,15838,5,0,0:0:0:0:
4,332,15975,1,0,0:0:0:0:
4,112,16111,1,8,0:0:0:0:
4,112,16247,1,0,0:0:0:0:
108,180,16384,2,0,P|180:192|252:180,1,144
288,156,16656,2,0,P|320:192|332:240,1,96,8|0,0:0|0:0,0:0:0:0:
304,328,16929,5,0,0:0:0:0:
212,360,17066,1,0,0:0:0:0:
304,336,17202,1,8,0:0:0:0:
208,352,17338,1,0,0:0:0:0:
256,268,17475,1,0,0:0:0:0:
172,224,17611,1,0,0:0:0:0:
88,268,17747,1,8,0:0:0:0:
172,316,17884,1,0,0:0:0:0:
172,124,18020,6,0,L|172:68,2,48
288,156,18293,2,0,L|336:128,2,48,8|0|0,0:0|0:0|0:0,0:0:0:0:
88,268,18566,2,0,L|20:304,2,48
256,268,18838,2,0,L|316:296,2,48,8|0|0,0:0|0:0|0:0,0:0:0:0:
172,224,19111,5,0,0:0:0:0:
288,156,19247,1,0,0:0:0:0:
288,156,19384,2,0,L|288:60,1,96,8|0,0:0|0:0,0:0:0:0:
172,124,19656,2,0,P|104:136|32:120,2,144
292,80,20202,6,0,P|336:96|364:136,1,96,4|0,0:0|0:0,0:0:0:0:
372,248,20475,1,8,0:0:0:0:
288,156,20611,1,0,0:0:0:0:
268,180,20679,1,0,0:0:0:0:
248,208,20747,2,0,L|192:288,1,96
120,192,21020,1,8,0:0:0:0:
88,284,21156,6,0,P|148:356|240:376,1,192
352,356,21566,1,8,0:0:0:0:
372,248,21702,1,0,0:0:0:0:
288,192,21838,1,8,0:0:0:0:
264,192,21906,1,0,0:0:0:0:
240,192,21975,1,0,0:0:0:0:
216,192,22043,1,0,0:0:0:0:
192,192,22111,1,8,0:0:0:0:
168,192,22179,1,0,0:0:0:0:
144,192,22247,1,0,0:0:0:0:
120,192,22316,1,0,0:0:0:0:
96,192,22384,6,0,P|24:144|60:60,1,192,4|8,0:0|0:0,0:0:0:0:
156,16,22793,1,0,0:0:0:0:
256,60,22929,2,0,P|240:108|200:120,1,96
156,16,23202,1,8,0:0:0:0:
336,192,23338,6,0,P|403:257|489:308,1,192
456,188,23747,1,8,0:0:0:0:
456,188,23884,1,0,0:0:0:0:
348,316,24020,1,0,0:0:0:0:
172,360,24156,1,0,0:0:0:0:
348,368,24293,1,8,0:0:0:0:
172,308,24429,6,0,P|84:272|32:192,1,192
12,72,24838,1,8,0:0:0:0:
12,72,24975,1,0,0:0:0:0:
192,148,25111,1,0,0:0:0:0:
192,148,25384,2,0,L|124:232,1,96,8|0,0:0|0:0,0:0:0:0:
131,222,25793,6,0,L|64:308,1,96,0|8,0:0|0:0,0:0:0:0:
16,360,26066,1,0,0:0:0:0:
172,308,26202,1,0,0:0:0:0:
256,356,26338,1,0,0:0:0:0:
340,308,26475,2,0,P|352:260|336:216,1,96,8|0,0:0|0:0,0:0:0:0:
256,76,26747,6,0,P|236:144|256:212,1,144
276,256,27020,2,0,L|164:256,1,96,8|0,0:0|0:0,0:0:0:0:
68,256,27293,1,0,0:0:0:0:
68,128,27429,1,8,0:0:0:0:
68,128,27702,1,8,0:0:0:0:
276,256,27975,6,0,L|276:352,1,96,0|8,0:0|0:0,0:0:0:0:
424,192,28384,2,0,B|464:144|376:64|424:8,1,192,0|8,0:0|0:0,0:0:0:0:
480,52,28793,1,0,0:0:0:0:
360,160,28929,5,0,0:0:0:0:
360,160,29066,1,0,0:0:0:0:
256,160,29202,2,0,L|148:160,1,96,8|0,0:0|0:0,0:0:0:0:
76,64,29475,2,0,P|56:156|76:252,1,192,0|8,0:0|0:0,0:0:0:0:
32,368,29884,6,0,P|124:356|184:280,1,192
160,104,30293,2,0,P|188:144|192:192,1,96,8|0,0:0|0:0,0:0:0:0:
88,284,30566,1,0,0:0:0:0:
88,284,30702,1,0,0:0:0:0:
260,240,30838,6,0,B|292:228|336:252|368:240,1,108.000004119873,8|0,0:0|0:0,0:0:0:0:
400,224,31111,5,0,0:0:0:0:
432,192,31179,1,0,0:0:0:0:
436,148,31247,1,0,0:0:0:0:
412,112,31316,1,0,0:0:0:0:
372,96,31384,1,0,0:0:0:0:
328,96,31452,1,0,0:0:0:0:
284,96,31520,1,0,0:0:0:0:
240,96,31588,1,0,0:0:0:0:
196,96,31656,2,0,L|100:96,1,86.3999973632813
76,12,31929,1,0,0:0:0:0:
4,88,32066,6,0,P|36:168|116:200,1,172.799994726563
111,199,32475,1,8,0:0:0:0:
400,224,32747,1,0,0:0:0:0:
356,164,32884,1,0,0:0:0:0:
400,224,33020,2,0,P|424:284|412:348,1,129.599996044922,8|0,0:0|0:0,0:0:0:0:
380,376,33293,5,0,0:0:0:0:
336,376,33361,1,0,0:0:0:0:
296,364,33429,1,0,0:0:0:0:
256,344,33497,1,0,0:0:0:0:
244,304,33566,1,0,0:0:0:0:
244,260,33634,1,0,0:0:0:0:
244,216,33702,1,0,0:0:0:0:
244,172,33770,1,0,0:0:0:0:
244,128,33838,2,0,L|244:32,1,86.3999973632813
340,12,34111,1,0,0:0:0:0:
136,80,34247,6,0,P|76:140|64:228,1,172.799994726563
63,224,34656,1,8,0:0:0:0:
320,304,34929,1,0,0:0:0:0:
156,252,35066,1,0,0:0:0:0:
320,204,35202,1,8,0:0:0:0:
156,144,35338,1,0,0:0:0:0:
320,304,35475,6,0,P|400:276|424:196,1,172.799994726563,0|8,0:0|0:0,0:0:0:0:
320,204,35884,2,0,P|240:232|216:312,1,172.799994726563
320,304,36293,1,8,0:0:0:0:
320,304,36429,1,0,0:0:0:0:
172,176,36566,6,0,L|36:60,1,172.799994726563,0|8,0:0|0:0,0:0:0:0:
55,304,36975,2,0,L|179:168,1,172.799994726563
176,40,37384,1,8,0:0:0:0:
40,63,37520,1,0,0:0:0:0:
172,176,37656,1,4,0:0:0:0:
256,192,37725,12,0,39020,0:0:0:0:
256,192,39293,6,0,L|256:316,2,115.2,4|4|4,0:0|0:0|0:0,0:0:0:0:
256,96,39838,6,0,P|296:72|344:72,2,96,0|0|8,0:0|0:0|0:0,0:0:0:0:
184,156,40247,2,0,P|144:180|96:180,1,96
16,148,40520,1,0,0:0:0:0:
120,80,40656,1,8,0:0:0:0:
120,80,40793,1,0,0:0:0:0:
16,148,40929,6,0,B|-4:204|40:276|16:340,1,192,0|8,0:0|0:0,0:0:0:0:
16,337,41338,2,0,P|112:360|208:352,1,192
364,264,41747,2,0,P|332:300|292:324,1,96,8|0,0:0|0:0,0:0:0:0:
192,184,42020,6,0,L|228:280,2,96,0|0|8,0:0|0:0|0:0,0:0:0:0:
160,92,42429,1,0,0:0:0:0:
152,72,42497,1,0,0:0:0:0:
144,52,42566,1,0,0:0:0:0:
60,192,42702,2,0,L|92:296,2,96,0|8|0,0:0|0:0|0:0,0:0:0:0:
52,172,43043,1,0,0:0:0:0:
44,154,43111,6,0,L|24:80,2,64
108,164,43384,2,0,P|156:168|200:148,1,96,8|0,0:0|0:0,0:0:0:0:
256,72,43656,1,0,0:0:0:0:
344,116,43793,2,0,B|404:144|420:240|468:264,1,192
496,200,44202,5,4,0:0:0:0:
316,180,44338,1,0,0:0:0:0:
496,200,44475,1,8,0:0:0:0:
392,292,44611,2,0,P|308:340|212:352,1,192
148,284,45020,2,0,P|124:328|120:376,1,96,8|0,0:0|0:0,0:0:0:0:
280,264,45293,5,0,0:0:0:0:
280,264,45429,1,0,0:0:0:0:
214,352,45566,1,8,0:0:0:0:
148,284,45702,2,0,P|112:200|120:100,1,192
184,52,46111,2,0,P|144:28|92:24,1,96,8|0,0:0|0:0,0:0:0:0:
16,52,46384,5,0,0:0:0:0:
192,184,46520,1,0,0:0:0:0:
0,60,46656,1,8,0:0:0:0:
200,176,46793,1,0,0:0:0:0:
40,192,46929,1,0,0:0:0:0:
184,52,47066,1,0,0:0:0:0:
40,192,47202,1,8,0:0:0:0:
184,52,47338,6,0,P|276:28|368:52,1,192
492,160,47747,2,0,P|468:120|428:88,1,96,8|0,0:0|0:0,0:0:0:0:
392,192,48020,2,0,P|416:232|456:264,1,96
392,192,48293,2,0,L|284:192,1,96,8|0,0:0|0:0,0:0:0:0:
224,164,48566,5,0,0:0:0:0:
160,208,48702,1,0,0:0:0:0:
96,168,48838,1,8,0:0:0:0:
32,212,48975,1,0,0:0:0:0:
92,256,49111,1,0,0:0:0:0:
92,332,49247,1,0,0:0:0:0:
160,296,49384,2,0,P|196:304|228:328,1,76.8,8|0,0:0|0:0,0:0:0:0:
164,372,49656,5,0,0:0:0:0:
160,296,49793,2,0,P|164:256|180:224,1,76.8,0|8,0:0|0:0,0:0:0:0:
224,164,50066,1,0,0:0:0:0:
296,192,50202,2,0,L|388:192,1,76.8
452,260,50475,2,0,L|368:260,1,76.8,8|0,0:0|0:0,0:0:0:0:
300,260,50747,5,0,0:0:0:0:
264,328,50884,1,0,0:0:0:0:
224,260,51020,1,8,0:0:0:0:
184,328,51156,1,0,0:0:0:0:
144,260,51293,1,0,0:0:0:0:
112,328,51429,1,0,0:0:0:0:
76,260,51566,1,8,0:0:0:0:
40,328,51702,1,0,0:0:0:0:
32,344,51770,1,0,0:0:0:0:
24,360,51838,5,0,0:0:0:0:
76,260,51975,2,0,L|116:184,1,76.8,0|8,0:0|0:0,0:0:0:0:
148,124,52247,1,0,0:0:0:0:
304,124,52384,1,0,0:0:0:0:
152,124,52520,1,0,0:0:0:0:
308,124,52656,1,8,0:0:0:0:
156,124,52793,1,0,0:0:0:0:
256,192,52929,5,0,0:0:0:0:
272,276,53066,1,0,0:0:0:0:
356,292,53202,1,8,0:0:0:0:
256,192,53338,5,0,0:0:0:0:
326,240,53475,1,0,0:0:0:0:
397,192,53611,1,8,0:0:0:0:
256,192,53747,5,0,0:0:0:0:
340,176,53884,1,0,0:0:0:0:
356,92,54020,1,8,0:0:0:0:
256,192,54156,5,0,0:0:0:0:
304,121,54293,1,0,0:0:0:0:
256,50,54429,1,8,0:0:0:0:
256,192,54566,5,0,0:0:0:0:
256,192,54702,1,0,0:0:0:0:
256,256,54838,2,0,L|256:376,1,115.2
208,352,55111,6,0,P|164:352|132:376,2,86.3999973632813,4|0|8,0:0|0:0|0:0,0:0:0:0:
304,352,55520,2,0,P|348:352|380:376,2,86.3999973632813,0|0|8,0:0|0:0|0:0,0:0:0:0:
208,352,55929,6,0,P|184:316|176:272,1,86.3999973632813
172,188,56202,1,8,0:0:0:0:
104,136,56338,2,0,P|140:112|184:104,1,86.3999973632813
268,100,56611,1,8,0:0:0:0:
364,124,56747,6,0,P|416:164|436:228,1,129.599996044922
436,268,57020,2,0,P|428:312|400:348,1,86.3999973632813,8|0,0:0|0:0,0:0:0:0:
328,364,57293,5,0,0:0:0:0:
308,364,57361,1,0,0:0:0:0:
288,364,57429,1,0,0:0:0:0:
268,364,57497,1,0,0:0:0:0:
248,364,57566,1,0,0:0:0:0:
228,364,57634,1,0,0:0:0:0:
208,364,57702,1,0,0:0:0:0:
188,364,57770,1,0,0:0:0:0:
156,364,57838,5,0,0:0:0:0:
128,356,57906,1,0,0:0:0:0:
104,340,57975,1,0,0:0:0:0:
88,316,58043,1,0,0:0:0:0:
84,284,58111,1,0,0:0:0:0:
84,252,58179,1,0,0:0:0:0:
84,220,58247,1,0,0:0:0:0:
84,188,58316,1,0,0:0:0:0:
84,144,58384,5,0,0:0:0:0:
104,104,58452,1,0,0:0:0:0:
140,80,58520,1,0,0:0:0:0:
184,72,58588,1,0,0:0:0:0:
228,72,58656,1,0,0:0:0:0:
272,72,58725,1,0,0:0:0:0:
316,72,58793,1,0,0:0:0:0:
360,72,58861,1,0,0:0:0:0:
412,80,58929,5,0,0:0:0:0:
452,116,58997,1,0,0:0:0:0:
448,168,59066,1,0,0:0:0:0:
400,192,59134,1,0,0:0:0:0:
348,192,59202,1,0,0:0:0:0:
296,192,59270,1,0,0:0:0:0:
244,192,59338,1,0,0:0:0:0:
192,192,59406,1,0,0:0:0:0:
132,192,59475,6,0,L|24:192,1,96,4|0,0:0|0:0,0:0:0:0:
0,120,59747,1,8,0:0:0:0:
72,272,59884,2,0,P|104:316|148:344,1,105.600003222656
240,348,60156,1,0,0:0:0:0:
152,264,60293,1,8,0:0:0:0:
264,368,60429,1,0,0:0:0:0:
128,236,60566,6,0,L|56:152,1,105.600003222656
104,24,60838,1,8,0:0:0:0:
0,120,60975,1,0,0:0:0:0:
104,24,61111,2,0,P|156:12|208:24,1,105.600003222656
400,192,61384,2,0,P|348:204|296:192,1,105.600003222656,8|0,0:0|0:0,0:0:0:0:
156,104,61656,6,0,P|136:208|160:308,1,211.200006445313,0|8,0:0|0:0,0:0:0:0:
60,360,62066,1,0,0:0:0:0:
264,268,62202,2,0,P|368:248|472:272,1,211.200006445313,0|8,0:0|0:0,0:0:0:0:
364,352,62611,1,0,0:0:0:0:
364,352,62679,1,0,0:0:0:0:
364,352,62747,5,0,0:0:0:0:
264,268,62884,1,0,0:0:0:0:
256,140,63020,2,0,P|328:120|408:140,1,158.400004833985,8|0,0:0|0:0,0:0:0:0:
448,156,63293,2,0,L|492:0,2,158.400004833985
328,288,63838,6,0,P|280:304|224:296,1,105.600003222656
60,288,64111,2,0,P|108:272|164:280,1,105.600003222656,8|0,0:0|0:0,0:0:0:0:
268,228,64384,1,0,0:0:0:0:
120,344,64520,1,0,0:0:0:0:
104,156,64656,2,0,L|96:44,1,105.600003222656,8|0,0:0|0:0,0:0:0:0:
96,50,65066,5,0,0:0:0:0:
96,50,65202,2,0,L|260:40,1,158.400004833985
308,36,65475,1,0,0:0:0:0:
400,120,65611,2,0,P|320:144|244:136,1,158.400004833985
196,120,65884,2,0,P|184:144|180:172,1,52.8000016113282
172,216,66020,5,4,0:0:0:0:
456,328,66838,2,0,L|456:216,1,96,8|0,0:0|0:0,0:0:0:0:
256,192,67247,5,0,0:0:0:0:
256,192,67384,1,8,0:0:0:0:
168,280,67656,5,0,0:0:0:0:
72,360,67793,1,0,0:0:0:0:
16,248,67929,1,8,0:0:0:0:
112,168,68066,1,0,0:0:0:0:
168,280,68202,5,4,0:0:0:0:
168,280,69020,2,0,L|268:296,1,96,8|4,0:0|0:0,0:0:0:0:
256,192,69293,12,0,70111,0:0:0:0:
176,192,70384,5,4,0:0:0:0:
176,192,71202,2,0,L|296:192,1,96,8|4,0:0|0:0,0:0:0:0:
256,192,72566,5,4,0:0:0:0:
256,192,73384,2,0,L|152:192,1,96,8|0,0:0|0:0,0:0:0:0:
64,192,73656,1,4,0:0:0:0:
96,100,73793,1,0,0:0:0:0:
160,28,73929,1,8,0:0:0:0:
256,8,74066,1,0,0:0:0:0:
348,32,74202,1,0,0:0:0:0:
416,100,74338,1,0,0:0:0:0:
448,192,74475,1,8,0:0:0:0:
392,320,74611,1,0,0:0:0:0:
256,348,74747,1,4,0:0:0:0:
