osu file format v14

[General]
AudioFilename: Naruto Shippuden Opening 17.mp3
AudioLeadIn: 1752
PreviewTime: 60629
Countdown: 0
SampleSet: Soft
StackLeniency: 0.7
Mode: 0
LetterboxInBreaks: 0
WidescreenStoryboard: 0

[Editor]
DistanceSpacing: 1.5
BeatDivisor: 4
GridSize: 4
TimelineZoom: 1

[Metadata]
Title:Kaze
TitleUnicode:風
Artist:YAMAZARU
ArtistUnicode:山猿
Creator:WildCry
Version:Insane
Source:NARUTO -ナルト- 疾風伝
Tags:opening 17 hanabi wind naruto shipudden
BeatmapID:690017
BeatmapSetID:308231

[Difficulty]
HPDrainRate:7
CircleSize:4
OverallDifficulty:7
ApproachRate:8.7
SliderMultiplier:1.8
SliderTickRate:1

[Events]
//Background and Video events
Video,-750,"Naruto Shippuden Opening 17.avi"
0,0,"a.jpg",0,0
//Break Periods
//Storyboard Layer 0 (Background)
//Storyboard Layer 1 (Fail)
//Storyboard Layer 2 (Pass)
//Storyboard Layer 3 (Foreground)
//Storyboard Sound Samples

[TimingPoints]
248,370.438970179663,4,2,1,55,1,0
248,-111.111111111111,4,2,1,50,0,0
6175,-125,4,2,1,70,0,0
7285,-111.111111111111,4,2,1,50,0,0
13398,-100,4,2,1,60,0,0
25435,-111.111111111111,4,2,1,50,0,0
49145,-111.111111111111,4,2,1,45,0,0
55072,-111.111111111111,4,2,1,50,0,0
58036,-125,4,2,1,60,0,0
60999,-100,4,2,1,60,0,1
69890,-100,4,2,1,50,0,1
72854,-100,4,2,1,60,0,1
78781,-111.111111111111,4,2,1,70,0,1
79892,-100,4,2,1,55,0,1
84522,-100,4,2,1,60,0,0

[Colours]
Combo1 : 72,53,247
Combo2 : 236,224,0
Combo3 : 156,134,176
Combo4 : 177,46,85

[HitObjects]
132,176,248,6,0,P|128:228|136:260,1,80.9999975280763
224,324,618,2,0,L|136:344,1,80.9999975280763
220,228,988,2,0,L|312:228,1,80.9999975280763
396,304,1359,1,0,0:0:0:0:
432,196,1544,6,0,P|432:128|420:88,2,80.9999975280763
316,152,2100,1,0,0:0:0:0:
220,228,2285,1,0,0:0:0:0:
212,104,2470,1,0,0:0:0:0:
104,212,2655,2,0,B|84:152|120:116|120:116|92:104|68:64,1,161.999995056153
160,32,3211,6,0,P|236:64|308:16,1,161.999995056153
400,136,3767,2,0,L|408:48,1,80.9999975280763
296,152,4137,2,0,L|328:240,1,80.9999975280763
436,232,4508,1,0,0:0:0:0:
436,232,4693,2,0,B|424:296|424:296|392:324|308:340,1,161.999995056153
152,200,5434,6,0,P|208:220|232:216,1,80.9999975280763
116,116,5804,2,0,P|56:136|32:168,1,80.9999975280763
204,136,6175,6,0,B|216:96|188:64|188:64|212:32|192:-4,1,144
288,76,6730,6,0,B|304:108|288:148|288:148|280:184|304:232,1,144
204,310,7286,6,0,B|241:294|284:294|284:294|280:258|297:214,1,161.999995056153
188,180,7841,1,0,0:0:0:0:
268,100,8027,2,0,P|320:96|352:104,1,80.9999975280763
392,248,8397,2,0,L|464:188,1,80.9999975280763,8|0,0:0|0:0,0:0:0:0:
296,215,8768,2,0,P|264:247|244:287,1,80.9999975280763,8|0,0:0|0:0,0:0:0:0:
176,156,9138,5,4,0:0:0:0:
212,296,9323,1,0,0:0:0:0:
84,224,9508,2,0,P|60:188|52:144,1,80.9999975280763
52,112,9786,1,0,0:0:0:0:
68,80,9879,1,8,0:0:0:0:
176,156,10064,1,8,0:0:0:0:
176,28,10249,1,0,0:0:0:0:
256,96,10435,6,0,B|304:96|364:144|364:144|400:80|464:64,1,242.999992584229,12|8,0:0|0:0,0:0:0:0:
476,60,11546,5,8,0:0:0:0:
264,208,11916,5,8,0:0:0:0:
376,256,12102,5,0,0:0:0:0:
408,144,12287,2,0,P|364:140|320:156,1,80.9999975280763,8|8,0:0|0:0,0:0:0:0:
244,240,12657,1,0,0:0:0:0:
192,128,12842,1,8,0:0:0:0:
328,136,13027,1,8,0:0:0:0:
68,232,13398,6,0,B|76:172|76:172|136:160|188:108,1,180,4|0,0:0|0:0,0:0:0:0:
292,172,13954,2,0,P|260:212|224:236,1,90,8|0,0:0|0:0,0:0:0:0:
172,348,14324,2,0,P|256:348|292:336,1,90
144,264,14695,1,8,0:0:0:0:
204,151,14880,6,0,B|176:140|136:96|136:96|120:148|144:184,1,180
320,204,15435,2,0,P|324:144|316:76,1,90,8|0,0:0|0:0,0:0:0:0:
228,28,15806,2,0,L|348:16,1,90
448,136,16176,1,8,0:0:0:0:
364,268,16362,6,0,P|296:276|244:188,1,180
224,68,16917,2,0,L|172:156,1,90,8|0,0:0|0:0,0:0:0:0:
103,221,17288,2,0,L|52:148,1,90
196,308,17658,1,8,0:0:0:0:
167,183,17843,1,0,0:0:0:0:
196,308,18029,6,0,P|244:308|280:288,1,90
252,164,18399,2,0,P|207:163|168:183,1,90,8|0,0:0|0:0,0:0:0:0:
320,220,18769,2,0,P|364:220|403:200,1,90
416,48,19140,1,8,0:0:0:0:
484,160,19325,6,0,B|492:212|472:256|472:256|432:288|380:304,1,180,4|0,0:0|0:0,0:0:0:0:
231,235,19881,2,0,L|343:215,1,90,8|0,0:0|0:0,0:0:0:0:
200,324,20251,2,0,L|316:304,1,90
416,204,20622,1,8,0:0:0:0:
369,32,20807,6,0,B|341:65|340:112|340:112|292:96|248:96,1,180
472,108,21363,2,0,P|464:168|472:204,1,90,8|0,0:0|0:0,0:0:0:0:
363,207,21733,2,0,P|368:252|383:295,2,90,0|0|8,0:0|0:0|0:0,0:0:0:0:
416,148,22289,6,0,P|364:128|280:208,1,180
252,328,22844,2,0,B|192:316|156:244|156:244|120:320,1,180,8|0,0:0|0:0,0:0:0:0:
64,380,23400,1,0,0:0:0:0:
76,220,23585,1,8,0:0:0:0:
260,144,23770,6,0,P|232:184|96:176,1,180,0|8,0:0|0:0,0:0:0:0:
164,112,24326,6,8,B|136:52|164:20|164:20|200:64|248:88,1,180
396,168,24882,1,0,0:0:0:0:
280,184,25067,1,8,0:0:0:0:
296,52,25252,1,4,0:0:0:0:
426,212,25437,6,0,P|427:171|420:132,1,80.9999975280763
344,304,25808,2,0,P|376:328|420:344,1,80.9999975280763,8|0,0:0|0:0,0:0:0:0:
280,184,26178,2,0,P|232:196|200:216,1,80.9999975280763
144,316,26549,1,8,0:0:0:0:
108,176,26734,1,0,0:0:0:0:
248,284,26919,1,0,0:0:0:0:
296,160,27104,2,0,L|296:80,1,80.9999975280763,0|8,0:0|0:0,0:0:0:0:
404,8,27475,2,0,P|424:100|408:196,1,161.999995056153
376,316,28030,6,0,P|352:276|352:240,1,80.9999975280763,8|4,0:0|0:0,0:0:0:0:
400,148,28401,1,0,0:0:0:0:
284,136,28586,1,0,0:0:0:0:
480,180,28771,2,0,P|480:132|464:92,1,80.9999975280763,8|0,0:0|0:0,0:0:0:0:
250,50,29142,2,0,P|289:43|328:56,1,80.9999975280763
176,124,29512,2,0,P|132:116|88:72,1,80.9999975280763,8|0,0:0|0:0,0:0:0:0:
64,4,29883,1,0,0:0:0:0:
36,160,30068,1,0,0:0:0:0:
36,160,30253,2,0,L|24:252,1,80.9999975280763,8|0,0:0|0:0,0:0:0:0:
160,220,30623,2,0,L|172:120,1,80.9999975280763
268,208,30994,5,8,0:0:0:0:
172,308,31179,1,4,0:0:0:0:
300,288,31364,2,0,P|336:260|356:208,1,80.9999975280763
296,124,31735,2,0,L|236:68,1,80.9999975280763
384,136,32105,2,0,L|448:192,1,80.9999975280763,8|0,0:0|0:0,0:0:0:0:
192,168,32476,1,8,0:0:0:0:
164,60,32661,1,4,0:0:0:0:
200,200,32846,1,0,0:0:0:0:
324,204,33031,1,0,0:0:0:0:
444,280,33217,2,0,P|380:296|308:268,1,121.499996292114,8|0,0:0|0:0,0:0:0:0:
300,256,33587,2,0,P|244:252|212:256,1,80.9999975280763,8|0,0:0|0:0,0:0:0:0:
168,336,33957,1,8,0:0:0:0:
312,360,34143,1,4,0:0:0:0:
232,240,34328,5,0,0:0:0:0:
344,236,34513,1,8,0:0:0:0:
232,240,34698,1,8,0:0:0:0:
332,120,34884,1,0,0:0:0:0:
472,192,35069,2,0,P|480:232|472:276,1,80.9999975280763
344,316,35439,2,0,P|340:272|344:232,1,80.9999975280763,8|4,0:0|0:0,0:0:0:0:
472,192,35810,1,0,0:0:0:0:
412,56,35995,1,0,0:0:0:0:
412,56,36180,2,0,L|404:176,1,80.9999975280763,8|0,0:0|0:0,0:0:0:0:
264,8,36551,1,8,0:0:0:0:
290,117,36736,2,0,L|308:196,1,80.9999975280763,0|8,0:0|0:0,0:0:0:0:
176,124,37106,1,4,0:0:0:0:
204,236,37291,6,0,P|140:236|100:216,1,80.9999975280763
308,196,37662,2,0,P|348:191|387:201,1,80.9999975280763,8|0,0:0|0:0,0:0:0:0:
472,276,38032,2,0,L|490:197,1,80.9999975280763
408,52,38403,2,0,L|426:130,1,80.9999975280763,8|0,0:0|0:0,0:0:0:0:
392,240,38773,1,0,0:0:0:0:
432,360,38958,1,0,0:0:0:0:
308,196,39144,1,8,0:0:0:0:
216,264,39329,6,0,P|152:256|128:236,1,80.9999975280763
308,196,39699,2,0,P|344:168|468:176,1,161.999995056153
408,288,40255,1,0,0:0:0:0:
296,296,40440,1,0,0:0:0:0:
232,188,40625,1,8,0:0:0:0:
232,188,40811,2,0,P|228:144|248:104,1,80.9999975280763
304,16,41181,1,0,0:0:0:0:
304,16,41366,2,0,L|388:28,1,80.9999975280763,8|0,0:0|0:0,0:0:0:0:
444,124,41737,6,0,P|428:184|432:208,2,80.9999975280763,0|0|8,0:0|0:0|0:0,0:0:0:0:
296,136,42292,1,0,0:0:0:0:
168,68,42478,2,0,L|80:72,1,80.9999975280763,8|0,0:0|0:0,0:0:0:0:
140,172,42848,2,0,L|228:184,1,80.9999975280763,8|4,0:0|0:0,0:0:0:0:
368,200,43218,6,0,P|368:256|360:288,1,80.9999975280763
268,344,43589,2,0,P|268:288|276:256,1,80.9999975280763,8|0,0:0|0:0,0:0:0:0:
288,116,43959,2,0,L|196:212,1,121.499996292114
192,224,44330,2,0,L|188:304,1,80.9999975280763,8|4,0:0|0:0,0:0:0:0:
100,236,44700,1,0,0:0:0:0:
184,332,44885,1,0,0:0:0:0:
84,216,45071,1,8,0:0:0:0:
144,120,45256,2,0,P|136:64|120:24,1,80.9999975280763
68,196,45626,2,0,P|108:212|152:216,1,80.9999975280763,0|8,0:0|0:0,0:0:0:0:
236,104,45997,5,4,0:0:0:0:
276,208,46182,1,0,0:0:0:0:
368,92,46367,1,0,0:0:0:0:
276,208,46552,2,0,P|239:225|199:224,1,80.9999975280763,8|0,0:0|0:0,0:0:0:0:
315,29,46923,2,0,P|351:12|392:12,1,80.9999975280763,8|0,0:0|0:0,0:0:0:0:
236,104,47293,2,0,L|208:24,1,80.9999975280763,8|0,0:0|0:0,0:0:0:0:
452,184,47664,2,0,L|492:272,1,80.9999975280763,8|4,0:0|0:0,0:0:0:0:
336,128,48034,1,8,0:0:0:0:
100,104,48405,5,8,0:0:0:0:
220,208,48590,1,8,0:0:0:0:
64,192,48775,1,8,0:0:0:0:
196,112,48960,1,8,0:0:0:0:
136,256,49145,1,4,0:0:0:0:
384,32,49701,5,0,0:0:0:0:
504,116,49886,1,8,0:0:0:0:
368,177,50072,2,0,P|411:226|452:244,1,80.9999975280763
372,336,50442,1,8,0:0:0:0:
300,248,50627,2,0,L|216:240,1,80.9999975280763,0|8,0:0|0:0,0:0:0:0:
104,288,50998,2,0,L|180:328,1,80.9999975280763,0|8,0:0|0:0,0:0:0:0:
300,272,51368,1,8,0:0:0:0:
440,260,51553,2,0,B|464:228|480:184|400:148|456:80,1,161.999995056153,8|0,0:0|0:0,0:0:0:0:
320,80,52109,6,0,P|320:128|336:176,1,80.9999975280763,4|0,0:0|0:0,0:0:0:0:
268,264,52479,2,0,P|256:208|236:172,1,80.9999975280763
144,116,52850,1,8,0:0:0:0:
80,248,53035,1,0,0:0:0:0:
60,128,53220,2,0,P|72:72|112:36,1,80.9999975280763,0|8,0:0|0:0,0:0:0:0:
164,260,53591,2,0,P|140:312|108:332,1,80.9999975280763,0|8,0:0|0:0,0:0:0:0:
292,160,54146,5,8,0:0:0:0:
292,160,54332,2,0,L|284:252,1,80.9999975280763,0|8,0:0|0:0,0:0:0:0:
392,144,54702,1,8,0:0:0:0:
392,144,54795,1,8,0:0:0:0:
392,144,54887,1,8,0:0:0:0:
392,144,54980,1,0,0:0:0:0:
392,144,55072,6,0,P|456:156|504:60,1,161.999995056153,12|8,0:0|0:0,0:0:0:0:
344,80,55628,6,8,B|272:56|220:96|220:96|204:56,1,161.999995056153
172,208,56184,6,8,L|124:44,1,161.999995056153
16,148,56739,6,8,L|64:316,1,161.999995056153
256,232,57295,2,0,P|220:280|196:292,1,80.9999975280763,8|0,0:0|0:0,0:0:0:0:
292,152,57666,2,0,P|328:104|352:92,1,80.9999975280763
388,296,58036,2,0,P|392:252|384:212,1,72
194,112,58406,2,0,P|196:168|212:196,1,72
216,324,58777,2,0,P|176:324|136:308,1,72
348,112,59147,2,0,P|384:96|424:96,1,72
256,192,59518,12,8,60444,0:0:0:0:
256,192,60629,6,0,B|244:152|264:112|264:112|292:136|328:144,1,144,8|4,0:0|0:0,0:0:0:0:
344,264,61185,5,0,0:0:0:0:
436,180,61370,1,8,0:0:0:0:
181,105,61555,2,0,P|172:193|220:268,1,180
344,172,62111,1,8,0:0:0:0:
372,344,62296,1,0,0:0:0:0:
256,172,62481,2,0,P|268:124|296:96,1,90
212,24,62852,2,0,L|100:16,1,90,8|0,0:0|0:0,0:0:0:0:
28,100,63222,1,0,0:0:0:0:
128,176,63407,2,0,P|108:260|8:272,1,180
56,108,63963,6,0,P|100:84|152:80,1,90,4|0,0:0|0:0,0:0:0:0:
236,160,64333,2,0,L|228:256,1,90,8|0,0:0|0:0,0:0:0:0:
344,148,64704,2,0,L|328:44,1,90
332,232,65074,2,0,P|376:228|416:192,1,90,8|0,0:0|0:0,0:0:0:0:
244,76,65445,2,0,P|200:84|164:120,1,90
140,236,65815,1,8,0:0:0:0:
268,172,66000,1,0,0:0:0:0:
152,88,66186,1,0,0:0:0:0:
100,220,66371,2,0,L|96:324,1,90,0|4,0:0|0:0,0:0:0:0:
228,340,66741,1,0,0:0:0:0:
228,340,66927,6,0,P|164:304|132:300,1,90,8|0,0:0|0:0,0:0:0:0:
324,320,67297,2,0,P|380:284|396:256,1,90,8|0,0:0|0:0,0:0:0:0:
360,136,67667,1,0,0:0:0:0:
252,84,67853,2,0,P|320:24|424:24,1,180
280,180,68408,1,0,0:0:0:0:
156,148,68593,2,0,L|40:124,2,90,0|8|0,0:0|0:0|0:0,0:0:0:0:
280,180,69149,2,0,P|272:252|236:280,1,90
252,84,69520,2,0,P|308:60|360:68,1,90,8|0,0:0|0:0,0:0:0:0:
392,204,69890,6,0,L|416:96,1,90,4|0,0:0|0:0,0:0:0:0:
280,180,70260,2,0,L|300:292,1,90,8|0,0:0|0:0,0:0:0:0:
376,368,70631,1,0,0:0:0:0:
168,264,70816,1,0,0:0:0:0:
295,268,71001,1,8,0:0:0:0:
76,352,71187,2,0,P|48:272|72:164,1,180
246,226,71742,6,0,P|211:254|168:264,1,90,8|0,0:0|0:0,0:0:0:0:
0,132,72113,2,0,P|34:103|78:94,1,90
112,96,72390,1,0,0:0:0:0:
152,104,72483,1,0,0:0:0:0:
200,128,72576,1,8,0:0:0:0:
240,152,72668,1,8,0:0:0:0:
280,120,72761,1,8,0:0:0:0:
312,88,72854,6,8,P|360:80|424:96,1,90,4|0,0:0|0:0,0:0:0:0:
246,226,73224,2,0,P|206:234|142:218,1,90,8|0,0:0|0:0,0:0:0:0:
72,168,73594,2,0,L|64:264,1,90
253,315,73965,2,0,L|245:225,1,90,8|0,0:0|0:0,0:0:0:0:
188,92,74335,1,0,0:0:0:0:
360,136,74521,1,0,0:0:0:0:
236,164,74706,2,0,P|184:176|144:164,1,90,8|0,0:0|0:0,0:0:0:0:
316,68,75076,2,0,P|368:56|408:68,1,90
336,232,75447,1,8,0:0:0:0:
396,120,75632,1,0,0:0:0:0:
336,268,75817,6,0,P|264:312|168:284,1,180,4|8,0:0|0:0,0:0:0:0:
128,172,76373,2,0,P|84:168|32:184,1,90
252,236,76743,2,0,L|220:108,1,90
200,24,77114,1,0,0:0:0:0:
308,88,77299,2,0,P|400:104|508:40,1,180,8|8,0:0|0:0,0:0:0:0:
380,200,77854,1,0,0:0:0:0:
216,192,78040,6,0,P|170:220|154:260,1,90
319,259,78410,2,0,P|365:231|381:191,1,90
216,300,78781,6,0,B|160:276|160:276|116:304|32:300,1,161.999995056153,4|8,0:0|0:0,0:0:0:0:
4,168,79336,6,8,P|52:220|144:192,1,161.999995056153
220,108,79892,2,0,B|256:160|256:240|256:240|296:208,1,180
360,68,80448,1,0,0:0:0:0:
412,232,80633,1,8,0:0:0:0:
440,132,80818,2,0,L|436:32,1,90
328,200,81188,2,0,P|324:264|340:292,1,90,0|8,0:0|0:0,0:0:0:0:
460,304,81559,1,0,0:0:0:0:
328,200,81744,6,0,L|208:192,1,90,4|0,0:0|0:0,0:0:0:0:
40,248,82115,2,0,L|152:244,1,90,8|0,0:0|0:0,0:0:0:0:
236,312,82485,1,0,0:0:0:0:
328,200,82670,1,0,0:0:0:0:
152,316,82855,2,0,P|188:248|220:232,1,90,4|0,0:0|0:0,0:0:0:0:
412,192,83226,2,0,P|401:238|372:272,1,90
236,312,83596,1,4,0:0:0:0:
236,132,83967,5,8,0:0:0:0:
412,192,84152,1,8,0:0:0:0:
172,232,84337,1,8,0:0:0:0:
408,308,84522,1,0,0:0:0:0:
256,192,84615,12,0,86930,0:0:0:0:
