osu file format v14

[General]
AudioFilename: Naruto Shippuden Opening 17.mp3
AudioLeadIn: 0
PreviewTime: 60629
Countdown: 0
SampleSet: Soft
StackLeniency: 0.7
Mode: 0
LetterboxInBreaks: 1
WidescreenStoryboard: 1

[Editor]
DistanceSpacing: 1
BeatDivisor: 2
GridSize: 4
TimelineZoom: 1

[Metadata]
Title:Kaze
TitleUnicode:風
Artist:YAMAZARU
ArtistUnicode:山猿
Creator:WildCry
Version:Easy
Source:NARUTO -ナルト- 疾風伝
Tags:opening 17 hanabi wind naruto shipudden
BeatmapID:759765
BeatmapSetID:308231

[Difficulty]
HPDrainRate:2
CircleSize:2
OverallDifficulty:2
ApproachRate:3
SliderMultiplier:1
SliderTickRate:2

[Events]
//Background and Video events
Video,-750,"Naruto Shippuden Opening 17.avi"
0,0,"a.jpg",0,0
//Break Periods
2,13598,23997
//Storyboard Layer 0 (Background)
//Storyboard Layer 1 (Fail)
//Storyboard Layer 2 (Pass)
//Storyboard Layer 3 (Foreground)
//Storyboard Sound Samples

[TimingPoints]
248,370.438970179663,4,2,1,45,1,0
248,-99.9999999999999,4,2,1,50,0,0
6175,-100,4,2,1,70,0,0
7285,-99.9999999999999,4,2,1,50,0,0
13398,-100,4,2,1,60,0,0
25435,-99.9999999999999,4,2,1,50,0,0
49145,-99.9999999999999,4,2,1,45,0,0
55072,-99.9999999999999,4,2,1,50,0,0
58036,-100,4,2,1,60,0,0
60999,-100,4,2,1,60,0,1
69890,-100,4,2,1,50,0,1
72854,-100,4,2,1,60,0,1
78781,-99.9999999999999,4,2,1,70,0,1
79892,-100,4,2,1,55,0,1
84522,-100,4,2,1,60,0,0

[Colours]
Combo1 : 72,53,247
Combo2 : 236,224,0
Combo3 : 156,134,176
Combo4 : 177,46,85

[HitObjects]
48,224,248,6,0,B|124:264|164:224|164:224|208:256|208:256|240:192|308:200,1,300
360,284,1729,2,0,P|376:140|244:116,1,300
176,180,3211,5,0,0:0:0:0:
284,348,3952,1,0,0:0:0:0:
424,204,4693,2,0,B|376:216|344:260|344:260|292:232|228:252,2,200
428,56,6730,5,0,0:0:0:0:
277,56,7286,1,0,0:0:0:0:
40,240,8397,6,8,L|8:336,1,100
108,340,9138,2,0,B|180:324|252:352|252:352|268:324|268:324|340:324,1,250,4|0,0:0|0:0,0:0:0:0:
409,253,10435,2,8,P|416:184|384:92,1,150,0|0,0:0|0:0,0:0:0:0:
244,92,11546,6,8,L|244:192,1,100
208,284,12287,2,8,L|208:344,1,50
308,320,12842,2,8,L|376:320,1,50
458,320,13398,1,4,0:0:0:0:
136,280,25437,6,8,B|116:244|120:188|120:188|192:180|192:180|160:128|156:40,1,300,0|0,0:0|0:0,0:0:0:0:
252,64,26919,2,8,P|276:132|396:168,1,200,8|0,0:0|0:0,0:0:0:0:
484,132,28030,1,8,0:0:0:0:
480,232,28401,6,0,B|440:324|440:324|320:360,1,200
244,352,29512,1,8,0:0:0:0:
148,320,29883,2,0,B|100:280|52:292|52:292|16:232|80:192|32:96,1,300,0|8,0:0|0:0,0:0:0:0:
4,8,31364,6,0,P|100:32|132:140,1,200
156,212,32476,1,8,0:0:0:0:
240,268,32846,2,0,P|340:264|428:168,2,200,0|8|0,0:0|0:0|0:0,0:0:0:0:
156,212,34698,6,0,P|112:240|32:256,2,100,0|0|8,0:0|0:0|0:0,0:0:0:0:
232,144,35810,1,0,0:0:0:0:
316,280,36180,2,0,B|312:216|384:148|384:148|348:108|348:108|396:8,1,300,8|0,0:0|0:0,0:0:0:0:
288,28,37662,6,0,L|232:136,2,100,8|0|8,0:0|0:0|0:0,0:0:0:0:
384,52,38773,2,0,B|404:124|364:188|364:188|364:268|428:332,1,300,0|8,0:0|0:0,0:0:0:0:
328,352,40255,1,0,0:0:0:0:
228,340,40625,2,0,B|200:248|124:252|124:252|148:172|148:172|60:156|52:48,1,400,8|8,0:0|0:0,0:0:0:0:
156,72,42478,1,0,0:0:0:0:
252,48,42848,1,0,0:0:0:0:
328,116,43218,6,0,P|336:184|456:228,2,200
344,16,45071,1,8,0:0:0:0:
244,32,45441,1,0,0:0:0:0:
188,116,45811,1,8,0:0:0:0:
164,212,46182,6,0,L|160:340,2,100,0|8|8,0:0|0:0|0:0,0:0:0:0:
256,248,47293,1,0,0:0:0:0:
352,280,47664,1,0,0:0:0:0:
448,308,48034,2,0,B|428:228|452:172|452:172|420:148|420:148|436:116|436:116|424:88|424:88|432:8,1,300,8|4,0:0|0:0,0:0:0:0:
240,96,49886,5,8,0:0:0:0:
176,284,50627,2,0,P|116:284|72:256,2,100
300,124,52109,6,0,P|372:189|470:188,1,200,4|8,0:0|0:0,0:0:0:0:
488,88,53220,1,0,0:0:0:0:
408,28,53591,2,0,B|360:16|360:16|280:40,1,100
300,124,54332,2,0,L|300:230,1,100,8|0,0:0|0:0,0:0:0:0:
264,328,55072,6,0,P|204:348|96:320,1,150,4|8,0:0|0:0,0:0:0:0:
24,220,56184,6,8,L|24:388,1,150
112,248,57295,6,8,L|112:144,1,100
204,104,58036,2,0,L|204:0,2,100,4|0|0,0:0|0:0|0:0,0:0:0:0:
260,184,59147,1,0,0:0:0:0:
360,204,59518,2,0,B|344:252|336:332|336:332|248:308|248:308|148:352,1,300,0|8,0:0|0:0,0:0:0:0:
76,340,60999,5,4,0:0:0:0:
120,252,61370,1,8,0:0:0:0:
48,192,61740,2,0,P|152:164|212:236,1,200
284,288,62852,1,8,0:0:0:0:
356,228,63222,2,0,L|356:120,2,100,0|0|4,0:0|0:0|0:0,0:0:0:0:
372,328,64333,5,8,0:0:0:0:
284,288,64704,2,0,P|220:272|172:272,1,100,0|8,0:0|0:0,0:0:0:0:
88,292,65445,2,0,P|72:240|92:168,1,100,0|8,0:0|0:0,0:0:0:0:
148,124,66186,2,0,L|148:24,2,100,0|0|4,0:0|0:0|0:0,0:0:0:0:
180,220,67297,5,8,0:0:0:0:
276,192,67667,2,0,B|344:148|320:100|308:44|380:32,1,200
452,96,68779,2,0,L|456:212,1,100,8|0,0:0|0:0,0:0:0:0:
368,248,69520,2,0,L|356:356,2,100,0|4|8,0:0|0:0|0:0,0:0:0:0:
348,152,70631,2,0,P|304:128|216:128,1,100,8|0,0:0|0:0,0:0:0:0:
180,188,71372,6,0,P|124:192|152:28,1,300
220,100,72854,5,4,0:0:0:0:
308,148,73224,2,0,P|304:208|280:256,2,100,8|0|0,0:0|0:0|0:0,0:0:0:0:
220,100,74335,2,0,P|268:56|320:52,1,100,0|8,0:0|0:0,0:0:0:0:
388,96,75076,2,0,P|408:156|396:204,1,100,0|8,0:0|0:0,0:0:0:0:
332,260,75817,5,4,0:0:0:0:
232,232,76187,2,0,P|160:220|76:232,2,150,0|0|8,0:0|0:0|0:0,0:0:0:0:
332,260,77669,1,0,0:0:0:0:
376,168,78040,6,0,L|376:64,1,100,0|8,0:0|0:0,0:0:0:0:
468,108,78781,2,0,B|468:208|468:208|384:284,1,200
316,208,79892,6,0,P|264:196|188:204,1,100,8|0,0:0|0:0,0:0:0:0:
120,216,80633,2,0,L|132:336,2,100,0|0|8,0:0|0:0|0:0,0:0:0:0:
96,120,81744,5,4,0:0:0:0:
168,48,82115,1,8,0:0:0:0:
268,56,82485,1,0,0:0:0:0:
356,104,82855,2,0,L|344:232,1,100,8|0,0:0|0:0,0:0:0:0:
280,280,83596,2,0,P|340:304|448:192,1,200
256,192,84522,12,0,86930,0:0:0:0:
