osu file format v13

[General]
AudioFilename: BAKUROCK.mp3
AudioLeadIn: 0
PreviewTime: 43966
Countdown: 0
SampleSet: Soft
StackLeniency: 0.7
Mode: 0
LetterboxInBreaks: 1
WidescreenStoryboard: 0

[Editor]
Bookmarks: 88966
DistanceSpacing: 2
BeatDivisor: 4
GridSize: 4
TimelineZoom: 1.7

[Metadata]
Title:BAKUROCK ~Mirai no Rinkakusen~ (Cut ver.)
TitleUnicode:BAKUROCK ~未来の輪郭線~ (Cut ver.)
Artist:YA-KYIM
ArtistUnicode:YA-KYIM
Creator:KinomiCandy
Version:Insane
Source:Bakuman
Tags:
BeatmapID:511866
BeatmapSetID:218345

[Difficulty]
HPDrainRate:6
CircleSize:4
OverallDifficulty:8
ApproachRate:9
SliderMultiplier:1.9
SliderTickRate:1

[Events]
//Background and Video events
Video,11239,"gay.avi"
0,0,"Konachan.com - 67868 bakuman mashiro_moritaka niizuma_eiji takagi_akito.jpg",0,0
//Break Periods
//Storyboard Layer 0 (Background)
//Storyboard Layer 1 (Fail)
//Storyboard Layer 2 (Pass)
//Storyboard Layer 3 (Foreground)
//Storyboard Sound Samples
//Background Colour Transformations
3,100,163,162,255

[TimingPoints]
330,340.909090909091,4,2,1,65,1,0
11239,-100,4,2,2,65,0,0
20784,-100,4,2,1,65,0,0
35443,-100,4,2,1,65,0,0
43966,-100,4,2,1,65,0,1
97148,-100,4,2,1,65,0,0

[Colours]
Combo1 : 183,111,255
Combo2 : 255,156,108
Combo3 : 100,255,139
Combo4 : 255,100,100
Combo5 : 255,255,128
Combo6 : 132,217,249

[HitObjects]
88,192,330,6,0,P|184:192|256:248,1,190,4|8,0:0|0:0,0:0:0:0:
332,304,841,2,0,P|424:304|444:284,1,95,0|2,0:0|0:0,0:0:0:0:
480,228,1182,1,2,0:0:0:0:
360,80,1352,2,0,P|328:128|396:232,1,190,8|2,0:0|0:0,0:0:0:0:
432,144,1864,5,2,0:0:0:0:
360,80,2034,1,8,0:0:0:0:
204,188,2205,2,0,P|132:188|40:280,1,190,2|2,0:0|0:0,0:0:0:0:
92,344,2716,2,0,P|164:344|256:252,1,190,8|2,0:0|0:0,0:0:0:0:
296,188,3227,1,2,0:0:0:0:
140,80,3398,2,0,P|112:136|120:180,1,95,8|2,0:0|0:0,0:0:0:0:
115,166,3909,5,2,0:0:0:0:
256,296,4080,2,0,L|328:368,1,95,8|0,0:0|0:0,0:0:0:0:
416,360,4420,2,0,L|488:288,1,95,2|2,0:0|0:0,0:0:0:0:
444,204,4761,1,8,0:0:0:0:
356,36,4932,5,0,0:0:0:0:
356,36,5017,1,0,0:0:0:0:
356,36,5102,2,0,L|312:128,1,95,2|2,0:0|0:0,0:0:0:0:
256,296,5443,2,0,L|200:204,1,95,8|0,0:0|0:0,0:0:0:0:
120,44,5784,6,0,P|80:100|80:228,1,190,2|8,0:0|0:0,0:0:0:0:
256,296,6295,2,0,P|296:240|296:112,1,190,2|2,0:0|0:0,0:0:0:0:
256,36,6807,1,8,0:0:0:0:
196,112,6977,1,0,0:0:0:0:
244,192,7148,2,0,P|332:228|420:188,1,190,2|8,0:0|0:0,0:0:0:0:
344,132,7659,2,0,P|320:232|348:320,1,190,2|2,0:0|0:0,0:0:0:0:
412,380,8170,1,8,0:0:0:0:
440,192,8511,5,2,0:0:0:0:
316,48,8682,1,2,0:0:0:0:
300,236,8852,1,8,0:0:0:0:
224,192,9023,2,0,P|128:192|64:264,1,190,2|2,0:0|0:0,0:0:0:0:
124,72,9534,1,8,0:0:0:0:
160,264,9705,6,0,L|184:360,1,95,2|2,0:0|0:0,0:0:0:0:
224,192,10045,2,0,L|280:100,1,95,2|8,0:0|0:0,0:0:0:0:
372,272,10386,1,2,0:0:0:0:
288,112,10557,1,0,0:0:0:0:
372,272,10727,1,2,0:0:0:0:
364,172,10898,1,8,0:0:0:0:
288,112,11068,1,0,0:0:0:0:
288,112,11153,1,8,0:0:0:0:
288,112,11239,6,0,P|232:112|180:156,1,95,6|8,0:0|0:0,0:0:0:0:
364,172,11580,2,0,P|384:108|380:68,1,95,2|8,0:0|0:0,0:0:0:0:
268,208,11920,2,0,P|256:264|272:312,1,95,2|8,0:0|0:0,0:0:0:0:
288,112,12261,1,2,0:0:0:0:
168,223,12432,1,8,0:0:0:0:
128,56,12602,2,0,P|76:56|36:80,1,95,2|8,0:0|0:0,0:0:0:0:
80,244,12943,2,0,P|132:244|172:220,1,95,2|8,0:0|0:0,0:0:0:0:
256,336,13284,2,0,P|280:284|276:224,1,95,2|8,0:0|0:0,0:0:0:0:
424,256,13625,2,0,P|408:200|360:160,1,95,2|8,0:0|0:0,0:0:0:0:
312,52,13966,6,0,L|244:144,1,95,2|8,0:0|0:0,0:0:0:0:
256,336,14307,2,0,L|324:244,1,95,2|8,0:0|0:0,0:0:0:0:
344,168,14648,1,2,0:0:0:0:
168,296,14818,1,8,0:0:0:0:
168,104,14989,1,2,0:0:0:0:
344,168,15159,1,8,0:0:0:0:
100,228,15330,6,0,P|84:176|84:128,1,95,2|8,0:0|0:0,0:0:0:0:
244,36,15670,2,0,P|256:76|248:152,1,95,2|8,0:0|0:0,0:0:0:0:
200,208,16011,1,2,0:0:0:0:
364,304,16182,2,0,P|428:304|464:272,1,95,8|2,0:0|0:0,0:0:0:0:
416,100,16523,1,8,0:0:0:0:
416,100,16608,1,8,0:0:0:0:
416,100,16693,2,0,P|392:168|400:204,1,95,2|8,0:0|0:0,0:0:0:0:
236,292,17034,6,0,P|220:232|184:196,1,95,2|8,0:0|0:0,0:0:0:0:
148,128,17375,2,0,P|124:84|124:16,1,95,2|8,0:0|0:0,0:0:0:0:
256,132,17716,1,2,0:0:0:0:
324,68,17886,1,8,0:0:0:0:
416,100,18057,2,0,P|440:156|440:200,1,95,2|8,0:0|0:0,0:0:0:0:
280,292,18398,2,0,P|256:240|256:192,1,95,2|8,0:0|0:0,0:0:0:0:
348,212,18739,1,2,0:0:0:0:
348,212,18909,1,8,0:0:0:0:
168,276,19080,1,2,0:0:0:0:
168,276,19250,1,8,0:0:0:0:
88,228,19420,6,0,L|48:128,1,95,2|8,0:0|0:0,0:0:0:0:
192,8,19761,2,0,L|164:124,1,95,10|8,0:0|0:0,0:0:0:0:
260,268,20102,2,0,L|280:164,1,95,10|8,0:0|0:0,0:0:0:0:
420,48,20443,2,0,L|448:152,1,95,10|8,0:0|0:0,0:0:0:0:
396,224,20784,1,8,0:0:0:0:
252,348,20955,2,0,P|136:348|80:264,1,190,6|2,0:0|0:0,0:0:0:0:
236,176,21466,2,0,P|348:172|400:232,1,190,6|8,0:0|0:0,0:0:0:0:
396,224,22148,5,4,0:0:0:0:
252,348,22318,1,2,0:0:0:0:
184,280,22489,2,0,P|144:212|144:92,1,190,8|2,0:0|0:0,0:0:0:0:
204,32,23000,1,2,0:0:0:0:
280,152,23170,2,0,P|380:152|452:68,1,190,8|2,0:0|0:0,0:0:0:0:
442,93,23682,1,2,0:0:0:0:
442,93,23852,1,8,0:0:0:0:
416,284,24023,2,0,L|256:388,1,190,2|2,0:0|0:0,0:0:0:0:
124,252,24534,1,8,0:0:0:0:
260,116,24705,5,0,0:0:0:0:
260,116,24790,1,0,0:0:0:0:
260,116,24875,2,0,P|324:116|364:144,1,95,2|0,0:0|0:0,0:0:0:0:
212,264,25216,2,0,P|152:268|108:236,1,95,10|0,0:0|0:0,0:0:0:0:
52,188,25557,1,2,0:0:0:0:
128,128,25727,1,2,0:0:0:0:
308,192,25898,2,0,P|408:192|480:256,1,190,8|2,0:0|0:0,0:0:0:0:
368,88,26409,5,2,0:0:0:0:
368,88,26580,1,8,0:0:0:0:
224,212,26750,2,0,P|192:164|192:28,1,190,2|2,0:0|0:0,0:0:0:0:
308,192,27261,2,0,P|340:240|340:376,1,190,8|2,0:0|0:0,0:0:0:0:
343,368,27943,5,8,0:0:0:0:
160,312,28114,2,0,P|100:312|60:280,1,95,0|2,0:0|0:0,0:0:0:0:
220,176,28455,2,0,P|280:176|320:208,1,95,2|8,0:0|0:0,0:0:0:0:
388,248,28795,1,2,0:0:0:0:
456,180,28966,2,0,P|456:132|428:80,1,95,2|2,0:0|0:0,0:0:0:0:
364,28,29307,1,8,0:0:0:0:
220,176,29477,2,0,P|112:176|52:112,1,190,2|2,0:0|0:0,0:0:0:0:
152,104,29989,1,8,0:0:0:0:
76,276,30159,5,2,0:0:0:0:
76,276,30244,1,0,0:0:0:0:
76,276,30330,2,0,L|148:352,1,95,2|2,0:0|0:0,0:0:0:0:
256,101,30670,2,0,L|256:196,1,95,8|0,0:0|0:0,0:0:0:0:
436,276,31011,2,0,L|364:352,1,95,2|2,0:0|0:0,0:0:0:0:
256,196,31352,6,0,L|256:101,1,95,8|0,0:0|0:0,0:0:0:0:
141,344,31693,2,0,L|76:276,1,95,2|2,0:0|0:0,0:0:0:0:
370,344,32033,2,0,L|436:276,1,95,8|2,0:0|0:0,0:0:0:0:
388,192,32375,1,0,0:0:0:0:
256,56,32716,1,8,0:0:0:0:
124,192,33057,6,0,P|104:240|104:292,1,95,4|0,0:0|0:0,0:0:0:0:
156,360,33398,1,8,0:0:0:0:
256,200,33568,2,0,P|276:152|276:100,1,95,2|8,0:0|0:0,0:0:0:0:
224,32,33909,1,2,0:0:0:0:
224,32,34080,1,2,0:0:0:0:
380,144,34250,1,8,0:0:0:0:
380,144,34591,5,2,0:0:0:0:
440,220,34761,2,0,P|456:272|456:320,1,95,8|0,0:0|0:0,0:0:0:0:
384,372,35102,1,2,0:0:0:0:
256,232,35273,1,2,0:0:0:0:
256,232,35443,1,8,0:0:0:0:
233,207,35528,1,8,0:0:0:0:
218,177,35613,1,8,0:0:0:0:
210,145,35698,1,8,0:0:0:0:
208,112,35784,2,0,P|208:60|176:16,1,95,2|0,0:0|0:0,0:0:0:0:
92,192,36125,6,0,P|92:252|112:300,1,95,8|2,0:0|0:0,0:0:0:0:
152,368,36466,1,8,0:0:0:0:
340,372,36636,2,0,P|408:372|436:340,1,95,2|2,0:0|0:0,0:0:0:0:
384,272,36977,1,8,0:0:0:0:
428,356,37148,1,2,0:0:0:0:
428,192,37318,5,8,0:0:0:0:
420,160,37403,1,8,0:0:0:0:
412,128,37489,1,8,0:0:0:0:
404,96,37574,1,8,0:0:0:0:
392,64,37659,2,0,P|332:52|288:72,1,95,2|8,0:0|0:0,0:0:0:0:
272,76,37915,1,8,0:0:0:0:
240,84,38000,1,8,0:0:0:0:
208,88,38085,1,8,0:0:0:0:
176,80,38170,1,2,0:0:0:0:
144,68,38256,1,2,0:0:0:0:
112,56,38341,1,10,0:0:0:0:
83,55,38426,1,2,0:0:0:0:
83,55,38511,6,0,P|50:105|82:233,1,190,4|8,0:0|0:0,0:0:0:0:
232,336,39023,2,0,L|272:232,1,95,2|8,0:0|0:0,0:0:0:0:
392,104,39364,2,0,L|344:208,1,95,2|2,0:0|0:0,0:0:0:0:
176,120,39705,2,0,L|272:160,1,95,8|0,0:0|0:0,0:0:0:0:
440,228,40045,2,0,L|332:180,1,95,2|8,0:0|0:0,0:0:0:0:
266,247,40386,5,0,0:0:0:0:
263,156,40557,1,2,0:0:0:0:
353,189,40727,1,2,0:0:0:0:
266,247,40898,1,8,0:0:0:0:
239,267,40983,1,8,0:0:0:0:
213,287,41068,1,8,0:0:0:0:
188,308,41153,1,8,0:0:0:0:
160,328,41239,6,0,P|104:328|60:296,1,95,2|0,0:0|0:0,0:0:0:0:
176,136,41580,2,0,P|236:136|272:172,1,95,8|0,0:0|0:0,0:0:0:0:
353,189,41920,1,8,0:0:0:0:
432,136,42091,1,2,0:0:0:0:
352,188,42261,1,2,0:0:0:0:
404,56,42432,1,8,0:0:0:0:
256,192,42517,12,8,43625,0:0:0:0:
256,192,43966,5,4,0:0:0:0:
336,140,44136,2,0,P|356:92|356:44,1,95,2|8,0:0|0:0,0:0:0:0:
344,240,44477,1,2,0:0:0:0:
344,240,44562,1,0,0:0:0:0:
344,240,44648,1,2,0:0:0:0:
172,320,44818,1,2,0:0:0:0:
88,128,44989,2,0,P|40:128|0:160,1,95,8|0,0:0|0:0,0:0:0:0:
172,240,45330,6,0,P|200:156|152:40,1,190,2|8,0:0|0:0,0:0:0:0:
336,140,45841,2,0,P|308:224|356:340,1,190,2|2,0:0|0:0,0:0:0:0:
172,240,46352,1,8,0:0:0:0:
336,140,46523,1,2,0:0:0:0:
171,61,46693,6,0,P|104:60|64:108,1,95,2|0,0:0|0:0,0:0:0:0:
20,144,47034,1,8,0:0:0:0:
112,312,47205,2,0,P|156:272|176:220,1,95,0|2,0:0|0:0,0:0:0:0:
336,140,47545,2,0,P|252:140|228:160,1,95,2|8,0:0|0:0,0:0:0:0:
416,228,47886,2,0,P|448:160|412:48,1,190,2|2,0:0|0:0,0:0:0:0:
245,143,48398,5,8,0:0:0:0:
416,228,48568,2,0,L|464:272,2,47.5,2|0|2,0:0|0:0|0:0,0:0:0:0:
308,72,48909,1,2,0:0:0:0:
245,143,49080,1,8,0:0:0:0:
184,72,49250,1,0,0:0:0:0:
76,228,49420,6,0,P|56:276|56:320,1,95,2|0,0:0|0:0,0:0:0:0:
152,156,49761,1,8,0:0:0:0:
256,316,49932,2,0,P|364:316|420:252,1,190,0|2,0:0|0:0,0:0:0:0:
336,140,50443,1,8,0:0:0:0:
256,316,50614,1,0,0:0:0:0:
76,228,50784,6,0,P|44:176|44:44,1,190,2|8,0:0|0:0,0:0:0:0:
168,192,51295,2,0,P|256:156|356:212,1,190,2|2,0:0|0:0,0:0:0:0:
424,144,51807,2,0,P|444:100|444:48,1,95,8|0,0:0|0:0,0:0:0:0:
338,190,52148,5,2,0:0:0:0:
168,192,52318,1,0,0:0:0:0:
256,344,52489,1,8,0:0:0:0:
168,192,52659,2,0,P|144:148|144:88,1,95,0|2,0:0|0:0,0:0:0:0:
332,84,53000,2,0,L|236:120,1,95,2|8,0:0|0:0,0:0:0:0:
400,224,53341,2,0,L|356:132,1,95,2|2,0:0|0:0,0:0:0:0:
168,192,53682,1,2,0:0:0:0:
88,140,53852,2,0,P|64:96|64:40,1,95,8|2,0:0|0:0,0:0:0:0:
168,192,54193,2,0,P|192:236|192:292,1,95,0|2,0:0|0:0,0:0:0:0:
256,100,54534,1,8,0:0:0:0:
400,224,54705,1,0,0:0:0:0:
400,224,54790,1,8,0:0:0:0:
400,224,54875,6,0,L|456:124,1,95,4|0,0:0|0:0,0:0:0:0:
264,192,55216,2,0,L|216:280,1,95,8|0,0:0|0:0,0:0:0:0:
132,312,55557,1,2,0:0:0:0:
264,192,55727,1,2,0:0:0:0:
80,128,55898,2,0,P|104:176|104:240,1,95,8|0,0:0|0:0,0:0:0:0:
208,56,56239,2,0,P|264:56|300:84,1,95,2|2,0:0|0:0,0:0:0:0:
324,264,56580,1,8,0:0:0:0:
132,312,56750,2,0,P|96:256|168:128,1,190,2|2,0:0|0:0,0:0:0:0:
320,192,57261,2,0,P|372:192|416:168,1,95,8|0,0:0|0:0,0:0:0:0:
280,112,57602,6,0,P|236:192|288:276,1,190,2|8,0:0|0:0,0:0:0:0:
108,192,58114,1,0,0:0:0:0:
280,272,58284,1,2,0:0:0:0:
280,112,58455,1,2,0:0:0:0:
108,192,58625,2,0,P|92:156|92:88,1,95,8|0,0:0|0:0,0:0:0:0:
168,272,58966,2,0,P|184:324|184:368,1,95,2|2,0:0|0:0,0:0:0:0:
372,188,59307,1,8,0:0:0:0:
280,112,59477,2,0,P|180:112|124:32,1,190,2|2,0:0|0:0,0:0:0:0:
127,47,59989,5,8,0:0:0:0:
164,232,60159,1,0,0:0:0:0:
164,232,60244,1,0,0:0:0:0:
164,232,60330,2,0,P|264:232|320:312,1,190,2|8,0:0|0:0,0:0:0:0:
440,152,60841,1,0,0:0:0:0:
372,88,61011,2,0,P|352:44|352:-4,1,95
440,32,61352,1,8,0:0:0:0:
296,156,61523,2,0,P|196:156|132:84,1,190,2|2,0:0|0:0,0:0:0:0:
232,84,62034,1,8,0:0:0:0:
68,184,62205,2,0,P|32:116|72:12,1,190,2|2,0:0|0:0,0:0:0:0:
240,100,62716,5,8,0:0:0:0:
68,184,62886,1,0,0:0:0:0:
68,184,62971,1,0,0:0:0:0:
68,184,63057,2,0,L|232:324,1,190,2|8,0:0|0:0,0:0:0:0:
292,360,63568,1,0,0:0:0:0:
384,192,63739,2,0,P|400:152|400:100,1,95,2|2,0:0|0:0,0:0:0:0:
356,16,64080,1,8,0:0:0:0:
208,132,64250,2,0,P|112:132|40:204,1,190,0|2,0:0|0:0,0:0:0:0:
160,344,64761,1,8,0:0:0:0:
160,344,64932,2,0,P|256:344|328:272,1,190,2|2,0:0|0:0,0:0:0:0:
396,224,65443,1,8,0:0:0:0:
196,20,65784,6,0,L|240:56,1,47.5,2|0,0:0|0:0,0:0:0:0:
256,80,65954,1,8,0:0:0:0:
256,94,66039,1,0,0:0:0:0:
256,109,66124,1,2,0:0:0:0:
256,123,66210,1,8,0:0:0:0:
256,137,66295,1,8,0:0:0:0:
256,151,66380,1,8,0:0:0:0:
256,166,66465,1,8,0:0:0:0:
256,180,66551,1,8,0:0:0:0:
256,194,66636,1,8,0:0:0:0:
256,208,66721,1,8,0:0:0:0:
256,223,66806,1,2,0:0:0:0:
256,237,66891,1,2,0:0:0:0:
256,251,66977,1,2,0:0:0:0:
256,265,67062,1,2,0:0:0:0:
256,280,67148,6,0,P|200:344|88:344,1,190,4|8,0:0|0:0,0:0:0:0:
164,168,67659,1,0,0:0:0:0:
164,168,67830,2,0,P|220:104|332:104,1,190,2|8,0:0|0:0,0:0:0:0:
164,168,68341,1,0,0:0:0:0:
412,264,68511,2,0,P|356:328|244:328,1,190,2|8,0:0|0:0,0:0:0:0:
88,244,69023,2,0,P|48:156|96:76,1,190,2|2,0:0|0:0,0:0:0:0:
256,176,69534,2,0,P|352:176|424:104,1,190,8|2,0:0|0:0,0:0:0:0:
396,304,70045,5,2,0:0:0:0:
256,176,70216,1,8,0:0:0:0:
188,112,70386,2,0,P|172:64|172:12,1,95,0|2,0:0|0:0,0:0:0:0:
60,176,70727,2,0,P|84:228|84:280,1,95,0|8,0:0|0:0,0:0:0:0:
148,336,71068,1,0,0:0:0:0:
256,176,71239,2,0,P|356:176|424:108,1,190,2|8,0:0|0:0,0:0:0:0:
316,96,71750,2,0,L|380:288,1,190,2|2,0:0|0:0,0:0:0:0:
204,192,72261,5,8,0:0:0:0:
136,128,72432,1,0,0:0:0:0:
136,128,72517,1,0,0:0:0:0:
136,128,72602,2,0,P|116:80|112:32,1,95,2|0,0:0|0:0,0:0:0:0:
48,216,72943,1,8,0:0:0:0:
48,216,73113,2,0,P|72:272|72:320,1,95,2|2,0:0|0:0,0:0:0:0:
256,360,73455,2,0,L|316:260,1,95,2|8,0:0|0:0,0:0:0:0:
332,92,73795,2,0,L|276:184,1,95,0|2,0:0|0:0,0:0:0:0:
400,324,74136,2,0,L|452:232,1,95,2|8,0:0|0:0,0:0:0:0:
332,92,74477,2,0,P|236:92|164:164,1,190,2|0,0:0|0:0,0:0:0:0:
256,324,74989,5,8,0:0:0:0:
416,220,75159,1,0,0:0:0:0:
416,220,75244,1,0,0:0:0:0:
416,220,75330,1,2,0:0:0:0:
256,116,75500,2,0,P|188:116|152:144,1,95,0|8,0:0|0:0,0:0:0:0:
332,220,75841,2,0,P|376:236|420:212,1,95,0|2,0:0|0:0,0:0:0:0:
256,116,76182,1,2,0:0:0:0:
80,192,76352,1,8,0:0:0:0:
256,324,76523,6,0,P|296:252|296:128,1,190,0|2,0:0|0:0,0:0:0:0:
272,56,77034,2,0,L|188:104,1,95,8|2,0:0|0:0,0:0:0:0:
112,280,77375,2,0,L|76:184,1,95,0|2,0:0|0:0,0:0:0:0:
168,360,77716,1,8,0:0:0:0:
340,284,77886,1,0,0:0:0:0:
340,284,77972,1,8,0:0:0:0:
340,284,78057,6,0,P|376:216|376:96,1,190,4|8,0:0|0:0,0:0:0:0:
340,20,78568,1,0,0:0:0:0:
224,172,78739,2,0,P|128:172|64:104,1,190,0|8,0:0|0:0,0:0:0:0:
168,96,79250,1,0,0:0:0:0:
168,96,79420,2,0,L|72:272,1,190,2|8,0:0|0:0,0:0:0:0:
256,336,79932,1,0,0:0:0:0:
434,262,80102,2,0,L|344:96,1,190,2|8,0:0|0:0,0:0:0:0:
168,96,80614,1,0,0:0:0:0:
343,94,80784,1,2,0:0:0:0:
180,196,80955,6,0,P|164:232|164:292,1,95,0|8,0:0|0:0,0:0:0:0:
80,116,81295,1,0,0:0:0:0:
244,116,81466,2,0,P|260:56|260:8,1,95,2|2,0:0|0:0,0:0:0:0:
284,212,81807,1,8,0:0:0:0:
284,212,81977,1,0,0:0:0:0:
424,344,82148,2,0,P|444:284|444:116,1,190,2|10,0:0|0:0,0:0:0:0:
392,84,82659,1,2,0:0:0:0:
464,256,82830,5,2,0:0:0:0:
480,68,83000,1,0,0:0:0:0:
316,140,83170,1,8,0:0:0:0:
504,160,83340,1,0,0:0:0:0:
236,192,83511,6,0,P|140:192|68:108,1,190,2|8,0:0|0:0,0:0:0:0:
172,116,84023,1,0,0:0:0:0:
116,300,84193,2,0,L|148:200,1,95,2|2,0:0|0:0,0:0:0:0:
256,56,84534,1,8,0:0:0:0:
256,56,84705,2,0,L|304:152,1,95,0|2,0:0|0:0,0:0:0:0:
404,300,85045,1,0,0:0:0:0:
444,212,85216,2,0,P|460:172|460:96,1,95,8|2,0:0|0:0,0:0:0:0:
404,48,85557,5,2,0:0:0:0:
256,168,85727,1,2,0:0:0:0:
256,168,85812,1,0,0:0:0:0:
256,168,85898,1,8,0:0:0:0:
108,48,86068,1,2,0:0:0:0:
164,228,86239,2,0,P|260:256|360:216,1,190,0|8,0:0|0:0,0:0:0:0:
256,60,86750,5,0,0:0:0:0:
164,228,86920,2,0,P|144:176|144:108,1,95,2|2,0:0|0:0,0:0:0:0:
256,292,87261,1,8,0:0:0:0:
256,292,87432,1,0,0:0:0:0:
420,192,87602,2,0,L|364:88,1,95,2|2,0:0|0:0,0:0:0:0:
137,108,87943,2,0,L|92:192,1,95,8|0,0:0|0:0,0:0:0:0:
152,264,88284,2,0,L|152:328,1,47.5,2|0,0:0|0:0,0:0:0:0:
193,314,88454,1,8,0:0:0:0:
223,329,88539,1,8,0:0:0:0:
256,335,88624,1,8,0:0:0:0:
288,328,88710,1,8,0:0:0:0:
320,316,88795,1,8,0:0:0:0:
340,292,88880,1,8,0:0:0:0:
356,264,88966,70,0,P|400:192|424:184,1,95,4|0,0:0|0:0,0:0:0:0:
256,68,89307,1,8,0:0:0:0:
256,256,89477,2,0,P|232:204|232:152,1,95,0|2,0:0|0:0,0:0:0:0:
56,244,89818,2,0,P|76:292|76:344,1,95,2|8,0:0|0:0,0:0:0:0:
116,148,90159,1,0,0:0:0:0:
256,68,90330,2,0,P|320:68|348:88,1,95
256,256,90670,1,8,0:0:0:0:
84,336,90841,2,0,P|48:280|120:152,1,190,2|2,0:0|0:0,0:0:0:0:
256,256,91352,2,0,P|308:256|352:232,1,95,8|0,0:0|0:0,0:0:0:0:
424,180,91693,5,0,0:0:0:0:
424,180,91864,1,0,0:0:0:0:
256,88,92034,2,0,P|196:88|156:116,1,95,8|0,0:0|0:0,0:0:0:0:
204,292,92375,2,0,P|224:236|224:192,1,95
340,48,92716,2,0,P|340:92|360:148,1,95,8|0,0:0|0:0,0:0:0:0:
256,304,93057,6,0,L|200:204,1,95,2|2,0:0|0:0,0:0:0:0:
44,128,93398,2,0,L|100:228,1,95,8|2,0:0|0:0,0:0:0:0:
244,100,93739,2,0,L|156:152,1,95,0|2,0:0|0:0,0:0:0:0:
64,312,94080,2,0,L|148:264,1,95,8|0,0:0|0:0,0:0:0:0:
244,100,94420,1,0,0:0:0:0:
244,100,94591,1,0,0:0:0:0:
408,196,94761,2,0,P|424:152|424:100,1,95,8|0,0:0|0:0,0:0:0:0:
332,272,95102,2,0,P|316:316|316:368,1,95,2|2,0:0|0:0,0:0:0:0:
304,172,95443,1,8,0:0:0:0:
116,192,95614,5,2,0:0:0:0:
256,64,95784,1,8,0:0:0:0:
256,64,95869,1,0,0:0:0:0:
256,64,95955,1,2,0:0:0:0:
364,328,96125,1,12,0:0:0:0:
364,328,96210,1,0,0:0:0:0:
364,328,96296,1,2,0:0:0:0:
444,156,96466,2,0,L|396:264,1,95,0|2,0:0|0:0,0:0:0:0:
256,64,96807,2,0,L|300:168,1,95,0|2,0:0|0:0,0:0:0:0:
364,328,97148,1,4,0:0:0:0:
