osu file format v12

[General]
AudioFilename: YAS - Coit Me.mp3
AudioLeadIn: 0
PreviewTime: -1
Countdown: 0
SampleSet: None
StackLeniency: 0.7
Mode: 0
LetterboxInBreaks: 1
WidescreenStoryboard: 1

[Editor]
DistanceSpacing: 1
BeatDivisor: 4
GridSize: 8

[Metadata]
Title:Coit Me
TitleUnicode:Coit Me
Artist:Y.A.S.
ArtistUnicode:Y.A.S.
Creator:Slum
Version:Normal
Source:
Tags:Y.A.S. Coit Me Arabology
BeatmapID:324901
BeatmapSetID:128259

[Difficulty]
HPDrainRate:3
CircleSize:4
OverallDifficulty:3
ApproachRate:6
SliderMultiplier:1.4
SliderTickRate:1

[Events]
//Background and Video events
0,0,"wallpaper-147952.jpg",0,0
//Break Periods
2,25566,35167
//Storyboard Layer 0 (Background)
//Storyboard Layer 1 (Fail)
//Storyboard Layer 2 (Pass)
//Storyboard Layer 3 (Foreground)
//Storyboard Sound Samples
//Background Colour Transformations
3,100,163,162,255

[TimingPoints]
473,638.297872340426,4,3,0,30,1,0
57919,-100,4,3,0,50,0,1
61749,-100,4,3,0,30,0,0
63026,-100,4,3,0,50,0,1
66855,-100,4,3,0,30,0,0
68132,-100,4,3,0,50,0,1
71962,-100,4,3,0,30,0,0
73238,-100,4,3,0,50,0,1
77068,-100,4,3,0,30,0,0
84728,-100,4,2,0,5,0,0
87281,-100,4,3,0,30,0,0

[HitObjects]
136,294,473,2,0,P|130:227|99:155,1,140
220,235,1749,2,0,P|202:160|206:87,1,140
343,116,3026,2,0,P|329:182|279:261,1,140
262,108,4302,1,0,0:0:0:0:
293,244,4941,1,0,0:0:0:0:
293,244,5260,1,0,0:0:0:0:
278,312,5579,6,0,L|195:331,1,70
191,260,6217,2,0,B|139:265|92:281|92:281|52:256,1,140
66,190,7175,1,0,0:0:0:0:
105,131,7494,1,0,0:0:0:0:
107,61,7813,1,0,0:0:0:0:
105,131,8132,6,0,L|178:127,1,70
231,86,8770,2,0,L|308:82,1,70
363,50,9409,2,0,P|366:117|300:153,1,140
416,243,10685,2,0,B|386:245|386:245|330:272,1,70
283,288,11324,2,0,P|209:259|138:288,2,140
320,152,13238,5,0,0:0:0:0:
320,152,13558,1,0,0:0:0:0:
320,152,13877,1,0,0:0:0:0:
192,152,14515,1,0,0:0:0:0:
192,152,14834,1,0,0:0:0:0:
192,152,15153,1,0,0:0:0:0:
116,270,15792,6,0,L|177:308,1,70
242,287,16430,2,0,B|283:256|329:250|329:250|377:271,1,140
435,245,17387,1,0,0:0:0:0:
429,175,17707,1,0,0:0:0:0:
397,112,18026,1,0,0:0:0:0:
429,175,18345,6,0,L|344:194,1,70
305,146,18983,2,0,L|229:164,1,70
208,225,19621,1,0,0:0:0:0:
150,264,19941,1,0,0:0:0:0:
80,256,20260,1,0,0:0:0:0:
49,192,20579,1,0,0:0:0:0:
86,133,20898,6,0,P|95:95|78:48,2,70
152,155,21855,1,0,0:0:0:0:
222,151,22175,2,0,B|250:117|250:117|305:116|352:146,1,140
425,252,23451,6,0,P|397:273|376:301,2,70
302,320,24728,2,0,B|237:299|237:299|197:313|158:306,1,140
95,69,36217,6,0,L|112:149,1,70
55,182,36855,2,0,L|71:262,1,70
121,297,37494,2,0,B|151:330|151:330|198:338|250:316,1,140
263,250,38451,1,0,0:0:0:0:
215,198,38770,6,0,P|191:170|149:145,2,70
263,250,39728,1,0,0:0:0:0:
316,294,40047,2,0,B|348:316|348:316|392:293|473:306,1,140
447,162,41324,6,0,P|370:165|368:114,1,140
335,55,42281,1,0,0:0:0:0:
284,103,42600,1,0,0:0:0:0:
215,118,42919,1,0,0:0:0:0:
149,93,43238,1,0,0:0:0:0:
124,231,43877,6,0,P|85:219|54:171,2,70
191,250,44834,1,0,0:0:0:0:
259,263,45153,2,0,P|297:275|321:295,2,70
361,167,46430,6,0,L|411:99,1,70
341,76,47068,2,0,B|303:102|303:102|255:90|206:118,1,140
148,143,48026,1,0,0:0:0:0:
97,191,48345,1,0,0:0:0:0:
202,283,48983,6,0,P|257:243|308:279,1,140
258,329,49941,1,0,0:0:0:0:
202,283,50260,2,0,P|128:278|104:347,1,140
115,190,51536,6,0,L|194:178,1,70
254,184,52175,2,0,B|285:218|285:218|343:225|394:199,2,140
328,65,54090,5,0,0:0:0:0:
328,65,54409,1,0,0:0:0:0:
328,65,54728,1,0,0:0:0:0:
188,66,55366,1,0,0:0:0:0:
188,66,55685,1,0,0:0:0:0:
188,66,56004,1,0,0:0:0:0:
186,214,56643,5,0,0:0:0:0:
325,214,57281,1,0,0:0:0:0:
256,192,57919,12,0,61111,0:0:0:0:
256,192,61749,5,0,0:0:0:0:
256,192,62387,1,0,0:0:0:0:
256,192,63026,12,0,66217,0:0:0:0:
256,192,66855,5,0,0:0:0:0:
256,192,67494,1,0,0:0:0:0:
256,192,68132,12,0,71324,0:0:0:0:
256,192,71962,5,0,0:0:0:0:
256,192,72600,1,0,0:0:0:0:
256,192,73238,12,0,76430,0:0:0:0:
113,88,77068,6,0,P|131:164|129:236,1,140
168,284,78026,1,0,0:0:0:0:
208,227,78345,2,0,P|205:185|213:142,2,70
336,281,79621,6,0,B|389:279|427:261|427:261|488:277,2,140
278,240,81217,1,0,0:0:0:0:
212,215,81536,1,0,0:0:0:0:
142,225,81855,1,0,0:0:0:0:
142,225,82175,6,0,P|130:163|127:153,1,70
212,215,82813,2,0,P|216:173|214:142,1,70
278,240,83451,2,0,P|297:197|305:164,2,70
184,135,84728,6,0,P|138:110|130:93,2,70
328,135,86004,2,0,P|374:110|382:93,2,70
368,269,87281,6,0,B|337:298|337:298|306:312,1,70
256,266,87919,1,0,0:0:0:0:
201,310,88238,1,0,0:0:0:0:
164,250,88558,2,0,B|109:230|60:245|60:245|31:288,1,140
86,140,89834,5,0,0:0:0:0:
153,123,90153,1,0,0:0:0:0:
221,107,90473,2,0,P|239:72|286:43,2,70
285,133,91430,2,0,P|334:123|362:105,2,70
281,202,92387,6,0,P|362:214|424:205,1,140
304,286,93664,2,0,P|203:281|149:301,1,140
62,199,94941,6,0,B|77:233|77:233|68:289,2,70
124,167,95898,1,0,0:0:0:0:
183,131,96217,2,0,B|196:102|196:102|188:64,2,70
190,200,97175,2,0,L|205:286,1,70
