osu file format v12

[General]
AudioFilename: sweetrainoffset.ogg
AudioLeadIn: 0
PreviewTime: 50949
Countdown: 0
SampleSet: Soft
StackLeniency: 0.4
Mode: 3
LetterboxInBreaks: 1

[Editor]
DistanceSpacing: 0.5
BeatDivisor: 4
GridSize: 16

[Metadata]
Title:Sweet Rain
TitleUnicode:Sweet Rain
Artist:Y&Co. feat. Karin
ArtistUnicode:Y&Co. feat. Karin
Creator:chonicle
Version:Insane
Source:jubeat
Tags:
BeatmapID:217675
BeatmapSetID:74779

[Difficulty]
HPDrainRate:7
CircleSize:7
OverallDifficulty:7
ApproachRate:3
SliderMultiplier:0.4
SliderTickRate:1

[Events]
//Background and Video events
0,0,"bg.jpg",0,0
//Break Periods
//Storyboard Layer 0 (Background)
//Storyboard Layer 1 (Fail)
//Storyboard Layer 2 (Pass)
//Storyboard Layer 3 (Foreground)
//Storyboard Sound Samples
Sample,3096,0,"Bluezone-BD-kick-001.wav",70
Sample,3290,0,"Bluezone-BD-snare-028.wav",70
Sample,3483,0,"Bluezone-BD-kick-001.wav",70
Sample,3677,0,"Bluezone-BD-snare-028.wav",70
Sample,3870,0,"Bluezone-BD-kick-001.wav",70
Sample,4064,0,"Bluezone-BD-snare-028.wav",70
Sample,4258,0,"Bluezone-BD-kick-001.wav",70
Sample,4451,0,"Bluezone-BD-snare-028.wav",70
Sample,6193,0,"Bluezone-BD-kick-001.wav",70
Sample,6387,0,"Bluezone-BD-snare-028.wav",70
Sample,6580,0,"Bluezone-BD-kick-001.wav",70
Sample,6774,0,"Bluezone-BD-snare-028.wav",70
Sample,6967,0,"Bluezone-BD-kick-001.wav",70
Sample,7161,0,"Bluezone-BD-snare-028.wav",70
Sample,7354,0,"Bluezone-BD-kick-001.wav",70
Sample,7548,0,"Bluezone-BD-snare-028.wav",70
Sample,8322,0,"Bluezone-BD-clap-006.wav",70
Sample,8709,0,"Bluezone-BD-clap-006.wav",70
Sample,9096,0,"Bluezone-BD-clap-006.wav",70
Sample,9290,0,"soft-hitclap.wav",70
Sample,9483,0,"soft-hitnormal.wav",70
Sample,9677,0,"soft-hitclap.wav",70
Sample,9870,0,"soft-hitnormal.wav",70
Sample,10064,0,"soft-hitnormal.wav",70
Sample,10064,0,"soft-hitclap.wav",70
Sample,10258,0,"soft-hitnormal.wav",70
Sample,10451,0,"soft-hitnormal.wav",70
Sample,10451,0,"soft-hitclap.wav",70
Sample,10645,0,"soft-hitnormal.wav",70
Sample,14129,0,"Bluezone-BD-hihat-019.wav",70
Sample,14225,0,"normal-hitnormal.wav",70
Sample,14322,0,"normal-hitnormal.wav",70
Sample,14516,0,"Bluezone-BD-hihat-019.wav",70
Sample,14516,0,"normal-hitnormal.wav",70
Sample,14612,0,"normal-hitnormal.wav",70
Sample,14903,0,"normal-hitnormal.wav",70
Sample,14903,0,"Bluezone-BD-hihat-019.wav",70
Sample,15096,0,"normal-hitnormal.wav",70
Sample,15290,0,"Bluezone-BD-hihat-019.wav",70
Sample,15290,0,"normal-hitnormal.wav",70
Sample,15483,0,"Bluezone-BD-kick-001.wav",70
Sample,15677,0,"Bluezone-BD-hihat-019.wav",70
Sample,15870,0,"Bluezone-BD-kick-001.wav",70
Sample,16064,0,"Bluezone-BD-hihat-019.wav",70
Sample,16258,0,"Bluezone-BD-kick-001.wav",70
Sample,16451,0,"Bluezone-BD-hihat-019.wav",70
Sample,16645,0,"Bluezone-BD-kick-001.wav",70
Sample,16838,0,"Bluezone-BD-hihat-019.wav",70
Sample,17225,0,"Bluezone-BD-hihat-019.wav",70
Sample,17322,0,"normal-hitnormal.wav",70
Sample,17419,0,"normal-hitnormal.wav",70
Sample,17612,0,"Bluezone-BD-hihat-019.wav",70
Sample,17612,0,"normal-hitnormal.wav",70
Sample,17709,0,"normal-hitnormal.wav",70
Sample,18000,0,"Bluezone-BD-hihat-019.wav",70
Sample,18000,0,"normal-hitnormal.wav",70
Sample,18193,0,"normal-hitnormal.wav",70
Sample,18387,0,"Bluezone-BD-hihat-019.wav",70
Sample,18387,0,"normal-hitnormal.wav",70
Sample,18580,0,"Bluezone-BD-kick-001.wav",70
Sample,18774,0,"Bluezone-BD-hihat-019.wav",70
Sample,18967,0,"Bluezone-BD-kick-001.wav",70
Sample,19161,0,"Bluezone-BD-hihat-019.wav",70
Sample,19354,0,"Bluezone-BD-kick-001.wav",70
Sample,19548,0,"Bluezone-BD-hihat-019.wav",70
Sample,19741,0,"Bluezone-BD-kick-001.wav",70
Sample,19935,0,"Bluezone-BD-kick-001.wav",70
Sample,19935,0,"Bluezone-BD-hihat-019.wav",70
Sample,20322,0,"Bluezone-BD-hihat-019.wav",70
Sample,20419,0,"normal-hitnormal.wav",70
Sample,20516,0,"normal-hitnormal.wav",70
Sample,20709,0,"Bluezone-BD-hihat-019.wav",70
Sample,20709,0,"normal-hitnormal.wav",70
Sample,20806,0,"normal-hitnormal.wav",70
Sample,21096,0,"Bluezone-BD-hihat-019.wav",70
Sample,21096,0,"normal-hitnormal.wav",70
Sample,21290,0,"normal-hitnormal.wav",70
Sample,21483,0,"Bluezone-BD-hihat-019.wav",70
Sample,21483,0,"normal-hitnormal.wav",70
Sample,21677,0,"Bluezone-BD-kick-001.wav",70
Sample,21870,0,"Bluezone-BD-hihat-019.wav",70
Sample,22064,0,"Bluezone-BD-kick-001.wav",70
Sample,22258,0,"Bluezone-BD-hihat-019.wav",70
Sample,22451,0,"Bluezone-BD-kick-001.wav",70
Sample,22645,0,"Bluezone-BD-hihat-019.wav",70
Sample,22838,0,"Bluezone-BD-kick-001.wav",70
Sample,22935,0,"soft-hitnormal.wav",70
Sample,23032,0,"Bluezone-BD-hihat-019.wav",70
Sample,23129,0,"soft-hitnormal.wav",70
Sample,23419,0,"Bluezone-BD-hihat-019.wav",70
Sample,23516,0,"normal-hitnormal.wav",70
Sample,23612,0,"normal-hitnormal.wav",70
Sample,23806,0,"Bluezone-BD-hihat-019.wav",70
Sample,23806,0,"normal-hitnormal.wav",70
Sample,23903,0,"normal-hitnormal.wav",70
Sample,24193,0,"normal-hitnormal.wav",70
Sample,24193,0,"Bluezone-BD-hihat-019.wav",70
Sample,24387,0,"normal-hitnormal.wav",70
Sample,24580,0,"Bluezone-BD-hihat-019.wav",70
Sample,24580,0,"normal-hitnormal.wav",70
Sample,32903,0,"soft-hitnormal.wav",70
Sample,33096,0,"soft-hitnormal.wav",70
Sample,33290,0,"soft-hitnormal.wav",70
Sample,33483,0,"soft-hitnormal.wav",70
Sample,33677,0,"soft-hitnormal.wav",70
Sample,33870,0,"soft-hitnormal.wav",70
Sample,34064,0,"soft-hitnormal.wav",70
Sample,34451,0,"soft-hitnormal.wav",70
Sample,34645,0,"soft-hitnormal.wav",70
Sample,35032,0,"soft-hitnormal.wav",70
Sample,38516,0,"blank7.wav",70
Sample,38612,0,"Bluezone-BD-kick-020.wav",70
Sample,40451,0,"Bluezone-BD-hihat-019.wav",70
Sample,40838,0,"Bluezone-BD-hihat-019.wav",70
Sample,41225,0,"Bluezone-BD-hihat-019.wav",70
Sample,41612,0,"Bluezone-BD-hihat-019.wav",70
Sample,42000,0,"Bluezone-BD-hihat-019.wav",70
Sample,42387,0,"Bluezone-BD-hihat-019.wav",70
Sample,42774,0,"Bluezone-BD-hihat-019.wav",70
Sample,43161,0,"Bluezone-BD-hihat-019.wav",70
Sample,43548,0,"Bluezone-BD-hihat-019.wav",70
Sample,43935,0,"Bluezone-BD-hihat-019.wav",70
Sample,44322,0,"Bluezone-BD-hihat-019.wav",70
Sample,44709,0,"Bluezone-BD-hihat-019.wav",70
Sample,45096,0,"Bluezone-BD-hihat-019.wav",70
Sample,45483,0,"Bluezone-BD-hihat-019.wav",70
Sample,45870,0,"Bluezone-BD-hihat-019.wav",70
Sample,46258,0,"Bluezone-BD-hihat-019.wav",70
Sample,46645,0,"Bluezone-BD-hihat-019.wav",70
Sample,47032,0,"Bluezone-BD-hihat-019.wav",70
Sample,47419,0,"Bluezone-BD-hihat-019.wav",70
Sample,47806,0,"Bluezone-BD-hihat-019.wav",70
Sample,48193,0,"Bluezone-BD-hihat-019.wav",70
Sample,48580,0,"Bluezone-BD-hihat-019.wav",70
Sample,49354,0,"Bluezone-BD-ride-019.wav",70
Sample,51290,0,"guitar4.wav",70
Sample,51580,0,"guitar4.wav",70
Sample,51870,0,"guitar4.wav",70
Sample,52161,0,"guitar4.wav",70
Sample,52451,0,"guitar4.wav",70
Sample,52838,0,"guitar5.wav",70
Sample,53129,0,"guitar5.wav",70
Sample,53419,0,"guitar5.wav",70
Sample,53709,0,"guitar5.wav",70
Sample,54000,0,"guitar5.wav",70
Sample,54387,0,"guitar3.wav",70
Sample,54677,0,"guitar3.wav",70
Sample,54967,0,"guitar3.wav",70
Sample,55258,0,"guitar3.wav",70
Sample,55548,0,"guitar3.wav",70
Sample,55935,0,"guitar6.wav",70
Sample,56225,0,"guitar6.wav",70
Sample,56516,0,"guitar6.wav",70
Sample,56806,0,"guitar5.wav",70
Sample,57096,0,"guitar5.wav",70
Sample,57483,0,"guitar4.wav",70
Sample,57774,0,"guitar4.wav",70
Sample,58064,0,"guitar4.wav",70
Sample,58354,0,"guitar4.wav",70
Sample,58645,0,"guitar4.wav",70
Sample,59032,0,"guitar5.wav",70
Sample,59322,0,"guitar5.wav",70
Sample,59612,0,"guitar5.wav",70
Sample,59903,0,"guitar5.wav",70
Sample,60193,0,"guitar5.wav",70
Sample,60580,0,"guitar3.wav",70
Sample,60870,0,"guitar3.wav",70
Sample,61161,0,"guitar3.wav",70
Sample,61451,0,"guitar3.wav",70
Sample,61741,0,"guitar3.wav",70
Sample,61935,0,"Bluezone-BD-percussion-103.wav",70
Sample,62129,0,"normal-hitwhistle.wav",70
Sample,62129,0,"Bluezone-BD-percussion-103.wav",70
Sample,62322,0,"Bluezone-BD-percussion-103.wav",70
Sample,62516,0,"Bluezone-BD-percussion-103.wav",70
Sample,62516,0,"normal-hitwhistle.wav",70
Sample,62709,0,"Bluezone-BD-snare-028.wav",70
Sample,62903,0,"Bluezone-BD-snare-028.wav",70
Sample,62903,0,"normal-sliderwhistle.wav",70
Sample,63096,0,"Bluezone-BD-snare-028.wav",70
Sample,63290,0,"Bluezone-BD-snare-028.wav",70
Sample,63290,0,"Bluezone-BD-kick-020.wav",70
Sample,63387,0,"Bluezone-BD-snare-028.wav",70
Sample,63677,0,"guitar4.wav",70
Sample,63967,0,"guitar4.wav",70
Sample,64258,0,"guitar4.wav",70
Sample,64548,0,"guitar4.wav",70
Sample,64838,0,"guitar4.wav",70
Sample,65225,0,"guitar5.wav",70
Sample,65516,0,"guitar5.wav",70
Sample,65806,0,"guitar5.wav",70
Sample,66096,0,"guitar5.wav",70
Sample,66387,0,"guitar5.wav",70
Sample,66774,0,"guitar3.wav",70
Sample,67064,0,"guitar3.wav",70
Sample,67354,0,"guitar3.wav",70
Sample,67645,0,"guitar3.wav",70
Sample,67935,0,"guitar3.wav",70
Sample,68322,0,"guitar6.wav",70
Sample,68612,0,"guitar6.wav",70
Sample,68903,0,"guitar6.wav",70
Sample,69193,0,"guitar5.wav",70
Sample,69483,0,"guitar5.wav",70
Sample,69870,0,"guitar4.wav",70
Sample,70161,0,"guitar4.wav",70
Sample,70451,0,"guitar4.wav",70
Sample,70741,0,"guitar4.wav",70
Sample,71032,0,"guitar4.wav",70
Sample,71419,0,"guitar5.wav",70
Sample,71709,0,"guitar5.wav",70
Sample,72000,0,"guitar5.wav",70
Sample,72290,0,"guitar5.wav",70
Sample,72580,0,"guitar5.wav",70
Sample,72967,0,"guitar3.wav",70
Sample,73258,0,"guitar3.wav",70
Sample,73548,0,"guitar3.wav",70
Sample,73838,0,"guitar3.wav",70
Sample,74129,0,"guitar3.wav",70
Sample,74322,0,"Bluezone-BD-percussion-103.wav",70
Sample,74322,0,"Bluezone-BD-kick-020.wav",70
Sample,74516,0,"Bluezone-BD-kick-020.wav",70
Sample,74709,0,"Bluezone-BD-kick-020.wav",70
Sample,74709,0,"Bluezone-BD-percussion-103.wav",70
Sample,74903,0,"Bluezone-BD-kick-020.wav",70
Sample,75096,0,"Bluezone-BD-kick-020.wav",70
Sample,75096,0,"Bluezone-BD-snare-028.wav",70
Sample,75193,0,"Bluezone-BD-kick-020.wav",70
Sample,75290,0,"Bluezone-BD-kick-020.wav",70
Sample,75387,0,"Bluezone-BD-kick-020.wav",70
Sample,75483,0,"Bluezone-BD-snare-028.wav",70
Sample,75483,0,"Bluezone-BD-kick-020.wav",70
Sample,75580,0,"Bluezone-BD-kick-020.wav",70
Sample,75677,0,"Bluezone-BD-kick-020.wav",70
Sample,75677,0,"Bluezone-BD-snare-028.wav",70
Sample,75774,0,"Bluezone-BD-snare-028.wav",70
Sample,75774,0,"Bluezone-BD-kick-020.wav",70
Sample,75870,0,"Bluezone-BD-kick-001.wav",70
Sample,75870,0,"Bluezone-BD-ride-019.wav",70
Sample,76064,0,"Bluezone-BD-hihat-019.wav",70
Sample,76258,0,"Bluezone-BD-kick-001.wav",70
Sample,76451,0,"Bluezone-BD-hihat-019.wav",70
Sample,76645,0,"Bluezone-BD-kick-001.wav",70
Sample,76838,0,"Bluezone-BD-hihat-019.wav",70
Sample,77032,0,"Bluezone-BD-kick-001.wav",70
Sample,77225,0,"Bluezone-BD-hihat-019.wav",70
Sample,77419,0,"Bluezone-BD-kick-001.wav",70
Sample,77806,0,"Bluezone-BD-kick-001.wav",70
Sample,78193,0,"Bluezone-BD-kick-001.wav",70
Sample,78580,0,"Bluezone-BD-kick-001.wav",70
Sample,80032,0,"Bluezone-BD-percussion-103.wav",70
Sample,80129,0,"Bluezone-BD-clap-006.wav",70
Sample,80322,0,"Bluezone-BD-clap-006.wav",70
Sample,80419,0,"Bluezone-BD-kick-020.wav",70
Sample,81096,0,"Bluezone-BD-ride-019.wav",70
Sample,81483,0,"Bluezone-BD-snare-028.wav",70
Sample,86516,0,"Bluezone-BD-hihat-019.wav",70
Sample,86903,0,"Bluezone-BD-hihat-019.wav",70
Sample,87290,0,"Bluezone-BD-hihat-019.wav",70
Sample,87677,0,"Bluezone-BD-hihat-019.wav",70
Sample,88258,0,"Bluezone-BD-ride-019.wav",70
Sample,88451,0,"guitar4.wav",70
Sample,88741,0,"guitar4.wav",70
Sample,89032,0,"guitar4.wav",70
Sample,89322,0,"guitar4.wav",70
Sample,89612,0,"guitar4.wav",70
Sample,90000,0,"guitar5.wav",70
Sample,90290,0,"guitar5.wav",70
Sample,90580,0,"guitar5.wav",70
Sample,90870,0,"guitar5.wav",70
Sample,91161,0,"guitar5.wav",70
Sample,91354,0,"blank7.wav",70
Sample,91548,0,"guitar3.wav",70
Sample,91838,0,"guitar3.wav",70
Sample,91935,0,"blank7.wav",70
Sample,92129,0,"guitar3.wav",70
Sample,92419,0,"guitar3.wav",70
Sample,92709,0,"guitar3.wav",70
Sample,92903,0,"Bluezone-BD-percussion-103.wav",70
Sample,93000,0,"Bluezone-BD-percussion-103.wav",70
Sample,93096,0,"Bluezone-BD-percussion-103.wav",70
Sample,93193,0,"Bluezone-BD-percussion-103.wav",70
Sample,93387,0,"Bluezone-BD-percussion-103.wav",70
Sample,93483,0,"Bluezone-BD-percussion-103.wav",70
Sample,93580,0,"Bluezone-BD-percussion-103.wav",70
Sample,93774,0,"Bluezone-BD-percussion-103.wav",70
Sample,105290,0,"Bluezone-BD-kick-001.wav",70
Sample,105677,0,"Bluezone-BD-kick-001.wav",70
Sample,105870,0,"Bluezone-BD-kick-001.wav",70
Sample,105870,0,"Bluezone-BD-hihat-019.wav",70
Sample,106064,0,"Bluezone-BD-snare-028.wav",70
Sample,106258,0,"Bluezone-BD-kick-001.wav",70
Sample,106258,0,"Bluezone-BD-kick-020.wav",70
Sample,106258,0,"Bluezone-BD-hihat-019.wav",70
Sample,106258,0,"Bluezone-BD-snare-028.wav",70
Sample,106451,0,"Bluezone-BD-snare-028.wav",70
Sample,106548,0,"Bluezone-BD-kick-001.wav",70
Sample,106548,0,"Bluezone-BD-kick-020.wav",70
Sample,106548,0,"Bluezone-BD-kick-020.wav",70
Sample,106645,0,"Bluezone-BD-hihat-019.wav",70
Sample,106645,0,"Bluezone-BD-snare-028.wav",70
Sample,106741,0,"Bluezone-BD-snare-028.wav",70
Sample,106838,0,"normal-hitnormal.wav",70
Sample,107032,0,"Bluezone-BD-hihat-019.wav",70
Sample,107129,0,"normal-hitnormal.wav",70
Sample,107225,0,"normal-hitnormal.wav",70
Sample,107419,0,"Bluezone-BD-hihat-019.wav",70
Sample,107419,0,"normal-hitnormal.wav",70
Sample,107806,0,"Bluezone-BD-hihat-019.wav",70
Sample,108193,0,"Bluezone-BD-hihat-019.wav",70
Sample,108580,0,"Bluezone-BD-hihat-019.wav",70
Sample,108967,0,"Bluezone-BD-hihat-019.wav",70
Sample,109354,0,"Bluezone-BD-hihat-019.wav",70
Sample,109741,0,"Bluezone-BD-hihat-019.wav",70
Sample,110129,0,"Bluezone-BD-hihat-019.wav",70
Sample,110225,0,"normal-hitnormal.wav",70
Sample,110322,0,"normal-hitnormal.wav",70
Sample,110516,0,"Bluezone-BD-hihat-019.wav",70
Sample,110516,0,"normal-hitnormal.wav",70
Sample,110903,0,"Bluezone-BD-hihat-019.wav",70
Sample,111290,0,"Bluezone-BD-hihat-019.wav",70
Sample,111677,0,"Bluezone-BD-hihat-019.wav",70
Sample,112064,0,"Bluezone-BD-hihat-019.wav",70
Sample,112451,0,"Bluezone-BD-hihat-019.wav",70
Sample,112838,0,"Bluezone-BD-hihat-019.wav",70
Sample,113225,0,"Bluezone-BD-hihat-019.wav",70
Sample,113322,0,"normal-hitnormal.wav",70
Sample,113419,0,"normal-hitnormal.wav",70
Sample,113612,0,"normal-hitnormal.wav",70
Sample,113612,0,"Bluezone-BD-hihat-019.wav",70
Sample,114000,0,"Bluezone-BD-hihat-019.wav",70
Sample,114387,0,"Bluezone-BD-hihat-019.wav",70
Sample,114774,0,"Bluezone-BD-hihat-019.wav",70
Sample,115161,0,"Bluezone-BD-hihat-019.wav",70
Sample,115548,0,"Bluezone-BD-hihat-019.wav",70
Sample,115838,0,"soft-hitnormal.wav",70
Sample,116032,0,"soft-hitnormal.wav",70
Sample,116322,0,"Bluezone-BD-hihat-019.wav",70
Sample,116419,0,"normal-hitnormal.wav",70
Sample,116516,0,"normal-hitnormal.wav",70
Sample,116709,0,"Bluezone-BD-hihat-019.wav",70
Sample,116709,0,"normal-hitnormal.wav",70
Sample,117096,0,"Bluezone-BD-hihat-019.wav",70
Sample,117483,0,"Bluezone-BD-hihat-019.wav",70
Sample,117677,0,"Bluezone-BD-ride-019.wav",70
Sample,117967,0,"Bluezone-BD-ride-019.wav",70
//Background Colour Transformations
3,100,163,162,255

[TimingPoints]
0,387.096774193548,4,2,2,70,1,0

[HitObjects]
256,192,1548,1,2,1:0:3:0:
109,192,1741,1,0,1:0:2:0:
182,192,1741,1,0,1:0:2:0:
329,192,1741,1,0,2:0:3:0:
402,192,1741,1,8,1:0:3:0:
329,192,1935,1,2,1:0:3:0:
182,192,2129,128,4,2322:2:0:3:0:
475,192,2129,1,0,2:0:3:0:
329,192,2322,1,2,1:0:3:0:
182,192,2516,128,2,2709:2:0:3:0:
475,192,2516,1,0,2:0:3:0:
109,192,2709,128,2,2903:2:0:3:0:
329,192,2709,1,2,1:0:3:0:
36,192,2903,128,2,3096:2:0:3:0:
475,192,2903,1,0,2:0:3:0:
329,192,3096,1,0,1:0:4:0:
402,192,3193,1,8,2:0:3:0:
182,192,3290,1,8,2:0:3:0:
109,192,3387,1,8,2:0:3:0:
329,192,3483,1,0,1:0:4:0:
402,192,3580,1,8,2:0:3:0:
182,192,3677,1,8,2:0:3:0:
329,192,3774,1,8,2:0:3:0:
36,192,3870,1,0,1:0:4:0:
109,192,3967,1,8,2:0:3:0:
182,192,4064,1,8,2:0:3:0:
256,192,4161,1,8,2:0:3:0:
475,192,4258,1,0,1:0:4:0:
402,192,4354,1,8,2:0:3:0:
329,192,4451,1,8,2:0:3:0:
256,192,4548,1,8,2:0:3:0:
36,192,4645,1,2,1:0:3:0:
182,192,4838,1,4,1:0:3:0:
475,192,4838,1,0,2:0:3:0:
36,192,5032,1,2,1:0:3:0:
182,192,5225,1,4,1:0:3:0:
475,192,5225,1,0,2:0:3:0:
36,192,5419,1,2,1:0:3:0:
182,192,5612,1,4,1:0:3:0:
475,192,5612,1,0,2:0:3:0:
36,192,5806,1,2,1:0:3:0:
182,192,6000,1,4,1:0:3:0:
475,192,6000,1,0,2:0:3:0:
182,192,6193,1,0,1:0:4:0:
475,192,6193,1,4,1:0:3:0:
36,192,6290,1,8,2:0:3:0:
256,192,6387,1,8,2:0:3:0:
109,192,6483,1,8,2:0:3:0:
329,192,6580,1,0,1:0:4:0:
182,192,6677,1,8,2:0:3:0:
475,192,6774,1,8,2:0:3:0:
329,192,6870,1,8,2:0:3:0:
36,192,6967,1,0,1:0:4:0:
182,192,7064,1,8,2:0:3:0:
329,192,7161,1,8,2:0:3:0:
475,192,7258,1,8,2:0:3:0:
36,192,7354,1,0,1:0:4:0:
475,192,7451,1,0,1:0:4:0:
329,192,7548,1,0,1:0:4:0:
182,192,7645,1,0,1:0:4:0:
36,192,7741,1,2,1:0:3:0:
256,192,7741,1,8,1:0:3:0:
109,192,7935,1,0,2:0:3:0:
329,192,7935,1,4,1:0:3:0:
475,192,7935,1,4,2:0:2:0:
36,192,8129,1,2,1:0:3:0:
109,192,8322,1,0,2:0:3:0:
475,192,8322,128,4,8516:2:0:3:0:
36,192,8516,1,2,1:0:3:0:
109,192,8709,1,0,2:0:3:0:
475,192,8709,128,2,8903:2:0:3:0:
36,192,8903,1,2,1:0:3:0:
402,192,8903,128,2,9096:2:0:3:0:
109,192,9096,1,0,2:0:3:0:
329,192,9096,128,2,9290:2:0:3:0:
36,192,9290,1,2,1:0:3:0:
475,192,9290,1,8,2:0:3:0:
402,192,9387,1,8,2:0:3:0:
329,192,9483,1,0,2:0:3:0:
402,192,9580,1,8,2:0:3:0:
36,192,9677,1,2,1:0:3:0:
109,192,9774,1,8,2:0:3:0:
182,192,9870,1,0,2:0:3:0:
109,192,9967,1,8,2:0:3:0:
475,192,10064,1,2,1:0:3:0:
402,192,10161,1,8,2:0:3:0:
329,192,10258,1,0,2:0:3:0:
402,192,10354,1,8,2:0:3:0:
36,192,10451,1,2,1:0:3:0:
109,192,10548,1,8,2:0:3:0:
182,192,10645,1,0,2:0:3:0:
109,192,10741,1,8,2:0:3:0:
36,192,10838,1,2,1:0:3:0:
475,192,11032,1,0,2:0:3:0:
36,192,11225,1,2,1:0:3:0:
475,192,11419,1,0,2:0:3:0:
36,192,11612,1,2,1:0:3:0:
36,192,11806,1,2,1:0:3:0:
36,192,12193,1,2,1:0:3:0:
36,192,12387,1,2,1:0:3:0:
475,192,12387,1,8,2:0:3:0:
329,192,12483,1,8,2:0:3:0:
182,192,12580,1,8,2:0:3:0:
36,192,12677,1,8,2:0:3:0:
109,192,12774,1,8,2:0:3:0:
402,192,12870,1,8,2:0:3:0:
182,192,12967,1,8,2:0:3:0:
329,192,13064,1,8,2:0:3:0:
182,192,13161,1,0,2:0:3:0:
36,192,13258,1,0,2:0:3:0:
182,192,13354,1,0,2:0:3:0:
329,192,13451,1,0,2:0:3:0:
36,192,13548,1,2,1:0:4:0:
182,192,13548,1,0,2:0:3:0:
402,192,13645,1,0,2:0:3:0:
256,192,13741,1,0,2:0:3:0:
475,192,13838,1,0,2:0:3:0:
36,192,13935,1,2,1:0:3:0:
109,192,13935,1,8,1:0:4:0:
475,192,14032,1,8,2:0:3:0:
329,192,14225,1,8,2:0:3:0:
36,192,14322,1,2,1:0:3:0:
256,192,14322,1,8,2:0:3:0:
256,192,14516,1,8,2:0:3:0:
329,192,14612,128,2,14903:2:0:3:0:
36,192,14709,1,2,1:0:3:0:
256,192,14903,128,2,15096:2:0:3:0:
36,192,15096,1,2,1:0:3:0:
182,192,15096,128,2,15290:2:0:3:0:
256,192,15290,128,2,15483:2:0:3:0:
402,192,15483,1,4,1:0:3:0:
475,192,15580,1,8,2:0:3:0:
329,192,15677,1,8,2:0:3:0:
256,192,15774,1,8,2:0:3:0:
182,192,15870,1,4,1:0:3:0:
36,192,15967,1,8,2:0:3:0:
329,192,16064,1,8,2:0:3:0:
182,192,16161,1,8,2:0:3:0:
256,192,16258,1,4,1:0:3:0:
36,192,16354,1,8,2:0:3:0:
402,192,16451,1,8,2:0:3:0:
36,192,16548,1,8,2:0:3:0:
329,192,16645,1,4,1:0:3:0:
402,192,16838,1,4,1:0:3:0:
402,192,17032,1,8,1:0:4:0:
475,192,17032,1,2,1:0:3:0:
36,192,17129,1,8,2:0:3:0:
182,192,17322,1,8,2:0:3:0:
402,192,17419,1,8,2:0:3:0:
475,192,17419,1,2,1:0:3:0:
182,192,17612,1,8,2:0:3:0:
256,192,17709,128,2,18000:2:0:3:0:
475,192,17806,1,2,1:0:3:0:
109,192,18000,128,2,18193:2:0:3:0:
256,192,18193,128,2,18387:2:0:3:0:
475,192,18193,1,2,1:0:3:0:
329,192,18387,128,2,18580:2:0:3:0:
402,192,18580,1,4,1:0:3:0:
109,192,18677,1,8,2:0:3:0:
109,192,18774,1,8,2:0:3:0:
256,192,18870,1,8,2:0:3:0:
109,192,18967,1,4,1:0:3:0:
256,192,19064,1,8,2:0:3:0:
402,192,19161,1,8,2:0:3:0:
109,192,19258,1,8,2:0:3:0:
402,192,19354,1,4,1:0:3:0:
256,192,19451,1,8,2:0:3:0:
109,192,19548,1,8,2:0:3:0:
256,192,19645,1,8,2:0:3:0:
402,192,19741,1,4,1:0:3:0:
109,192,19935,1,4,1:0:3:0:
402,192,20129,1,8,1:0:4:0:
475,192,20129,1,2,1:0:3:0:
36,192,20225,1,8,2:0:3:0:
182,192,20419,1,8,2:0:3:0:
256,192,20516,1,8,2:0:3:0:
475,192,20516,1,2,1:0:3:0:
256,192,20709,1,8,2:0:3:0:
182,192,20806,128,2,21096:2:0:3:0:
475,192,20903,1,2,1:0:3:0:
256,192,21096,128,2,21290:2:0:3:0:
329,192,21290,128,2,21483:2:0:3:0:
475,192,21290,1,2,1:0:3:0:
256,192,21483,128,2,21677:2:0:3:0:
329,192,21677,1,4,1:0:3:0:
475,192,21774,1,8,2:0:3:0:
329,192,21870,1,8,2:0:3:0:
256,192,21967,1,8,2:0:3:0:
182,192,22064,1,4,1:0:3:0:
36,192,22161,1,8,2:0:3:0:
256,192,22258,1,8,2:0:3:0:
109,192,22354,1,8,2:0:3:0:
329,192,22451,1,4,1:0:3:0:
402,192,22548,1,8,2:0:3:0:
109,192,22645,1,8,2:0:3:0:
475,192,22741,1,8,2:0:3:0:
402,192,22838,1,4,1:0:3:0:
329,192,23032,1,4,1:0:3:0:
256,192,23225,1,8,1:0:4:0:
475,192,23225,1,2,1:0:3:0:
36,192,23322,1,8,2:0:3:0:
182,192,23516,1,8,2:0:3:0:
402,192,23612,1,8,2:0:3:0:
475,192,23612,1,2,1:0:3:0:
182,192,23806,1,8,2:0:3:0:
256,192,23903,128,2,24193:2:0:3:0:
475,192,24000,1,2,1:0:3:0:
402,192,24193,128,2,24387:2:0:3:0:
256,192,24387,128,2,24580:2:0:3:0:
475,192,24387,1,2,1:0:3:0:
182,192,24580,128,2,24774:2:0:3:0:
36,192,24774,1,2,1:0:3:0:
109,192,24774,1,0,2:0:4:0:
256,192,24774,1,0,1:0:4:0:
402,192,24774,1,0,1:0:4:0:
36,192,25064,1,2,1:0:3:0:
329,192,25064,1,0,1:0:4:0:
475,192,25064,1,0,1:0:4:0:
36,192,25354,1,2,1:0:3:0:
256,192,25354,1,0,1:0:4:0:
402,192,25354,1,0,1:0:4:0:
36,192,25645,1,2,1:0:3:0:
329,192,25645,1,0,1:0:4:0:
475,192,25645,1,0,1:0:4:0:
36,192,25935,1,2,1:0:3:0:
256,192,25935,1,0,1:0:4:0:
402,192,25935,1,0,1:0:4:0:
36,192,26129,1,2,1:0:3:0:
329,192,26129,1,0,1:0:4:0:
475,192,26129,1,0,1:0:4:0:
36,192,26322,1,2,1:0:3:0:
256,192,26322,1,0,2:0:4:0:
182,192,26516,1,4,1:0:4:0:
36,192,26709,1,2,1:0:3:0:
402,192,26709,1,8,2:0:3:0:
182,192,26903,1,4,1:0:4:0:
329,192,26903,1,8,2:0:3:0:
36,192,27096,1,2,1:0:3:0:
402,192,27096,1,8,2:0:3:0:
182,192,27290,1,4,1:0:4:0:
329,192,27290,1,8,2:0:3:0:
36,192,27483,1,2,1:0:3:0:
402,192,27483,1,8,2:0:3:0:
182,192,27677,1,4,1:0:4:0:
256,192,27677,1,8,2:0:3:0:
109,192,27870,1,2,1:0:3:0:
475,192,27870,1,8,2:0:3:0:
182,192,28064,1,4,1:0:4:0:
109,192,28258,1,2,1:0:3:0:
402,192,28258,1,8,2:0:3:0:
182,192,28451,1,4,1:0:4:0:
329,192,28451,1,8,2:0:3:0:
109,192,28645,1,2,1:0:3:0:
182,192,28838,1,4,1:0:4:0:
402,192,28838,1,8,2:0:3:0:
109,192,29032,1,2,1:0:3:0:
182,192,29225,1,4,1:0:4:0:
329,192,29225,1,8,2:0:3:0:
109,192,29322,1,2,2:0:4:0:
182,192,29419,1,2,1:0:3:0:
402,192,29419,1,8,2:0:3:0:
36,192,29612,1,4,1:0:4:0:
402,192,29612,1,8,2:0:3:0:
182,192,29806,1,2,1:0:3:0:
329,192,29806,1,8,2:0:3:0:
36,192,30000,1,4,1:0:4:0:
256,192,30000,1,8,2:0:3:0:
182,192,30193,1,2,1:0:3:0:
36,192,30387,1,4,1:0:4:0:
256,192,30387,1,8,2:0:3:0:
182,192,30580,1,2,1:0:3:0:
36,192,30774,1,4,1:0:4:0:
256,192,30774,1,8,2:0:3:0:
182,192,30967,1,2,1:0:3:0:
36,192,31161,1,4,1:0:4:0:
329,192,31161,1,8,2:0:3:0:
182,192,31354,1,2,1:0:3:0:
402,192,31354,1,8,2:0:3:0:
36,192,31548,1,4,1:0:4:0:
109,192,31741,1,2,1:0:3:0:
329,192,31741,1,8,2:0:3:0:
36,192,31935,1,4,1:0:4:0:
109,192,32129,1,2,1:0:3:0:
256,192,32129,1,8,2:0:3:0:
36,192,32322,1,4,1:0:4:0:
256,192,32516,1,2,1:0:3:0:
182,192,32612,1,8,2:0:2:0:
109,192,32709,1,4,1:0:4:0:
36,192,32806,1,8,2:0:2:0:
256,192,32903,1,2,1:0:3:0:
182,192,33000,1,8,2:0:2:0:
109,192,33096,1,4,1:0:4:0:
36,192,33193,1,8,2:0:2:0:
256,192,33290,1,2,1:0:3:0:
329,192,33387,1,8,2:0:2:0:
402,192,33483,1,4,1:0:4:0:
475,192,33580,1,8,2:0:2:0:
256,192,33677,1,2,1:0:3:0:
329,192,33774,1,8,2:0:2:0:
402,192,33870,1,4,1:0:4:0:
475,192,33967,1,8,2:0:2:0:
36,192,34064,1,2,1:0:3:0:
109,192,34161,1,8,2:0:2:0:
182,192,34258,1,4,1:0:4:0:
256,192,34354,1,8,2:0:2:0:
36,192,34451,1,2,1:0:3:0:
109,192,34548,1,8,2:0:2:0:
182,192,34645,1,4,1:0:4:0:
256,192,34741,1,8,2:0:2:0:
475,192,34838,1,2,1:0:3:0:
402,192,34935,1,8,2:0:2:0:
329,192,35032,1,4,1:0:4:0:
256,192,35129,1,8,2:0:2:0:
475,192,35225,1,2,1:0:3:0:
402,192,35322,1,8,2:0:2:0:
329,192,35419,1,4,1:0:4:0:
256,192,35516,1,8,2:0:2:0:
182,192,35612,1,8,2:0:3:0:
475,192,35612,1,2,1:0:3:0:
402,192,35806,1,4,1:0:4:0:
109,192,36000,1,8,2:0:3:0:
475,192,36000,1,2,1:0:3:0:
182,192,36193,1,8,2:0:3:0:
402,192,36193,1,4,1:0:4:0:
475,192,36387,1,2,1:0:3:0:
36,192,36580,1,8,2:0:3:0:
402,192,36580,1,4,1:0:4:0:
182,192,36774,1,8,2:0:3:0:
475,192,36774,1,2,1:0:3:0:
329,192,36967,1,8,2:0:3:0:
402,192,36967,1,4,1:0:4:0:
36,192,37161,1,2,1:0:3:0:
109,192,37161,1,4,1:0:4:0:
329,192,37161,1,8,2:0:3:0:
475,192,37161,1,2,2:0:3:0:
36,192,37354,1,2,1:0:3:0:
109,192,37354,1,4,1:0:4:0:
329,192,37354,1,8,2:0:3:0:
475,192,37354,1,2,2:0:3:0:
36,192,37741,1,2,1:0:3:0:
109,192,37741,1,4,1:0:4:0:
256,192,37741,1,8,2:0:3:0:
402,192,37741,1,2,2:0:3:0:
36,192,38129,1,2,1:0:3:0:
109,192,38129,1,4,1:0:4:0:
182,192,38129,128,8,38709:2:0:3:0:
329,192,38129,128,4,38709:2:0:3:0:
36,192,38516,1,2,2:0:4:0:
109,192,38612,1,2,2:0:4:0:
36,192,38709,1,0,2:0:4:0:
475,192,38709,1,2,1:0:3:0:
36,192,39096,1,8,2:0:4:0:
256,192,39096,1,8,2:0:3:0:
475,192,39096,1,2,1:0:3:0:
182,192,39290,1,8,2:0:3:0:
109,192,39483,1,8,2:0:3:0:
475,192,39483,1,2,1:0:3:0:
36,192,39677,1,8,2:0:4:0:
329,192,39677,1,8,2:0:3:0:
475,192,39870,1,2,1:0:3:0:
256,192,40064,1,8,2:0:3:0:
475,192,40258,1,2,1:0:3:0:
329,192,40451,1,8,2:0:3:0:
36,192,40645,1,8,2:0:4:0:
475,192,40645,1,2,1:0:3:0:
402,192,40838,1,8,2:0:3:0:
475,192,41032,1,2,1:0:3:0:
36,192,41225,1,8,2:0:4:0:
329,192,41225,1,8,2:0:3:0:
256,192,41419,1,8,2:0:3:0:
475,192,41419,1,2,1:0:3:0:
256,192,41612,1,8,2:0:3:0:
475,192,41806,1,2,1:0:3:0:
182,192,42000,1,8,2:0:3:0:
36,192,42193,1,8,2:0:4:0:
475,192,42193,1,2,1:0:3:0:
475,192,42580,1,2,1:0:3:0:
36,192,42774,1,8,2:0:4:0:
329,192,42774,1,8,2:0:3:0:
475,192,42774,1,2,1:0:3:0:
109,192,43161,1,8,2:0:3:0:
475,192,43161,1,2,1:0:3:0:
109,192,43548,1,8,2:0:3:0:
329,192,43548,1,2,1:0:4:0:
475,192,43548,1,2,1:0:3:0:
109,192,43741,1,8,2:0:3:0:
329,192,43741,1,2,1:0:4:0:
475,192,43741,1,2,1:0:3:0:
109,192,43935,128,8,44322:2:0:3:0:
475,192,43935,1,2,1:0:3:0:
182,192,44322,128,8,44903:2:0:3:0:
329,192,44322,1,2,1:0:4:0:
475,192,44322,1,2,1:0:3:0:
329,192,44709,1,2,1:0:4:0:
475,192,44709,1,2,1:0:3:0:
36,192,44903,1,2,1:0:3:0:
109,192,44903,1,0,2:0:4:0:
475,192,44903,1,0,1:0:2:0:
36,192,45290,1,8,2:0:4:0:
256,192,45290,1,8,2:0:3:0:
475,192,45290,1,2,1:0:3:0:
182,192,45483,1,8,2:0:3:0:
109,192,45677,1,8,2:0:3:0:
475,192,45677,1,2,1:0:3:0:
36,192,45870,1,8,2:0:4:0:
329,192,45870,1,8,2:0:3:0:
475,192,46064,1,2,1:0:3:0:
36,192,46258,1,8,2:0:4:0:
256,192,46258,1,8,2:0:3:0:
475,192,46451,1,2,1:0:3:0:
329,192,46645,1,8,2:0:3:0:
475,192,46838,1,2,1:0:3:0:
402,192,47032,1,8,2:0:3:0:
475,192,47225,1,2,1:0:3:0:
36,192,47419,1,8,2:0:4:0:
329,192,47419,128,8,47806:2:0:3:0:
475,192,47612,1,2,1:0:3:0:
36,192,47806,1,8,2:0:4:0:
256,192,47806,128,8,48193:2:0:3:0:
475,192,48000,1,2,1:0:3:0:
182,192,48193,1,8,2:0:3:0:
329,192,48193,1,2,1:0:4:0:
475,192,48387,1,2,1:0:3:0:
475,192,48580,1,2,2:0:4:0:
402,192,48677,1,2,2:0:4:0:
475,192,48774,1,2,1:0:3:0:
182,192,48967,1,2,1:0:3:0:
329,192,48967,1,2,1:0:4:0:
36,192,49354,1,2,1:0:3:0:
182,192,49354,1,2,2:0:3:0:
329,192,49354,1,2,1:0:4:0:
109,192,49548,1,2,1:0:3:0:
256,192,49548,1,2,2:0:3:0:
402,192,49548,1,0,2:0:4:0:
109,192,49741,1,2,1:0:3:0:
256,192,49741,1,2,2:0:3:0:
402,192,49741,1,0,2:0:4:0:
109,192,49935,1,2,1:0:3:0:
256,192,49935,1,2,2:0:3:0:
402,192,49935,1,0,2:0:4:0:
182,192,50129,128,2,50516:1:0:3:0:
329,192,50129,128,2,50516:2:0:3:0:
475,192,50129,128,0,50516:2:0:4:0:
36,192,50516,1,8,1:0:3:0:
256,192,50516,1,2,1:0:3:0:
402,192,50516,1,4,2:0:3:0:
36,192,51096,1,0,2:0:4:0:
182,192,51096,1,8,2:0:4:0:
329,192,51096,1,2,1:0:3:0:
475,192,51290,1,4,1:0:4:0:
329,192,51483,1,2,1:0:3:0:
475,192,51677,1,4,1:0:4:0:
329,192,51870,1,2,1:0:3:0:
256,192,52064,1,8,2:0:4:0:
475,192,52064,1,4,1:0:4:0:
329,192,52258,1,2,1:0:3:0:
182,192,52451,1,8,2:0:4:0:
475,192,52451,1,4,1:0:4:0:
402,192,52645,1,2,1:0:3:0:
109,192,52838,1,8,2:0:4:0:
475,192,52838,1,4,1:0:4:0:
402,192,53032,1,2,1:0:3:0:
36,192,53225,1,8,2:0:4:0:
475,192,53225,1,4,1:0:4:0:
402,192,53419,1,2,1:0:3:0:
475,192,53612,1,4,1:0:4:0:
109,192,53806,1,8,2:0:4:0:
402,192,53806,1,2,1:0:3:0:
475,192,54000,1,4,1:0:4:0:
402,192,54096,1,2,2:0:4:0:
109,192,54193,1,8,2:0:4:0:
329,192,54193,1,2,1:0:3:0:
182,192,54387,1,8,2:0:3:0:
402,192,54387,1,4,1:0:4:0:
36,192,54580,128,8,54967:2:0:4:0:
329,192,54580,1,2,1:0:3:0:
402,192,54774,1,4,1:0:4:0:
329,192,54967,1,2,1:0:3:0:
256,192,55161,1,8,2:0:4:0:
402,192,55161,1,4,1:0:4:0:
329,192,55354,1,2,1:0:3:0:
182,192,55548,1,8,2:0:4:0:
402,192,55548,1,4,1:0:4:0:
329,192,55741,1,2,1:0:3:0:
256,192,55935,1,8,2:0:4:0:
475,192,55935,1,4,1:0:4:0:
329,192,56129,1,2,1:0:3:0:
182,192,56322,1,8,2:0:4:0:
475,192,56322,1,4,1:0:4:0:
329,192,56516,1,2,1:0:3:0:
182,192,56709,1,8,2:0:4:0:
402,192,56709,1,4,1:0:4:0:
109,192,56903,1,8,2:0:4:0:
329,192,56903,1,2,1:0:3:0:
36,192,57096,1,8,2:0:4:0:
402,192,57096,1,4,1:0:4:0:
182,192,57290,1,2,1:0:3:0:
475,192,57290,1,8,2:0:4:0:
36,192,57483,1,4,1:0:4:0:
402,192,57483,1,8,2:0:3:0:
182,192,57677,1,2,1:0:3:0:
329,192,57677,128,8,58064:2:0:4:0:
36,192,57870,1,4,1:0:4:0:
182,192,58064,1,2,1:0:3:0:
36,192,58258,1,4,1:0:4:0:
475,192,58258,1,8,2:0:4:0:
182,192,58451,1,2,1:0:3:0:
36,192,58645,1,4,1:0:4:0:
402,192,58645,1,8,2:0:4:0:
182,192,58838,1,2,1:0:3:0:
109,192,59032,1,4,1:0:4:0:
402,192,59032,1,8,2:0:3:0:
182,192,59225,1,2,1:0:3:0:
329,192,59225,1,8,2:0:4:0:
109,192,59419,1,4,1:0:4:0:
329,192,59419,1,8,2:0:3:0:
182,192,59612,1,2,1:0:3:0:
256,192,59612,1,8,2:0:4:0:
109,192,59806,1,4,1:0:4:0:
256,192,59806,1,8,2:0:3:0:
182,192,60000,1,2,1:0:3:0:
329,192,60000,1,8,2:0:4:0:
109,192,60193,1,4,1:0:4:0:
329,192,60193,1,8,2:0:3:0:
36,192,60387,1,2,1:0:3:0:
402,192,60387,1,8,2:0:4:0:
182,192,60580,1,4,1:0:4:0:
36,192,60774,1,2,1:0:3:0:
182,192,60967,1,4,1:0:4:0:
475,192,60967,1,8,2:0:4:0:
36,192,61161,1,2,1:0:3:0:
475,192,61161,1,8,2:0:4:0:
182,192,61354,1,4,1:0:4:0:
36,192,61548,1,2,1:0:3:0:
182,192,61741,1,4,1:0:4:0:
109,192,61935,1,2,1:0:3:0:
402,192,62032,1,0,2:0:3:0:
182,192,62129,1,4,1:0:4:0:
329,192,62225,1,0,2:0:3:0:
36,192,62322,1,2,1:0:3:0:
475,192,62419,1,0,2:0:3:0:
182,192,62516,1,4,1:0:4:0:
329,192,62612,1,0,2:0:3:0:
109,192,62709,1,2,1:0:3:0:
402,192,62806,1,0,2:0:3:0:
36,192,62903,1,4,1:0:4:0:
475,192,63000,1,0,2:0:3:0:
182,192,63096,1,2,1:0:3:0:
329,192,63193,1,0,2:0:3:0:
109,192,63290,1,4,1:0:4:0:
402,192,63387,1,2,2:0:4:0:
182,192,63483,1,2,1:0:3:0:
256,192,63483,1,0,2:0:4:0:
36,192,63677,1,4,1:0:4:0:
182,192,63870,1,2,1:0:3:0:
402,192,63870,1,8,2:0:4:0:
36,192,64064,1,4,1:0:4:0:
182,192,64258,1,2,1:0:3:0:
36,192,64451,1,4,1:0:4:0:
475,192,64451,1,8,2:0:4:0:
182,192,64645,1,2,1:0:3:0:
36,192,64838,1,4,1:0:4:0:
402,192,64838,1,8,2:0:4:0:
182,192,65032,1,2,1:0:3:0:
36,192,65225,1,4,1:0:4:0:
329,192,65225,1,8,2:0:4:0:
182,192,65419,1,2,1:0:3:0:
36,192,65612,1,4,1:0:4:0:
256,192,65612,1,8,2:0:4:0:
182,192,65806,1,2,1:0:3:0:
36,192,66000,1,4,1:0:4:0:
256,192,66000,1,8,2:0:3:0:
182,192,66193,1,2,1:0:3:0:
329,192,66193,1,8,2:0:4:0:
36,192,66387,1,4,1:0:4:0:
182,192,66483,1,2,2:0:4:0:
36,192,66580,1,2,1:0:3:0:
402,192,66580,128,8,66967:2:0:3:0:
109,192,66774,1,4,1:0:4:0:
36,192,66967,1,2,1:0:3:0:
329,192,66967,1,8,2:0:4:0:
109,192,67161,1,4,1:0:4:0:
36,192,67354,1,2,1:0:3:0:
109,192,67548,1,4,1:0:4:0:
475,192,67548,1,8,2:0:4:0:
36,192,67741,1,2,1:0:3:0:
109,192,67935,1,4,1:0:4:0:
402,192,67935,1,8,2:0:4:0:
182,192,68129,1,2,1:0:3:0:
36,192,68322,1,4,1:0:4:0:
475,192,68322,1,8,2:0:4:0:
182,192,68516,1,2,1:0:3:0:
36,192,68709,1,4,1:0:4:0:
402,192,68709,1,8,2:0:4:0:
182,192,68903,1,2,1:0:3:0:
109,192,69096,1,4,1:0:4:0:
402,192,69096,1,8,2:0:4:0:
182,192,69290,1,2,1:0:3:0:
329,192,69290,1,8,2:0:4:0:
109,192,69483,1,4,1:0:4:0:
256,192,69483,1,8,2:0:4:0:
182,192,69677,128,8,70064:2:0:3:0:
329,192,69677,1,2,1:0:3:0:
475,192,69870,1,4,1:0:4:0:
109,192,70064,1,8,2:0:4:0:
329,192,70064,1,2,1:0:3:0:
475,192,70258,1,4,1:0:4:0:
329,192,70451,1,2,1:0:3:0:
475,192,70645,1,4,1:0:4:0:
256,192,70838,1,8,2:0:4:0:
329,192,70838,1,2,1:0:3:0:
182,192,71032,1,8,2:0:4:0:
475,192,71032,1,4,1:0:4:0:
475,192,71225,1,2,1:0:3:0:
182,192,71419,1,8,2:0:4:0:
402,192,71419,1,4,1:0:4:0:
109,192,71612,1,8,2:0:4:0:
475,192,71612,1,2,1:0:3:0:
109,192,71806,1,8,2:0:3:0:
402,192,71806,1,4,1:0:4:0:
36,192,72000,1,8,2:0:4:0:
475,192,72000,1,2,1:0:3:0:
402,192,72193,1,4,1:0:4:0:
109,192,72387,1,8,2:0:4:0:
475,192,72387,1,2,1:0:3:0:
402,192,72580,1,4,1:0:4:0:
182,192,72774,128,8,73354:2:0:4:0:
402,192,72774,1,2,1:0:3:0:
475,192,72967,1,4,1:0:4:0:
402,192,73161,1,2,1:0:3:0:
109,192,73354,1,8,2:0:3:0:
475,192,73354,1,4,1:0:4:0:
109,192,73548,128,8,74322:2:0:4:0:
402,192,73548,1,2,1:0:3:0:
475,192,73741,1,4,1:0:4:0:
402,192,73935,1,2,1:0:3:0:
475,192,74129,1,4,1:0:4:0:
182,192,74322,1,2,1:0:3:0:
109,192,74419,1,0,2:0:3:0:
36,192,74516,1,4,1:0:4:0:
329,192,74516,1,4,2:0:4:0:
475,192,74516,1,2,2:0:3:0:
109,192,74612,1,0,2:0:3:0:
182,192,74709,1,2,1:0:3:0:
109,192,74806,1,0,2:0:3:0:
36,192,74903,1,4,1:0:4:0:
329,192,74903,1,4,2:0:4:0:
475,192,74903,1,2,2:0:3:0:
109,192,75000,1,0,2:0:3:0:
182,192,75096,1,2,1:0:3:0:
109,192,75193,1,0,2:0:3:0:
36,192,75290,1,4,1:0:4:0:
329,192,75290,1,0,2:0:3:0:
402,192,75290,1,4,2:0:3:0:
109,192,75387,1,0,2:0:3:0:
182,192,75483,1,2,1:0:3:0:
109,192,75580,1,0,2:0:3:0:
36,192,75677,1,4,1:0:4:0:
109,192,75774,1,2,2:0:4:0:
475,192,75870,1,4,2:0:4:0:
475,192,75967,1,4,2:0:4:0:
329,192,76064,1,4,2:0:4:0:
475,192,76161,1,4,2:0:4:0:
329,192,76354,1,4,2:0:4:0:
475,192,76451,1,4,2:0:4:0:
475,192,76548,1,4,2:0:4:0:
182,192,76645,1,4,1:0:3:0:
329,192,76741,1,4,2:0:4:0:
182,192,76838,1,4,1:0:3:0:
475,192,76838,1,4,2:0:4:0:
402,192,76935,1,4,2:0:4:0:
182,192,77032,1,4,1:0:3:0:
329,192,77032,1,4,2:0:4:0:
36,192,77129,1,4,1:0:3:0:
402,192,77129,1,4,2:0:4:0:
182,192,77225,1,4,1:0:3:0:
475,192,77225,1,4,2:0:4:0:
475,192,77419,1,4,2:0:4:0:
329,192,77516,1,4,2:0:4:0:
402,192,77612,1,4,2:0:4:0:
475,192,77709,1,4,2:0:4:0:
402,192,77806,1,4,2:0:4:0:
402,192,77999,1,4,2:0:4:0:
109,192,78096,1,4,1:0:3:0:
475,192,78096,1,0,0:0:0:70:soft-hitfinish4
182,192,78193,1,4,1:0:3:0:
402,192,78193,1,4,2:0:4:0:
109,192,78290,1,4,1:0:3:0:
182,192,78387,1,4,1:0:3:0:
402,192,78387,1,4,2:0:4:0:
109,192,78483,1,4,1:0:3:0:
182,192,78580,1,4,1:0:3:0:
256,192,78580,1,4,2:0:4:0:
109,192,78677,1,4,1:0:3:0:
182,192,78774,1,4,1:0:3:0:
402,192,78774,1,4,2:0:4:0:
109,192,78870,1,4,1:0:3:0:
36,192,78967,1,2,1:0:3:0:
329,192,78967,1,0,2:0:4:0:
475,192,79064,1,4,2:0:4:0:
329,192,79258,1,4,2:0:4:0:
36,192,79354,1,2,1:0:3:0:
475,192,79354,1,4,2:0:4:0:
329,192,79451,1,4,2:0:4:0:
402,192,79548,1,4,2:0:4:0:
109,192,79645,1,4,1:0:3:0:
475,192,79645,1,4,2:0:4:0:
36,192,79741,1,2,1:0:3:0:
329,192,79741,1,4,2:0:4:0:
402,192,79838,1,4,2:0:4:0:
36,192,79935,1,2,1:0:3:0:
475,192,79935,1,4,2:0:4:0:
402,192,80032,1,0,0:0:0:70:soft-hitfinish4
36,192,80129,1,2,1:0:3:0:
475,192,80129,1,4,2:0:4:0:
109,192,80225,1,4,1:0:3:0:
402,192,80225,1,4,2:0:4:0:
36,192,80322,1,2,1:0:3:0:
329,192,80322,1,4,2:0:4:0:
36,192,80516,1,2,2:0:3:0:
182,192,80516,1,0,2:0:3:0:
256,192,80516,1,2,1:0:3:0:
329,192,80516,1,8,2:0:2:0:
475,192,80516,1,0,2:0:4:0:
36,192,80709,1,2,2:0:3:0:
182,192,80709,1,0,2:0:3:0:
256,192,80709,1,2,1:0:3:0:
329,192,80709,1,8,2:0:2:0:
475,192,80709,1,0,2:0:4:0:
36,192,80903,1,2,2:0:3:0:
182,192,80903,1,0,2:0:3:0:
256,192,80903,1,2,1:0:3:0:
329,192,80903,1,8,2:0:2:0:
475,192,80903,1,0,2:0:4:0:
109,192,81096,128,0,81483:2:0:3:0:
256,192,81096,1,2,1:0:3:0:
402,192,81096,128,2,81483:2:0:3:0:
182,192,81483,128,4,82064:2:0:3:0:
256,192,81483,1,2,1:0:3:0:
329,192,81483,128,0,82064:2:0:4:0:
36,192,82064,1,8,2:0:3:0:
256,192,82064,1,0,2:0:4:0:
475,192,82064,1,2,1:0:3:0:
36,192,82258,1,2,1:0:5:0:
182,192,82258,1,8,2:0:2:70:normal-hitwhistle5
402,192,82258,1,8,2:0:2:70:soft-hitclap4
36,192,82548,1,2,1:0:5:0:
182,192,82548,1,8,2:0:2:70:normal-hitwhistle5
402,192,82548,1,8,2:0:2:70:soft-hitclap4
36,192,82838,1,2,1:0:5:0:
182,192,82838,1,8,2:0:2:70:normal-hitwhistle5
402,192,82838,1,8,2:0:2:70:soft-hitclap4
36,192,83129,1,2,1:0:5:0:
182,192,83129,1,8,2:0:2:70:normal-hitwhistle5
402,192,83129,1,8,2:0:2:70:soft-hitclap4
36,192,83419,1,2,1:0:5:0:
182,192,83419,1,8,2:0:2:70:normal-hitwhistle5
402,192,83419,1,8,2:0:2:70:soft-hitclap4
109,192,83806,1,4,1:0:5:0:
256,192,83806,1,8,2:0:2:70:normal-hitfinish5
475,192,83806,1,8,2:0:2:70:soft-hitclap4
109,192,84096,1,4,1:0:5:0:
256,192,84096,1,8,2:0:2:70:normal-hitfinish5
475,192,84096,1,8,2:0:2:70:soft-hitclap4
109,192,84387,1,4,1:0:5:0:
256,192,84387,1,8,2:0:2:70:normal-hitfinish5
475,192,84387,1,8,2:0:2:70:soft-hitclap4
109,192,84677,1,4,1:0:5:0:
256,192,84677,1,8,2:0:2:70:normal-hitfinish5
475,192,84677,1,8,2:0:2:70:soft-hitclap4
109,192,84967,1,4,1:0:5:0:
256,192,84967,1,8,2:0:2:70:normal-hitfinish5
475,192,84967,1,8,2:0:2:70:soft-hitclap4
36,192,85354,1,8,2:0:2:70:soft-hitclap4
182,192,85354,1,8,2:0:2:70:normal-hitnormal5
329,192,85354,1,0,1:0:5:0:
36,192,85645,1,8,2:0:2:70:soft-hitclap4
182,192,85645,1,8,2:0:2:70:normal-hitnormal5
329,192,85645,1,0,1:0:5:0:
36,192,85935,1,8,2:0:2:70:soft-hitclap4
182,192,85935,1,8,2:0:2:70:normal-hitnormal5
329,192,85935,1,0,1:0:5:0:
36,192,86225,1,8,2:0:2:70:soft-hitclap4
182,192,86225,1,8,2:0:2:70:normal-hitnormal5
329,192,86225,1,0,1:0:5:0:
36,192,86516,1,8,2:0:2:70:soft-hitclap4
182,192,86516,1,0,1:0:5:70:normal-hitnormal5
329,192,86516,1,8,2:0:2:0:
475,192,86516,128,2,86903:1:0:3:0:
36,192,86903,1,8,1:0:5:70:soft-hitclap4
182,192,86903,1,8,2:0:2:70:normal-hitclap5
402,192,86903,128,2,87290:1:0:3:0:
182,192,87290,1,8,2:0:2:70:normal-hitclap5
329,192,87290,128,2,87677:1:0:3:0:
36,192,87290,1,8,1:0:5:70:soft-hitclap4
256,192,87677,128,2,88064:1:0:3:0:
36,192,87677,1,4,1:0:5:70:soft-hitclap4
109,192,87677,1,8,2:0:2:70:normal-hitfinish5
36,192,88064,1,4,1:0:5:70:soft-hitclap4
109,192,88064,1,8,2:0:2:70:normal-hitfinish5
402,192,88064,128,4,88258:1:0:4:0:
475,192,88064,128,2,88258:1:0:3:0:
256,192,88258,128,2,89806:1:0:3:0:
36,192,88451,128,8,88645:2:0:3:0:
109,192,88645,128,8,88838:2:0:3:0:
182,192,88838,128,8,89032:2:0:3:0:
475,192,89225,128,8,89419:2:0:3:0:
402,192,89419,128,8,89612:2:0:3:0:
329,192,89612,128,8,89806:2:0:3:0:
182,192,89806,128,2,91354:1:0:3:0:
36,192,90000,128,8,90193:2:0:3:0:
256,192,90193,128,8,90387:2:0:3:0:
475,192,90387,128,8,90580:2:0:3:0:
475,192,90774,128,8,90967:2:0:3:0:
256,192,90967,128,8,91161:2:0:3:0:
36,192,91161,128,8,91354:2:0:3:0:
109,192,91354,128,2,91935:2:0:3:0:
329,192,91354,128,2,92903:1:0:3:0:
182,192,91935,1,4,2:0:3:0:
182,192,92129,128,4,92903:2:0:3:0:
36,192,92903,1,2,1:0:3:0:
256,192,93096,1,2,1:0:3:0:
329,192,93096,1,4,1:0:3:0:
402,192,93096,1,2,2:0:3:0:
475,192,93096,1,8,2:0:2:0:
36,192,93290,1,4,2:0:4:0:
256,192,93483,1,2,1:0:3:0:
329,192,93483,1,4,1:0:3:0:
402,192,93483,1,2,2:0:3:0:
475,192,93483,1,8,2:0:2:0:
36,192,93677,1,4,2:0:4:0:
36,192,93870,128,2,94451:1:0:3:0:
256,192,93870,1,4,2:0:3:0:
329,192,93870,1,4,1:0:3:0:
402,192,93870,1,2,2:0:3:0:
475,192,93870,1,8,2:0:2:0:
256,192,94064,1,2,2:0:4:0:
329,192,94112,1,2,2:0:4:0:
402,192,94161,1,2,2:0:4:0:
475,192,94209,1,2,2:0:4:0:
256,192,94258,1,2,2:0:4:0:
329,192,94306,1,2,2:0:4:0:
402,192,94354,1,2,2:0:4:0:
475,192,94403,1,2,2:0:4:0:
109,192,94451,1,0,2:0:4:0:
329,192,94451,1,2,1:0:3:0:
109,192,94645,1,2,1:0:5:0:
475,192,94645,1,4,1:0:4:0:
329,192,94838,1,2,1:0:3:0:
109,192,94935,1,2,1:0:5:0:
475,192,95032,1,4,1:0:4:0:
109,192,95225,1,2,1:0:5:0:
329,192,95225,1,2,1:0:3:0:
475,192,95419,1,4,1:0:4:0:
109,192,95516,1,2,1:0:5:0:
329,192,95612,1,2,1:0:3:0:
109,192,95806,1,2,1:0:5:0:
475,192,95806,1,4,1:0:4:0:
402,192,96000,1,2,1:0:3:0:
182,192,96193,1,4,1:0:5:0:
475,192,96193,1,4,1:0:4:0:
402,192,96387,1,2,1:0:3:0:
182,192,96483,1,4,1:0:5:0:
475,192,96580,1,4,1:0:4:0:
182,192,96774,1,4,1:0:5:0:
402,192,96774,1,2,1:0:3:0:
475,192,96967,1,4,1:0:4:0:
182,192,97064,1,4,1:0:5:0:
402,192,97161,1,2,1:0:3:0:
182,192,97354,1,4,1:0:5:0:
475,192,97354,1,4,1:0:4:0:
402,192,97451,1,2,2:0:4:0:
329,192,97548,1,2,1:0:3:0:
36,192,97741,1,0,1:0:5:0:
402,192,97741,1,4,1:0:4:0:
329,192,97935,1,2,1:0:3:0:
36,192,98032,1,0,1:0:5:0:
402,192,98129,1,4,1:0:4:0:
36,192,98322,1,0,1:0:5:0:
329,192,98322,1,2,1:0:3:0:
402,192,98516,1,4,1:0:4:0:
36,192,98612,1,0,1:0:5:0:
329,192,98709,1,2,1:0:3:0:
36,192,98903,1,0,1:0:5:0:
402,192,98903,1,4,1:0:4:0:
329,192,99096,1,2,1:0:3:0:
182,192,99290,1,8,1:0:5:0:
475,192,99290,1,4,1:0:4:0:
329,192,99483,1,2,1:0:3:0:
182,192,99580,1,8,1:0:5:0:
475,192,99677,1,4,1:0:4:0:
182,192,99870,1,8,1:0:5:0:
256,192,99870,1,2,1:0:3:0:
402,192,100064,1,4,1:0:4:0:
109,192,100161,1,4,1:0:5:0:
256,192,100258,1,2,1:0:3:0:
109,192,100451,1,4,1:0:5:0:
402,192,100451,1,4,1:0:4:0:
182,192,100645,1,2,1:0:3:0:
36,192,100838,1,4,1:0:4:0:
402,192,100838,1,2,1:0:5:0:
182,192,101032,1,2,1:0:3:0:
402,192,101129,1,2,1:0:5:0:
36,192,101225,1,4,1:0:4:0:
182,192,101419,1,2,1:0:3:0:
402,192,101419,1,2,1:0:5:0:
36,192,101612,1,4,1:0:4:0:
402,192,101709,1,2,1:0:5:0:
182,192,101806,1,2,1:0:3:0:
36,192,102000,1,4,1:0:4:0:
402,192,102000,1,2,1:0:5:0:
109,192,102193,1,2,1:0:3:0:
36,192,102387,1,4,1:0:4:0:
475,192,102387,1,4,1:0:5:0:
109,192,102580,1,2,1:0:3:0:
475,192,102677,1,4,1:0:5:0:
36,192,102774,1,4,1:0:4:0:
109,192,102967,1,2,1:0:3:0:
475,192,102967,1,4,1:0:5:0:
36,192,103161,1,4,1:0:4:0:
475,192,103258,1,4,1:0:5:0:
109,192,103354,1,2,1:0:3:0:
36,192,103548,1,4,1:0:4:0:
475,192,103548,1,4,1:0:5:0:
109,192,103741,1,2,1:0:3:0:
182,192,103935,1,4,1:0:4:0:
329,192,103935,1,0,1:0:5:0:
109,192,104129,1,2,1:0:3:0:
329,192,104225,1,0,1:0:5:0:
182,192,104322,1,4,1:0:4:0:
109,192,104516,1,2,1:0:3:0:
329,192,104516,1,0,1:0:5:0:
182,192,104709,1,4,1:0:4:0:
329,192,104806,1,0,1:0:5:0:
109,192,104903,1,2,1:0:3:0:
182,192,105096,1,4,1:0:4:0:
329,192,105096,1,0,1:0:5:0:
36,192,105290,1,2,2:0:4:0:
329,192,105483,1,4,2:0:4:0:
402,192,105483,1,2,1:0:3:0:
475,192,105483,1,4,1:0:4:0:
36,192,105677,1,2,2:0:4:0:
329,192,105774,1,4,2:0:4:0:
402,192,105774,1,2,1:0:3:0:
475,192,105774,1,4,1:0:4:0:
36,192,105870,1,2,2:0:4:0:
329,192,106064,1,4,2:0:4:0:
402,192,106064,1,2,1:0:3:0:
475,192,106064,1,2,2:0:4:0:
329,192,106161,1,4,2:0:4:0:
402,192,106161,1,2,1:0:3:0:
475,192,106161,1,2,2:0:4:0:
36,192,106258,1,2,2:0:4:0:
329,192,106354,1,4,2:0:4:0:
402,192,106354,1,2,1:0:3:0:
475,192,106354,1,2,2:0:4:0:
329,192,106451,1,4,2:0:4:0:
402,192,106451,1,2,1:0:3:0:
475,192,106451,1,2,2:0:4:0:
256,192,106645,1,4,2:0:4:0:
182,192,106693,1,4,2:0:4:0:
109,192,106741,1,4,2:0:4:0:
36,192,106790,1,4,2:0:4:0:
256,192,106838,1,0,2:0:4:0:
329,192,106838,1,2,1:0:3:0:
475,192,106935,1,8,2:0:3:0:
402,192,107129,1,8,2:0:3:0:
36,192,107225,1,2,1:0:3:0:
329,192,107225,1,8,2:0:3:0:
329,192,107419,1,8,2:0:3:0:
256,192,107516,1,8,1:0:4:0:
402,192,107516,1,2,2:0:3:0:
36,192,107612,1,2,1:0:3:0:
182,192,107806,1,8,1:0:4:0:
329,192,107806,1,2,2:0:3:0:
36,192,108000,1,2,1:0:3:0:
109,192,108000,1,8,1:0:4:0:
256,192,108000,1,2,2:0:3:0:
182,192,108193,1,8,1:0:4:0:
329,192,108193,1,2,2:0:3:0:
36,192,108387,1,2,1:0:3:0:
329,192,108387,1,4,1:0:3:0:
402,192,108483,1,8,2:0:3:0:
182,192,108580,1,8,2:0:3:0:
109,192,108677,1,8,2:0:3:0:
36,192,108774,1,2,1:0:3:0:
256,192,108774,1,4,1:0:3:0:
109,192,108870,1,8,2:0:3:0:
329,192,108967,1,8,2:0:3:0:
182,192,109064,1,8,2:0:3:0:
36,192,109161,1,2,1:0:3:0:
402,192,109161,1,4,1:0:3:0:
256,192,109258,1,8,2:0:3:0:
475,192,109354,1,8,2:0:3:0:
329,192,109451,1,8,2:0:3:0:
36,192,109548,1,2,1:0:3:0:
182,192,109548,1,4,1:0:3:0:
36,192,109741,1,4,1:0:3:0:
256,192,109741,1,8,2:0:3:0:
36,192,109935,1,2,1:0:3:0:
329,192,109935,1,8,1:0:4:0:
475,192,110032,1,8,2:0:3:0:
402,192,110225,1,8,2:0:3:0:
36,192,110322,1,2,1:0:3:0:
182,192,110322,1,8,2:0:3:0:
475,192,110516,1,8,2:0:3:0:
256,192,110612,1,8,1:0:4:0:
402,192,110612,1,2,2:0:3:0:
36,192,110709,1,2,1:0:3:0:
329,192,110903,1,8,1:0:4:0:
475,192,110903,1,2,2:0:3:0:
36,192,111096,1,2,1:0:3:0:
256,192,111096,1,8,1:0:4:0:
402,192,111096,1,2,2:0:3:0:
182,192,111290,1,8,1:0:4:0:
329,192,111290,1,2,2:0:3:0:
36,192,111483,1,2,1:0:3:0:
475,192,111483,1,4,1:0:3:0:
182,192,111580,1,8,2:0:3:0:
182,192,111677,1,8,2:0:3:0:
329,192,111774,1,8,2:0:3:0:
36,192,111870,1,2,1:0:3:0:
182,192,111870,1,4,1:0:3:0:
329,192,111967,1,8,2:0:3:0:
475,192,112064,1,8,2:0:3:0:
182,192,112161,1,8,2:0:3:0:
36,192,112258,1,2,1:0:3:0:
475,192,112258,1,4,1:0:3:0:
329,192,112354,1,8,2:0:3:0:
182,192,112451,1,8,2:0:3:0:
329,192,112548,1,8,2:0:3:0:
36,192,112645,1,2,1:0:3:0:
475,192,112645,1,4,1:0:3:0:
36,192,112838,1,2,1:0:3:0:
182,192,112838,1,4,1:0:3:0:
36,192,113032,1,2,1:0:3:0:
182,192,113032,1,8,1:0:4:0:
475,192,113129,1,8,2:0:3:0:
329,192,113322,1,8,2:0:3:0:
36,192,113419,1,2,1:0:3:0:
256,192,113419,1,8,2:0:3:0:
256,192,113612,1,8,2:0:3:0:
329,192,113709,1,2,2:0:3:0:
475,192,113709,1,8,1:0:4:0:
36,192,113806,1,2,1:0:3:0:
256,192,114000,1,2,2:0:3:0:
402,192,114000,1,8,1:0:4:0:
36,192,114193,1,2,1:0:3:0:
182,192,114193,1,2,2:0:3:0:
329,192,114193,1,8,1:0:4:0:
256,192,114387,1,2,2:0:3:0:
402,192,114387,1,8,1:0:4:0:
36,192,114580,1,2,1:0:3:0:
329,192,114580,1,4,1:0:3:0:
475,192,114677,1,8,2:0:3:0:
329,192,114774,1,8,2:0:3:0:
256,192,114870,1,8,2:0:3:0:
36,192,114967,1,2,1:0:3:0:
329,192,114967,1,4,1:0:3:0:
256,192,115064,1,8,2:0:3:0:
182,192,115161,1,8,2:0:3:0:
109,192,115258,1,8,2:0:3:0:
36,192,115354,1,2,1:0:3:0:
329,192,115354,1,4,1:0:3:0:
402,192,115451,1,8,2:0:3:0:
475,192,115548,1,8,2:0:3:0:
329,192,115645,1,8,2:0:3:0:
36,192,115741,1,2,1:0:3:0:
256,192,115741,1,4,1:0:3:0:
36,192,115935,1,4,1:0:4:0:
182,192,115935,1,4,1:0:3:0:
36,192,116129,1,2,1:0:3:0:
256,192,116129,1,8,1:0:4:0:
475,192,116225,1,8,2:0:3:0:
402,192,116419,1,8,2:0:3:0:
36,192,116516,1,2,1:0:3:0:
182,192,116516,1,8,2:0:3:0:
402,192,116709,1,8,2:0:3:0:
182,192,116806,1,2,2:0:3:0:
329,192,116806,1,8,1:0:4:0:
36,192,116903,1,2,1:0:3:0:
36,192,117096,1,2,1:0:3:0:
329,192,117096,1,2,2:0:3:0:
475,192,117096,1,8,1:0:4:0:
36,192,117290,1,2,1:0:3:0:
182,192,117290,1,2,2:0:3:0:
329,192,117290,1,8,1:0:4:0:
36,192,117483,1,2,1:0:3:0:
109,192,117483,1,2,2:0:3:0:
256,192,117483,1,8,1:0:4:0:
36,192,117677,1,2,1:0:3:0:
256,192,117677,128,0,117967:1:0:4:0:
402,192,117677,128,0,117967:1:0:4:0:
36,192,117967,1,2,1:0:3:0:
329,192,117967,128,0,118258:1:0:4:0:
475,192,117967,128,0,118258:1:0:4:0:
36,192,118258,1,2,1:0:3:0:
256,192,118258,128,0,118548:1:0:4:0:
402,192,118258,128,0,118548:1:0:4:0:
36,192,118548,1,2,1:0:3:0:
329,192,118548,128,0,118838:1:0:4:0:
475,192,118548,128,0,118838:1:0:4:0:
36,192,118838,1,2,1:0:3:0:
256,192,118838,128,0,119032:1:0:4:0:
402,192,118838,128,0,119032:1:0:4:0:
36,192,119032,1,2,1:0:3:0:
329,192,119032,128,0,119225:1:0:4:0:
475,192,119032,128,0,119225:1:0:4:0:
36,192,119225,128,2,121548:1:0:3:0:
109,192,119225,128,8,121548:1:0:3:0:
182,192,119225,128,0,121548:2:0:4:0:
