osu file format v12

[General]
AudioFilename: sweetrainoffset.ogg
AudioLeadIn: 0
PreviewTime: 50949
Countdown: 0
SampleSet: Soft
StackLeniency: 0.4
Mode: 3
LetterboxInBreaks: 1

[Editor]
DistanceSpacing: 0.5
BeatDivisor: 4
GridSize: 16

[Metadata]
Title:Sweet Rain
TitleUnicode:Sweet Rain
Artist:Y&Co. feat. Karin
ArtistUnicode:Y&Co. feat. Karin
Creator:chonicle
Version:Easy
Source:jubeat
Tags:
BeatmapID:223375
BeatmapSetID:74779

[Difficulty]
HPDrainRate:4
CircleSize:7
OverallDifficulty:7
ApproachRate:7
SliderMultiplier:0.4
SliderTickRate:1

[Events]
//Background and Video events
0,0,"bg.jpg",0,0
//Break Periods
//Storyboard Layer 0 (Background)
//Storyboard Layer 1 (Fail)
//Storyboard Layer 2 (Pass)
//Storyboard Layer 3 (Foreground)
//Storyboard Sound Samples
Sample,1741,0,"Bluezone-BD-snare-028.wav",70
Sample,7741,0,"Bluezone-BD-kick-001.wav",70
Sample,7935,0,"Bluezone-BD-snare-028.wav",70
Sample,24774,0,"Bluezone-BD-kick-001.wav",70
Sample,24774,0,"Bluezone-BD-ride-019.wav",70
Sample,25064,0,"Bluezone-BD-kick-001.wav",70
Sample,25354,0,"Bluezone-BD-kick-001.wav",70
Sample,25645,0,"Bluezone-BD-kick-001.wav",70
Sample,25935,0,"Bluezone-BD-kick-001.wav",70
Sample,26129,0,"Bluezone-BD-kick-001.wav",70
Sample,49354,0,"Bluezone-BD-ride-019.wav",70
Sample,49354,0,"Bluezone-BD-kick-001.wav",70
Sample,49354,0,"Bluezone-BD-hihat-069.wav",70
Sample,49548,0,"Bluezone-BD-kick-001.wav",70
Sample,49548,0,"Bluezone-BD-ride-019.wav",70
Sample,49741,0,"Bluezone-BD-ride-019.wav",70
Sample,49741,0,"Bluezone-BD-kick-001.wav",70
Sample,49935,0,"Bluezone-BD-ride-019.wav",70
Sample,49935,0,"Bluezone-BD-kick-001.wav",70
Sample,50129,0,"Bluezone-BD-kick-001.wav",70
Sample,50129,0,"Bluezone-BD-ride-019.wav",70
Sample,50516,0,"Bluezone-BD-ride-006.wav",70
Sample,50516,0,"Bluezone-BD-kick-001.wav",70
Sample,75870,0,"Bluezone-BD-ride-019.wav",70
Sample,78967,0,"Bluezone-BD-ride-019.wav",70
Sample,80516,0,"Bluezone-BD-kick-001.wav",70
Sample,80516,0,"Bluezone-BD-ride-019.wav",70
Sample,80516,0,"Bluezone-BD-snare-028.wav",70
Sample,80709,0,"Bluezone-BD-kick-001.wav",70
Sample,80709,0,"Bluezone-BD-ride-019.wav",70
Sample,80709,0,"Bluezone-BD-snare-028.wav",70
Sample,80903,0,"Bluezone-BD-snare-028.wav",70
Sample,80903,0,"Bluezone-BD-ride-019.wav",70
Sample,80903,0,"Bluezone-BD-kick-001.wav",70
Sample,81096,0,"Bluezone-BD-snare-028.wav",70
Sample,81096,0,"Bluezone-BD-ride-019.wav",70
Sample,81096,0,"Bluezone-BD-kick-001.wav",70
Sample,81483,0,"Bluezone-BD-snare-028.wav",70
Sample,81483,0,"Bluezone-BD-kick-001.wav",70
Sample,81483,0,"Bluezone-BD-ride-019.wav",70
Sample,88258,0,"Bluezone-BD-ride-019.wav",70
Sample,93096,0,"Bluezone-BD-clap-006.wav",70
Sample,93483,0,"Bluezone-BD-clap-006.wav",70
Sample,93870,0,"Bluezone-BD-clap-006.wav",70
Sample,94451,0,"Bluezone-BD-ride-019.wav",70
Sample,119225,0,"Bluezone-BD-ride-006.wav",70
Sample,38709,0,"soft-hitnormal4.wav",70
Sample,51096,0,"soft-hitnormal4.wav",70
Sample,63483,0,"soft-hitnormal4.wav",70
//Background Colour Transformations

[TimingPoints]
0,387.096774193548,4,2,2,70,1,0

[HitObjects]
256,192,1548,1,2,1:0:3:0:
402,192,1741,1,8,1:0:3:0:
109,192,3096,1,2,1:0:3:0:
36,192,3870,1,2,1:0:3:0:
109,192,4645,1,2,1:0:3:0:
109,192,5419,1,2,1:0:3:0:
109,192,6193,1,2,1:0:3:0:
402,192,6774,1,0,0:0:0:70:normal-hitwhistle3
402,192,7161,1,0,2:0:3:70:normal-hitwhistle3
329,192,7354,1,2,1:0:3:70:normal-hitwhistle3
182,192,7741,1,8,1:0:3:0:
109,192,7935,1,4,1:0:3:0:
36,192,9290,1,2,1:0:3:0:
36,192,10064,1,0,0:0:0:70:normal-hitwhistle3
402,192,10451,1,2,1:0:3:0:
36,192,10645,1,0,2:0:3:0:
402,192,10838,1,2,1:0:3:0:
402,192,11612,1,2,1:0:3:0:
329,192,11806,1,2,1:0:3:0:
109,192,12193,1,2,1:0:3:0:
182,192,12387,1,2,1:0:3:0:
256,192,13548,1,2,1:0:4:0:
402,192,13935,1,2,1:0:3:0:
475,192,14709,1,2,1:0:3:0:
182,192,15483,1,2,1:0:3:0:
182,192,16258,1,2,1:0:3:0:
109,192,16645,1,4,1:0:3:0:
36,192,16838,1,4,1:0:3:0:
402,192,17032,1,2,1:0:3:0:
475,192,17806,1,2,1:0:3:0:
182,192,18580,1,2,1:0:3:0:
182,192,19354,1,2,1:0:3:0:
329,192,19741,1,4,1:0:3:0:
475,192,19935,1,4,1:0:3:0:
109,192,20129,1,2,1:0:3:0:
182,192,20903,1,2,1:0:3:0:
36,192,21677,1,2,1:0:3:0:
475,192,22451,1,2,1:0:3:0:
402,192,22838,1,4,1:0:3:0:
329,192,23032,1,4,1:0:3:0:
109,192,23225,1,2,1:0:3:0:
182,192,24000,1,2,1:0:3:0:
109,192,24387,1,4,1:0:3:0:
36,192,24580,1,4,1:0:3:0:
109,192,24774,1,0,1:0:4:0:
402,192,25064,1,0,1:0:4:0:
109,192,25354,1,0,1:0:4:0:
402,192,25645,1,0,1:0:4:0:
109,192,25935,1,0,1:0:4:0:
402,192,26129,1,0,1:0:4:0:
109,192,26322,1,0,2:0:4:0:
329,192,27096,1,2,1:0:3:0:
402,192,27870,1,2,1:0:3:0:
402,192,28645,1,2,1:0:3:0:
329,192,29032,1,2,1:0:3:0:
109,192,29419,1,2,1:0:3:0:
109,192,30193,1,2,1:0:3:0:
109,192,30967,1,2,1:0:3:0:
256,192,31741,1,2,1:0:3:0:
256,192,32129,1,2,1:0:3:0:
329,192,32516,1,2,1:0:3:0:
329,192,33290,1,2,1:0:3:0:
402,192,34064,1,2,1:0:3:0:
402,192,34838,1,2,1:0:3:0:
182,192,35612,1,8,2:0:3:0:
182,192,36193,1,8,2:0:3:0:
475,192,37161,1,2,2:0:3:0:
402,192,37354,1,2,2:0:3:0:
329,192,37741,1,2,2:0:3:0:
256,192,38129,128,4,38709:2:0:3:0:
36,192,38709,1,2,1:0:3:70:normal-hitwhistle3
402,192,39096,1,4,1:0:3:0:
402,192,39677,1,4,1:0:3:0:
109,192,40258,1,2,1:0:3:0:
475,192,40645,1,4,1:0:3:0:
475,192,41225,1,4,1:0:3:0:
182,192,41806,1,2,1:0:3:0:
329,192,42193,1,4,1:0:3:0:
329,192,42774,1,4,1:0:3:0:
36,192,43548,1,2,1:0:4:0:
475,192,43741,1,2,1:0:4:0:
36,192,43935,1,0,0:0:0:70:normal-hitwhistle3
475,192,44322,1,2,1:0:4:0:
475,192,44709,1,2,1:0:4:0:
36,192,44903,1,2,1:0:3:0:
182,192,44903,1,0,2:0:4:0:
109,192,45290,1,4,1:0:3:0:
109,192,45870,1,4,1:0:3:0:
182,192,46838,1,4,1:0:3:0:
182,192,47419,1,4,1:0:3:0:
329,192,47806,1,4,1:0:3:0:
402,192,48193,1,4,1:0:3:0:
109,192,49354,1,2,2:0:3:0:
182,192,49548,1,2,2:0:3:0:
329,192,49741,1,2,2:0:3:0:
182,192,49935,1,2,2:0:3:0:
329,192,50129,1,2,2:0:3:0:
182,192,50516,128,4,51096:2:0:3:0:
402,192,51096,1,2,1:0:3:0:
402,192,51483,1,2,1:0:3:70:normal-hitwhistle3
402,192,52451,1,8,2:0:3:0:
329,192,52838,1,8,2:0:3:0:
256,192,53225,1,8,2:0:3:0:
256,192,53612,1,8,2:0:3:0:
329,192,53806,1,8,2:0:3:0:
329,192,54193,1,2,1:0:3:0:
182,192,54580,1,2,1:0:3:70:normal-hitwhistle3
475,192,55161,1,8,2:0:3:0:
402,192,55548,1,8,2:0:3:0:
475,192,55935,1,8,2:0:3:0:
402,192,56322,1,8,2:0:3:0:
402,192,56709,1,8,2:0:3:0:
329,192,56903,1,8,2:0:3:0:
402,192,57290,1,2,1:0:3:0:
256,192,57677,1,2,1:0:3:0:
402,192,58258,1,8,2:0:3:0:
329,192,58645,1,8,2:0:3:0:
256,192,59225,1,8,2:0:3:0:
182,192,59612,1,8,2:0:3:0:
256,192,60000,1,8,2:0:3:0:
329,192,60387,1,8,2:0:3:0:
402,192,60967,1,8,2:0:3:0:
475,192,61161,1,8,2:0:3:0:
182,192,62129,1,2,2:0:3:0:
182,192,62516,1,2,2:0:3:0:
109,192,62903,128,4,63483:2:0:3:0:
402,192,63483,1,2,1:0:3:0:
402,192,63870,1,2,1:0:3:70:normal-hitwhistle3
475,192,64451,1,8,2:0:3:0:
402,192,64838,1,8,2:0:3:0:
329,192,65225,1,8,2:0:3:0:
256,192,65612,1,8,2:0:3:0:
256,192,66000,1,8,2:0:3:0:
329,192,66193,1,8,2:0:3:0:
329,192,66580,1,2,1:0:3:0:
182,192,66967,1,2,1:0:3:0:
475,192,67548,1,8,2:0:3:0:
402,192,67935,1,8,2:0:3:0:
475,192,68322,1,8,2:0:3:0:
402,192,68709,1,8,2:0:3:0:
402,192,69096,1,8,2:0:3:0:
329,192,69290,1,8,2:0:3:0:
402,192,69677,1,2,1:0:3:0:
256,192,70064,1,2,1:0:3:0:
402,192,70838,1,8,2:0:3:0:
329,192,71032,1,8,2:0:3:0:
256,192,71612,1,8,2:0:3:0:
182,192,72000,1,8,2:0:3:0:
256,192,72387,1,8,2:0:3:0:
182,192,72774,1,8,2:0:3:0:
109,192,73354,1,8,2:0:3:0:
36,192,73548,1,8,2:0:3:0:
402,192,74516,1,2,2:0:3:0:
402,192,74903,1,2,2:0:3:0:
329,192,75290,1,4,2:0:3:0:
402,192,75870,1,4,2:0:4:0:
109,192,76258,1,4,2:0:4:0:
402,192,76645,1,4,2:0:4:0:
109,192,76838,1,4,2:0:4:0:
402,192,77032,1,4,2:0:4:0:
475,192,77419,1,4,2:0:4:0:
36,192,77806,1,4,2:0:4:0:
475,192,78193,1,4,2:0:4:0:
36,192,78387,1,4,2:0:4:0:
475,192,78580,1,4,2:0:4:0:
36,192,78967,1,2,1:0:3:0:
36,192,79354,1,2,1:0:3:0:
36,192,79741,1,2,1:0:3:0:
182,192,79935,1,2,1:0:3:0:
329,192,80129,1,2,1:0:3:0:
182,192,80516,1,2,2:0:3:0:
329,192,80709,1,2,2:0:3:0:
182,192,80903,1,2,2:0:3:0:
402,192,81096,1,2,2:0:3:0:
475,192,81483,1,4,2:0:3:0:
329,192,82258,1,2,1:0:5:70:soft-hitclap4
329,192,82548,1,2,1:0:5:70:soft-hitclap4
329,192,82838,1,2,1:0:5:70:soft-hitclap4
329,192,83129,1,2,1:0:5:70:soft-hitclap4
329,192,83419,1,2,1:0:5:70:soft-hitclap4
402,192,83806,1,4,1:0:5:70:soft-hitclap4
402,192,84096,1,4,1:0:5:70:soft-hitclap4
402,192,84387,1,4,1:0:5:70:soft-hitclap4
402,192,84677,1,4,1:0:5:70:soft-hitclap4
402,192,84967,1,4,1:0:5:70:soft-hitclap4
182,192,85354,1,0,1:0:5:70:soft-hitclap4
182,192,85645,1,0,1:0:5:70:soft-hitclap4
182,192,85935,1,0,1:0:5:70:soft-hitclap4
182,192,86225,1,0,1:0:5:70:soft-hitclap4
475,192,86516,1,2,1:0:3:0:
402,192,86903,1,2,1:0:3:0:
329,192,87290,1,2,1:0:3:0:
256,192,87677,1,2,1:0:3:0:
182,192,88064,1,2,1:0:3:0:
109,192,88258,128,2,89806:1:0:3:0:
402,192,89806,128,2,91354:1:0:3:0:
36,192,91354,128,2,92903:1:0:3:0:
475,192,93096,1,2,2:0:3:0:
475,192,93483,1,2,2:0:3:0:
402,192,93870,1,2,2:0:3:0:
109,192,94451,1,2,1:0:3:0:
329,192,94838,1,2,1:0:3:0:
109,192,95225,1,2,1:0:3:0:
329,192,95612,1,2,1:0:3:0:
182,192,96000,1,2,1:0:3:0:
402,192,96387,1,2,1:0:3:0:
182,192,96774,1,2,1:0:3:0:
402,192,97161,1,2,1:0:3:0:
36,192,97548,1,2,1:0:3:0:
329,192,97935,1,2,1:0:3:0:
36,192,98322,1,2,1:0:3:0:
329,192,98709,1,2,1:0:3:0:
182,192,99096,1,2,1:0:3:0:
475,192,99483,1,2,1:0:3:0:
109,192,99870,1,2,1:0:3:0:
402,192,100258,1,2,1:0:3:0:
329,192,100645,1,8,2:0:3:0:
182,192,101032,1,8,2:0:3:0:
36,192,101419,1,8,2:0:3:0:
402,192,101806,1,8,2:0:3:0:
329,192,102000,1,8,2:0:3:0:
256,192,102580,1,8,2:0:3:0:
182,192,102967,1,8,2:0:3:0:
256,192,103354,1,8,2:0:3:0:
329,192,103741,1,8,2:0:3:0:
402,192,104322,1,8,2:0:3:0:
475,192,104516,1,8,2:0:3:0:
36,192,105290,1,2,1:0:3:0:
329,192,105483,1,4,2:0:4:100:soft-hitfinish4
329,192,105774,1,4,2:0:4:100:soft-hitfinish4
182,192,106064,1,4,2:0:4:100:soft-hitfinish4
182,192,106354,1,4,2:0:4:100:soft-hitfinish4
475,192,106645,1,4,2:0:4:100:soft-hitfinish4
402,192,106838,1,2,1:0:3:70:soft-hitnormal4
475,192,107612,1,2,1:0:3:0:
329,192,108387,1,2,1:0:3:0:
329,192,109161,1,2,1:0:3:0:
109,192,109548,1,4,1:0:3:0:
182,192,109741,1,4,1:0:3:0:
402,192,109935,1,2,1:0:3:0:
475,192,110709,1,2,1:0:3:0:
36,192,111483,1,2,1:0:3:0:
36,192,112258,1,2,1:0:3:0:
329,192,112645,1,4,1:0:3:0:
402,192,112838,1,4,1:0:3:0:
109,192,113032,1,2,1:0:3:0:
182,192,113806,1,2,1:0:3:0:
36,192,114580,1,2,1:0:3:0:
36,192,115354,1,2,1:0:3:0:
402,192,115741,1,4,1:0:3:0:
329,192,115935,1,4,1:0:3:0:
109,192,116129,1,2,1:0:3:0:
182,192,116903,1,2,1:0:3:0:
402,192,117290,1,4,1:0:3:0:
329,192,117483,1,4,1:0:3:0:
182,192,117677,1,2,1:0:3:0:
329,192,117967,1,2,1:0:3:0:
182,192,118258,1,2,1:0:3:0:
329,192,118548,1,2,1:0:3:0:
182,192,118838,1,2,1:0:3:0:
329,192,119032,1,2,1:0:3:0:
109,192,119225,128,0,121548:2:0:4:0:
402,192,119225,128,2,121548:1:0:3:0:
