osu file format v9

[General]
AudioFilename: Sweet Rain.mp3
AudioLeadIn: 3000
PreviewTime: 49579
Countdown: 0
SampleSet: Normal
StackLeniency: 0.7
Mode: 0
LetterboxInBreaks: 1
EpilepsyWarning: 1

[Editor]
DistanceSpacing: 0.8
BeatDivisor: 4
GridSize: 4

[Metadata]
Title:Sweet Rain
Artist:Y&Co. feat. Karin
Creator:bossandy
Version:Extreme
Source:jubeat
Tags:spboxer3

[Difficulty]
HPDrainRate:7
CircleSize:4
OverallDifficulty:7
ApproachRate:8
SliderMultiplier:1.8
SliderTickRate:1

[Events]
//Background and Video events
0,0,"BG.jpg"
//Break Periods
2,25181,30424
//Storyboard Layer 0 (Background)
//Storyboard Layer 1 (Fail)
//Storyboard Layer 2 (Pass)
//Storyboard Layer 3 (Foreground)
Sprite,Foreground,Centre,"BG2.jpg",320,240 M,0,80160,,320,240 F,0,80160,80741,0,1 F,0,80741,86916,1 F,0,86916,93110,1,0.06459951
Sprite,Foreground,Centre,"BG3.jpg",320,240 M,0,49386,49773,320,240 F,0,49386,50160,0,1 M,0,49773,,320,240 F,0,50160,50934,1,0 F,0,50934,51708,0,1 F,0,51708,52483,1,0 F,0,52483,53257,0,1 F,0,53257,54031,1,0 F,0,54031,54805,0,1 F,0,54805,55579,1,0 F,0,55579,56354,0,1 F,0,56354,57128,1,0 F,0,57128,57902,0,1 F,0,57902,58676,1,0 F,0,58676,59450,0,1 F,0,59450,60224,1,0 F,0,60224,60999,0,1 F,0,60999,61773,1,0 F,0,61773,,0
Sprite,Foreground,Centre,"BG4.jpg",320,240 M,0,94676,,320,240 F,0,94676,95450,0,1 F,0,95450,96224,1,0 F,0,96224,97773,0 F,0,97773,98547,0,1 F,0,98547,99321,1,0 F,0,99321,100870,0 F,0,100870,101644,0,1 F,0,101644,102418,1,0 F,0,102418,103966,0 F,0,103966,104644,0 F,0,104644,104741,0,1 F,0,104741,105031,1,0.3053229 F,0,105031,105515,0.3053229,0 F,0,105515,107063,0 F,0,107063,107837,0,1 F,0,107837,108612,1,0 F,0,108612,110160,0 F,0,110160,110934,0,1 F,0,110934,111708,1,0 F,0,111708,113257,0 F,0,113257,114031,0,1 F,0,114031,114805,1,0 F,0,114805,116354,0 F,0,116354,117128,0,1 F,0,117128,117902,1,0
Sprite,Foreground,Centre,"BG3.jpg",320,240 M,0,93128,,320,240 F,0,93128,93902,0,1 F,0,93902,94676,1,0 F,0,94676,96224,0,0.01679587 F,0,96224,96999,0.01679587,1 F,0,96999,97773,1,0 F,0,97773,99321,0 F,0,99321,100095,0,1 F,0,100095,100870,1,0 F,0,100870,102418,0 F,0,102418,103192,0,1 F,0,103192,103966,1,0 F,0,103966,105515,0 F,0,105515,106289,0,1 F,0,106289,107063,1,0 F,0,107063,108612,0,0.02067184 F,0,108612,109386,0.02067184,1 F,0,109386,110160,1,0 F,0,110160,111708,0 F,0,111708,112483,0,1 F,0,112483,113257,1,0 F,0,113257,114805,0 F,0,114805,115579,0,1 F,0,115579,116354,1,0
Sprite,Foreground,Centre,"BG2.jpg",320,240 F,0,117902,120999,1 M,0,123321,,320,240
Sprite,Foreground,Centre,"white.png",320,240 F,0,117884,118658,1,0 M,0,117902,,320,240 F,0,118658,,0,0.01093844
Sprite,Foreground,Centre,"white.png",320,240 F,0,6370,6612,0.452,0 M,0,6418,,320,240
Sprite,Foreground,Centre,"white.png",320,240 F,0,93110,93497,1,0 F,0,93497,,0,0.02641862
Sprite,Foreground,Centre,"white.png",320,240 F,0,99303,99690,1,0
Sprite,Foreground,Centre,"white.png",320,240 F,0,103948,104336,1,0
Sprite,Foreground,Centre,"white.png",320,240 F,0,104336,104723,1,0 F,0,104723,,0
Sprite,Foreground,Centre,"white.png",320,240 F,0,104723,105110,1,0
Sprite,Foreground,Centre,"white.png",320,240 F,0,105497,106271,1,0 F,0,106271,,0,0.01421813
Sprite,Foreground,Centre,"white.png",320,240 F,0,116336,116723,1,0
Sprite,Foreground,Centre,"white.png",320,240 F,0,116916,117303,1,0
Sprite,Foreground,Centre,"BG2.jpg",320,240 F,0,47837,48224,0,1 F,0,48224,49773,1
Sprite,Foreground,Centre,"BG3.jpg",320,240 F,0,61773,62547,0,1 F,0,62547,63321,1,0 F,0,63321,64095,0,1 F,0,64095,64870,1,0 F,0,64870,65644,0,1 F,0,65644,66418,1,0 F,0,66418,67192,0,1 F,0,67192,67966,1,0 F,0,67966,68741,0,1 F,0,68741,69515,1,0 F,0,69515,70289,0,1 F,0,70289,71063,1,0 F,0,71063,71837,0,1 F,0,71837,72612,1,0 F,0,72612,73386,0,1 F,0,73386,74160,1,0
Sprite,Foreground,Centre,"white.png",320,240 F,0,74529,74916,1,0 F,0,74916,79174,0,0.03100777
Sprite,Foreground,Centre,"white.png",320,240 F,0,79368,79561,1,0
Sprite,Foreground,Centre,"white.png",320,240 F,0,79561,79755,1,0
Sprite,Foreground,Centre,"white.png",320,240 F,0,79755,79948,1,0
Sprite,Foreground,Centre,"white.png",320,240 F,0,80142,80723,1,0
Sprite,Foreground,Centre,"bossandy.png",320,240 S,0,25386,,0.312,0.1 F,0,25386,25773,0,1 M,0,25386,26547,189,125,118,113 S,0,25386,26547,0.1,0.4731428 R,0,25386,26547,-26.944,-37.408 F,0,25773,30805,1 M,0,26547,31192,118,113,276,118 F,0,30805,31192,1,0
Sprite,Foreground,Centre,"black.png",320,240 F,0,80160,80741,0,1 M,0,80741,,320,240 F,0,80741,86547,1 F,0,86547,93128,1,0
Sprite,Foreground,Centre,"Slow!.png",320,240 F,0,79755,80142,0,1 S,0,79755,80723,0.5039994,0.7119995 M,0,80142,,180,158 F,0,80142,80723,1 F,0,80723,80916,1,0 S,0,80723,80916,0.7119995,2.152
Sprite,Foreground,Centre,"white.png",320,240 M,0,37368,,320,240 F,0,37368,37755,1,0
Sprite,Foreground,Centre,"white.png",320,240 F,0,49755,50142,1,0 M,0,50142,,320,239
Sprite,Foreground,Centre,"white.png",320,240 F,0,62142,62529,1,0
Sprite,Foreground,Centre,"white.png",320,240 F,0,79174,79368,1,0
Sprite,Foreground,Centre,"white.png",320,240 F,0,105110,105497,1,0
//Storyboard Sound Samples
//Background Colour Transformations
3,100,163,162,255

[TimingPoints]
207,387.096774193548,4,1,0,50,1,0
1755,-100,4,1,0,60,0,0
5626,-100,4,1,1,70,0,0
6255,-100,4,1,1,72,0,0
6303,-100,4,1,1,74,0,0
6352,-100,4,1,1,76,0,0
6400,-100,4,1,1,78,0,0
6448,-100,4,1,1,80,0,0
6594,-100,4,1,0,70,0,0
9497,-100,4,1,2,70,0,0
9690,-100,4,1,2,70,0,0
9884,-100,4,1,2,50,0,0
10077,-100,4,1,2,60,0,0
10271,-100,4,1,2,80,0,0
10658,-100,4,1,2,100,0,0
11045,-100,4,1,0,70,0,0
21884,-100,4,1,2,70,0,0
22271,-100,4,1,2,80,0,0
22658,-100,4,1,2,90,0,0
23239,-100,4,1,0,70,0,0
31174,-100,4,1,0,70,0,0
36981,-100,4,1,1,80,0,0
37077,-100,4,1,1,85,0,0
37174,-100,4,1,1,90,0,0
37271,-100,4,1,1,95,0,0
37368,-100,4,1,1,100,0,0
37561,-100,4,1,0,80,0,0
41819,-100,4,1,0,100,0,0
42206,-100,4,1,2,80,0,0
43755,-100,4,1,0,80,0,0
48206,-100,4,1,2,100,0,0
48787,-100,4,1,0,70,0,0
49368,-100,4,1,1,70,0,0
49755,-100,4,1,0,70,0,1
55755,-100,4,1,1,70,0,1
56142,-100,4,1,0,70,0,1
61948,-100,4,1,1,70,0,1
62094,-100,4,1,1,70,0,0
62142,-100,4,1,1,70,0,1
62194,-100,4,1,0,70,0,1
68142,-100,4,1,1,70,0,1
68529,-100,4,1,0,70,0,1
74336,-100,4,1,1,100,0,1
74529,-100,4,1,1,80,0,0
74723,-100,4,1,0,60,0,0
80142,-200,4,1,0,90,0,0
82271,-100,4,1,0,30,0,0
83819,-100,4,1,0,35,0,0
84594,-100,4,1,0,40,0,0
85174,-100,4,1,2,60,0,0
85561,-100,4,1,2,70,0,0
85948,-100,4,1,2,80,0,0
86336,-100,4,1,2,90,0,0
86723,-100,4,1,2,100,0,0
87110,-100,4,1,0,50,0,0
87884,-100,4,1,0,60,0,0
88658,-100,4,1,0,60,0,0
90206,-100,4,1,0,70,0,0
90787,-100,4,1,2,100,0,0
91561,-100,4,1,0,80,0,0
92723,-100,4,1,2,80,0,0
92819,-100,4,1,2,85,0,0
92916,-100,4,1,2,90,0,0
93013,-100,4,1,2,95,0,0
93110,-100,4,1,2,100,0,1
93303,-100,4,1,0,80,0,1
99110,-100,4,1,1,80,0,1
99497,-100,4,1,0,80,0,1
105448,-100,4,1,0,80,0,0
105497,-100,4,1,0,80,0,1
114981,-100,4,1,2,80,0,1
115561,-100,4,1,2,90,0,1
115948,-100,4,1,2,100,0,1
116336,-100,4,1,0,80,0,1
117884,-100,4,1,0,80,0,0

[Colours]
Combo1 : 244,162,222
Combo2 : 232,250,171
Combo3 : 163,224,200
SliderBorder : 255,255,255

[HitObjects]
132,76,207,2,0,B|168:168,1,90,0|8
256,52,594,2,0,B|256:144,1,90,0|0
380,76,981,2,0,B|344:168,1,90,0|0
308,240,1368,1,0
348,320,1561,1,0
184,348,1755,2,0,B|112:348,3,45,8|0|0|0
100,324,2142,2,0,B|72:288,3,45,8|0|0|0
64,244,2529,5,8
72,200,2626,1,0
100,164,2723,1,0
144,156,2819,1,0
188,152,2916,1,8
228,128,3013,1,0
248,88,3110,1,0
256,44,3206,1,0
288,12,3303,1,4
288,12,3497,5,8
436,224,3884,1,8
224,372,4271,1,8
76,160,4658,1,8
344,224,4852,6,0,B|368:312,1,90,8|0
239,99,5239,2,0,B|303:35,1,90,8|0
184,252,5626,2,0,B|96:228,1,90,0|0
320,280,6013,1,0
320,280,6110,1,0
320,280,6206,2,8,B|356:280,4,22.5
256,76,6594,5,8
168,76,6787,1,0
80,76,6981,1,8
256,308,7368,1,8
344,308,7561,1,0
432,308,7755,1,8
432,188,7948,5,8
412,148,8045,1,0
388,112,8142,1,0
344,96,8239,1,0
300,100,8336,1,8
260,116,8432,1,0
224,144,8529,1,0
180,140,8626,1,0
144,112,8723,2,0,B|84:80,3,45,8|0|0|0
92,136,9110,2,0,B|16:176,3,45,8|0|0|0
40,200,9497,1,4
72,284,9690,5,8
140,340,9884,1,0
192,268,10077,1,0
260,324,10271,1,0
320,268,10465,1,0
372,340,10658,1,0
440,284,10852,1,0
256,192,11045,12,4,12206
432,312,12594,6,8,B|368:312|368:312|308:272,1,135,8|0
309,273,12981,1,0
308,184,13174,2,0,B|296:136,1,45
216,100,13465,2,0,B|168:72,1,45
92,112,13755,1,0
92,200,13948,1,0
172,240,14142,1,8
188,244,14239,1,0
204,248,14336,1,0
220,252,14432,1,0
236,256,14529,1,8
252,260,14626,1,0
268,264,14723,1,0
284,268,14819,1,0
300,272,14916,5,8
313,262,15013,1,0
326,252,15110,1,0
340,242,15206,1,0
352,232,15303,1,8
296,96,15497,1,8
216,288,15690,6,0,B|192:328|140:336,1,90,8|0
296,96,16077,2,0,B|342:97|375:138,1,90,8|0
216,200,16465,2,0,B|170:199|137:158,1,90,8|0
112,16,16852,2,0,B|157:16|190:57,1,90,8|0
276,80,17239,5,8
344,136,17432,1,0
380,220,17626,2,0,B|388:272|352:300,1,90,8|0
268,336,18013,1,8
224,340,18110,1,0
180,344,18206,1,0
148,312,18303,1,0
120,276,18400,1,8
256,192,18594,1,8
196,124,18787,6,0,B|152:124|152:124|108:92,1,90,8|0
324,132,19174,2,0,B|324:88|324:88|356:44,1,90,8|0
316,260,19561,2,0,B|360:260|360:260|404:292,1,90,8|0
188,252,19948,2,0,B|188:296|188:296|156:340,1,90,8|8
104,120,20336,5,8
184,160,20529,1,0
252,100,20723,2,0,B|316:28,1,90,8|0
408,264,21110,1,8
328,224,21303,1,0
260,284,21497,2,8,B|196:356,1,90
156,276,21884,5,0
168,264,21981,1,0
180,252,22077,1,0
192,240,22174,1,0
204,228,22271,1,0
216,216,22368,1,0
228,204,22465,1,0
240,192,22561,1,0
252,180,22658,5,0
264,168,22755,1,0
276,156,22852,1,0
288,144,22948,1,0
300,132,23045,2,8,B|368:64,1,90,0|8
364,68,23432,5,4
428,192,23723,1,4
364,316,24013,1,4
428,192,24303,1,4
202,192,24594,6,0,B|292:192,1,90,12|0
112,192,24981,1,4
332,200,31174,6,0,B|344:96,1,90,0|8
180,200,31561,2,0,B|168:96,1,90,0|8
80,104,31948,1,0
8,48,32142,1,8
92,16,32336,2,0,B|136:32|184:20,1,90,8|8
256,72,32723,5,0
328,124,32916,1,8
408,84,33110,1,0
336,28,33303,1,8
256,72,33497,1,0
277,203,33690,1,8
404,245,33884,1,8
388,109,34077,1,8
160,56,34271,6,0,B|115:44|70:54,1,90,0|8
220,116,34658,2,0,B|264:127|309:117,1,90,0|8
308,116,35045,1,0
396,92,35239,1,8
440,172,35432,1,8
380,240,35626,1,8
296,204,35819,1,8
296,204,36013,1,8
148,304,36400,5,4
364,80,36787,5,4
364,80,36981,2,8,B|400:80,8,22.5
276,92,37561,1,8
192,60,37755,1,0
116,108,37948,1,8
88,196,38142,2,0,B|80:252|24:264,1,90,0|8
100,324,38529,1,8
176,276,38723,6,0,B|196:228|248:224,1,90,8|0
256,312,39110,1,8
376,192,39303,1,0
256,72,39497,1,8
344,72,39690,2,0,B|436:72,1,90,0|8
168,312,40077,2,8,B|76:312,1,90,8|8
256,192,40465,5,4
344,192,40658,1,8
424,236,40852,2,0,B|452:192|420:144,1,90,0|8
176,152,41239,2,0,B|148:196|180:244,1,90,0|8
340,116,41626,2,0,B|296:88|248:120,1,90,4|0
296,176,42013,1,0
296,176,42206,5,0
172,248,42594,1,0
292,328,42981,1,0
276,260,43174,5,0
344,276,43368,1,0
372,268,43465,1,0
392,260,43561,2,0,B|428:244|428:244|440:196,1,90,0|8
444,104,43948,1,0
364,148,44142,1,8
280,180,44336,1,0
364,148,44529,5,8
272,92,44723,1,0
168,112,44916,1,8
168,112,45303,5,8
52,64,45497,1,0
100,180,45690,1,8
100,180,46077,5,8
156,312,46271,1,0
292,356,46465,1,8
420,292,46658,6,0,B|444:200,1,90,0|8
356,356,47045,2,0,B|264:380,1,90,0|8
324,120,47432,2,0,B|348:28,1,90,0|8
184,260,47819,2,0,B|92:284,1,90,0|8
144,80,48206,5,0
256,192,48400,1,0
368,304,48594,1,0
416,228,48787,2,0,B|352:144|248:196,1,180,4|0
188,248,49368,5,8
172,264,49465,1,8
152,272,49561,1,8
128,272,49658,1,8
108,264,49755,2,0,B|20:256,1,90,0|2
64,176,50142,2,0,B|144:138,1,90,0|2
104,60,50529,1,0
192,44,50723,1,2
256,108,50916,1,2
320,44,51110,1,2
408,60,51303,6,0,B|440:164,1,90,0|2
410,306,51690,2,0,B|384:220,1,90,0|2
352,144,52077,1,0
304,220,52271,1,2
212,220,52465,1,2
160,144,52658,1,2
72,160,52852,6,0,B|28:64,1,90,0|2
256,192,53239,2,0,B|256:280,1,90,0|2
440,160,53626,2,0,B|484:64,1,90,0|2
340,124,54013,1,2
392,260,54206,1,2
34,305,54594,5,2
172,260,54787,1,2
120,124,54981,1,2
340,312,55368,1,2
260,192,55561,1,2
296,52,55755,1,10
316,44,55852,1,10
340,44,55948,6,0,B|368:88|348:140,1,90,8|2
172,340,56336,2,0,B|144:296|164:244,1,90,0|2
248,280,56723,1,0
244,192,56916,1,2
164,148,57110,1,2
88,200,57303,1,2
256,104,57497,6,0,B|288:76|288:76|288:20,1,90,0|2
256,280,57884,2,0,B|224:308|224:308|224:364,1,90,0|2
394,330,58271,1,0
328,210,58465,1,2
184,210,58658,1,2
117,330,58852,1,2
117,330,59045,2,0,B|48:272|48:272|48:180,1,180,0|2
48,100,59626,1,0
132,132,59819,2,0,B|201:190|201:190|201:282,1,180,0|2
256,352,60400,5,2
256,352,60787,1,2
336,192,61174,1,2
256,32,61561,1,2
256,124,61755,1,2
256,212,61948,1,10
244,232,62045,1,10
224,240,62142,6,0,B|176:256|132:240,1,90,12|2
288,144,62529,2,0,B|336:128|380:144,1,90,0|2
336,224,62916,1,0
300,308,63110,1,2
212,308,63303,1,2
176,224,63497,1,2
256,184,63690,6,0,B|256:92,1,90,0|2
176,52,64077,1,0
256,8,64271,1,2
336,52,64465,1,0
392,176,64658,1,2
256,96,64852,1,2
120,176,65045,1,2
256,96,65239,6,0,B|256:292,1,180,0|2
184,332,65819,1,2
184,332,66013,2,0,B|188:372|256:400|336:372|336:296,1,180,0|2
344,232,66594,1,2
360,144,66787,6,0,B|388:108|380:56,1,90,0|2
208,88,67174,2,0,B|172:60|120:68,1,90,0|2
152,240,67561,2,0,B|124:276|132:328,1,90,0|2
304,296,67948,2,0,B|340:324|392:316,1,90,2|10
396,296,68239,1,10
400,272,68336,5,8
400,184,68529,2,0,B|400:84,2,90,2|0|2
312,156,69110,1,0
224,180,69303,1,2
240,92,69497,1,2
188,16,69690,1,2
80,260,69884,6,0,B|88:312|36:348,1,90,0|2
80,260,70271,1,0
164,296,70465,1,2
208,216,70658,1,0
256,292,70852,1,2
304,216,71045,1,2
348,296,71239,1,2
256,140,71432,6,0,B|204:52|96:92,1,180,0|2
256,244,72013,1,0
256,244,72206,2,0,B|308:332|416:292,1,180,0|2
428,204,72787,1,2
256,148,73174,1,2
84,204,73561,1,2
256,236,73948,5,2
256,148,74142,1,2
256,56,74336,2,8,B|256:8,2,45
180,104,74723,5,8
180,104,74819,1,0
332,104,75013,1,8
332,104,75110,1,0
332,196,75303,1,8
340,240,75400,1,0
324,284,75497,1,0
288,312,75594,1,0
244,320,75690,1,8
200,320,75787,1,0
160,304,75884,1,8
80,268,76077,6,8,B|60:224|84:176,1,90,8|0
124,192,76368,2,8,B|168:160|160:108,1,90,8|8
148,72,76658,1,8
236,60,76852,2,0,B|268:24,3,45,8|0|0|0
312,40,77239,1,8
356,56,77336,1,0
376,96,77432,1,8
372,140,77529,1,0
404,172,77626,1,8
376,256,77819,6,0,B|324:288,1,45,8|0
136,256,78110,2,0,B|188:288,1,45,8|0
256,316,78400,1,8
256,296,78497,1,0
256,276,78594,1,0
392,36,78787,1,8
392,56,78884,1,0
392,76,78981,1,8
392,92,79077,1,0
392,112,79174,5,12
336,328,79368,1,8
120,272,79561,1,12
176,56,79755,1,8
256,192,80142,6,0,B|248:204|248:204|264:204|264:204|248:216|248:216|264:216|264:216|248:228|248:228|264:228|264:228|248:240|248:240|256:256|264:240|264:240,1,135,4|4
256,192,82271,5,4
256,192,83819,5,4
256,192,84594,1,4
392,192,85174,5,0
120,192,85561,1,0
256,328,85948,1,0
256,56,86336,1,0
285,139,86529,1,0
277,153,86626,1,0
269,167,86723,1,0
261,181,86819,1,0
254,195,86916,1,0
180,244,87110,5,0
256,288,87303,1,8
332,244,87497,1,0
354,124,87884,5,0
256,67,88077,1,8
157,124,88271,1,0
137,273,88658,5,0
256,341,88852,1,8
374,273,89045,1,0
398,94,89432,5,0
256,12,89626,1,8
113,94,89819,1,0
104,295,90206,5,0
256,383,90400,1,8
407,295,90594,1,0
407,88,90787,5,0
256,0,90981,1,0
104,88,91174,1,0
256,192,91368,1,0
344,192,91561,5,8
436,192,91755,1,8
168,192,92142,1,0
92,148,92336,1,8
92,236,92529,1,0
12,192,92723,2,0,B|44:192,8,22.5,0|0|0|0|0|0|0|4|0
60,300,93303,5,2
148,224,93497,1,0
172,336,93690,1,2
256,252,93884,1,0
340,336,94077,1,2
364,224,94271,1,2
452,300,94465,1,2
316,116,94658,6,0,B|336:28,1,90,0|2
196,268,95045,2,0,B|176:356,1,90,0|2
332,252,95432,2,0,B|420:272,1,90,0|2
180,132,95819,2,2,B|92:112,1,90
188,48,96206,5,0
188,48,96400,1,2
256,144,96594,1,0
256,144,96787,1,2
324,48,96981,1,0
324,48,97174,1,2
256,236,97368,2,0,B|256:328,1,90,2|0
380,128,97948,6,2,B|380:224,1,90
380,336,98336,1,0
132,256,98723,2,2,B|132:160,1,90
132,48,99110,1,8
152,40,99206,1,8
176,36,99303,6,0,B|288:36,1,90,8|2
380,68,99690,1,0
304,156,99884,1,2
396,228,100077,1,0
280,240,100271,1,2
372,316,100465,1,2
256,328,100658,1,2
196,172,100852,6,0,B|116:96,1,90,0|2
316,212,101239,2,0,B|396:288,1,90,0|2
152,248,101626,2,0,B|40:288,1,90,0|2
360,136,102013,2,0,B|472:96,1,90,2|2
256,192,102400,6,0,B|168:192|168:192|80:156,1,180,0|2
188,104,102981,1,0
116,12,103174,2,0,B|204:12|204:12|292:48,1,180,0|2
384,116,103755,1,2
344,224,103948,6,0,B|368:296,2,45,8|0|0
276,152,104336,2,0,B|296:72,2,45,8|0|0
188,280,104723,2,8,B|120:320,2,45,8|0|0
148,96,105110,2,8,B|240:48,1,90,8|0
248,48,105400,1,8
272,44,105497,1,0
348,92,105690,6,0,B|384:128,1,45,8|0
360,212,105981,2,0,B|364:260,1,45,8|0
284,300,106271,2,0,B|244:336,3,45,8|0|0|0
204,328,106658,1,8
160,316,106755,1,0
132,280,106852,1,8
116,236,106948,1,0
84,204,107045,1,8
92,116,107239,5,8
108,76,107336,1,0
196,80,107529,1,8
236,96,107626,1,0
324,84,107819,2,0,B|364:40,3,45,8|0|0|0
400,56,108206,2,0,B|456:56,3,45,8|0|8|0
480,88,108594,1,8
420,156,108787,6,0,B|384:228,1,45,8|0
316,232,109077,1,8
276,212,109174,1,0
216,280,109368,1,8
176,260,109465,1,0
136,244,109561,1,0
124,200,109658,1,0
152,168,109755,1,8
136,124,109852,1,0
108,92,109948,1,8
120,48,110045,1,0
156,24,110142,1,8
240,56,110336,6,0,B|256:100,1,45,8|0
392,176,110626,2,0,B|348:192,1,45,8|0
272,328,110916,2,0,B|256:284,1,45,8|0
120,208,111206,2,0,B|164:192,1,45,0|0
204,176,111400,1,0
228,140,111497,1,8
264,116,111594,1,0
292,80,111690,6,0,B|336:100|352:148,1,90,8|0
220,304,112077,2,0,B|175:284|160:236,1,90,8|0
220,80,112465,2,0,B|175:100|160:148,1,90,8|0
292,304,112852,2,0,B|336:284|352:236,1,90,8|0
440,224,113239,5,8
448,180,113336,1,0
416,148,113432,1,0
428,104,113529,1,0
388,84,113626,1,8
348,64,113723,1,0
304,68,113819,1,0
264,88,113916,1,0
220,84,114013,2,0,B|168:60,3,45,8|0|0|0
136,48,114400,2,0,B|72:56,3,45,8|0|8|0
60,88,114787,5,8
84,268,114981,1,0
188,120,115174,1,0
256,288,115368,1,0
324,120,115561,1,0
428,268,115755,1,0
452,88,115948,1,0
452,88,116142,1,0
140,196,116336,6,0,B|192:332,1,135,12|0
372,196,116916,2,0,B|320:332,1,135,12|0
256,156,117497,2,0,B|256:40,1,90,12|0
256,66,117884,1,4
