osu file format v9

[General]
AudioFilename: Sweet Rain.mp3
AudioLeadIn: 3000
PreviewTime: 49579
Countdown: 0
SampleSet: Normal
StackLeniency: 0.7
Mode: 0
LetterboxInBreaks: 1
EpilepsyWarning: 1

[Editor]
DistanceSpacing: 1
BeatDivisor: 4
GridSize: 4

[Metadata]
Title:Sweet Rain
Artist:Y&Co. feat. Karin
Creator:bossandy
Version:Basic
Source:jubeat
Tags:spboxer3

[Difficulty]
HPDrainRate:3
CircleSize:3
OverallDifficulty:2
ApproachRate:2
SliderMultiplier:0.799999999999999
SliderTickRate:1

[Events]
//Background and Video events
0,0,"BG.jpg"
//Break Periods
2,25181,29614
2,87116,91550
//Storyboard Layer 0 (Background)
//Storyboard Layer 1 (Fail)
//Storyboard Layer 2 (Pass)
//Storyboard Layer 3 (Foreground)
Sprite,Foreground,Centre,"BG2.jpg",320,240 M,0,80160,,320,240 F,0,80160,80741,0,1 F,0,80741,86916,1 F,0,86916,93110,1,0.06459951
Sprite,Foreground,Centre,"BG3.jpg",320,240 M,0,49386,49773,320,240 F,0,49386,50160,0,1 M,0,49773,,320,240 F,0,50160,50934,1,0 F,0,50934,51708,0,1 F,0,51708,52483,1,0 F,0,52483,53257,0,1 F,0,53257,54031,1,0 F,0,54031,54805,0,1 F,0,54805,55579,1,0 F,0,55579,56354,0,1 F,0,56354,57128,1,0 F,0,57128,57902,0,1 F,0,57902,58676,1,0 F,0,58676,59450,0,1 F,0,59450,60224,1,0 F,0,60224,60999,0,1 F,0,60999,61773,1,0 F,0,61773,,0
Sprite,Foreground,Centre,"BG4.jpg",320,240 M,0,94676,,320,240 F,0,94676,95450,0,1 F,0,95450,96224,1,0 F,0,96224,97773,0 F,0,97773,98547,0,1 F,0,98547,99321,1,0 F,0,99321,100870,0 F,0,100870,101644,0,1 F,0,101644,102418,1,0 F,0,102418,103966,0 F,0,103966,104644,0 F,0,104644,104741,0,1 F,0,104741,105031,1,0.3053229 F,0,105031,105515,0.3053229,0 F,0,105515,107063,0 F,0,107063,107837,0,1 F,0,107837,108612,1,0 F,0,108612,110160,0 F,0,110160,110934,0,1 F,0,110934,111708,1,0 F,0,111708,113257,0 F,0,113257,114031,0,1 F,0,114031,114805,1,0 F,0,114805,116354,0 F,0,116354,117128,0,1 F,0,117128,117902,1,0
Sprite,Foreground,Centre,"BG3.jpg",320,240 M,0,93128,,320,240 F,0,93128,93902,0,1 F,0,93902,94676,1,0 F,0,94676,96224,0,0.01679587 F,0,96224,96999,0.01679587,1 F,0,96999,97773,1,0 F,0,97773,99321,0 F,0,99321,100095,0,1 F,0,100095,100870,1,0 F,0,100870,102418,0 F,0,102418,103192,0,1 F,0,103192,103966,1,0 F,0,103966,105515,0 F,0,105515,106289,0,1 F,0,106289,107063,1,0 F,0,107063,108612,0,0.02067184 F,0,108612,109386,0.02067184,1 F,0,109386,110160,1,0 F,0,110160,111708,0 F,0,111708,112483,0,1 F,0,112483,113257,1,0 F,0,113257,114805,0 F,0,114805,115579,0,1 F,0,115579,116354,1,0
Sprite,Foreground,Centre,"BG2.jpg",320,240 F,0,117902,120999,1 M,0,123321,,320,240
Sprite,Foreground,Centre,"white.png",320,240 F,0,117884,118658,1,0 M,0,117902,,320,240 F,0,118658,,0,0.01093844
Sprite,Foreground,Centre,"white.png",320,240 F,0,6370,6612,0.452,0 M,0,6418,,320,240
Sprite,Foreground,Centre,"white.png",320,240 F,0,93110,93497,1,0 F,0,93497,,0,0.02641862
Sprite,Foreground,Centre,"white.png",320,240 F,0,99303,99690,1,0
Sprite,Foreground,Centre,"white.png",320,240 F,0,103948,104336,1,0
Sprite,Foreground,Centre,"white.png",320,240 F,0,104336,104723,1,0 F,0,104723,,0
Sprite,Foreground,Centre,"white.png",320,240 F,0,104723,105110,1,0
Sprite,Foreground,Centre,"white.png",320,240 F,0,105497,106271,1,0 F,0,106271,,0,0.01421813
Sprite,Foreground,Centre,"white.png",320,240 F,0,116336,116723,1,0
Sprite,Foreground,Centre,"white.png",320,240 F,0,116916,117303,1,0
Sprite,Foreground,Centre,"BG2.jpg",320,240 F,0,47837,48224,0,1 F,0,48224,49773,1
Sprite,Foreground,Centre,"BG3.jpg",320,240 F,0,61773,62547,0,1 F,0,62547,63321,1,0 F,0,63321,64095,0,1 F,0,64095,64870,1,0 F,0,64870,65644,0,1 F,0,65644,66418,1,0 F,0,66418,67192,0,1 F,0,67192,67966,1,0 F,0,67966,68741,0,1 F,0,68741,69515,1,0 F,0,69515,70289,0,1 F,0,70289,71063,1,0 F,0,71063,71837,0,1 F,0,71837,72612,1,0 F,0,72612,73386,0,1 F,0,73386,74160,1,0
Sprite,Foreground,Centre,"white.png",320,240 F,0,74529,74916,1,0 F,0,74916,79174,0,0.03100777
Sprite,Foreground,Centre,"white.png",320,240 F,0,79368,79561,1,0
Sprite,Foreground,Centre,"white.png",320,240 F,0,79561,79755,1,0
Sprite,Foreground,Centre,"white.png",320,240 F,0,79755,79948,1,0
Sprite,Foreground,Centre,"white.png",320,240 F,0,80142,80723,1,0
Sprite,Foreground,Centre,"bossandy.png",320,240 S,0,25386,,0.312,0.1 F,0,25386,25773,0,1 M,0,25386,26547,189,125,118,113 S,0,25386,26547,0.1,0.4731428 R,0,25386,26547,-26.944,-37.408 F,0,25773,30805,1 M,0,26547,31192,118,113,276,118 F,0,30805,31192,1,0
Sprite,Foreground,Centre,"black.png",320,240 F,0,80160,80741,0,1 M,0,80741,,320,240 F,0,80741,86547,1 F,0,86547,93128,1,0
Sprite,Foreground,Centre,"white.png",320,240 M,0,37368,,320,240 F,0,37368,37755,1,0
Sprite,Foreground,Centre,"white.png",320,240 F,0,49755,50142,1,0 M,0,50142,,320,239
Sprite,Foreground,Centre,"white.png",320,240 F,0,62142,62529,1,0
Sprite,Foreground,Centre,"white.png",320,240 F,0,79174,79368,1,0
Sprite,Foreground,Centre,"white.png",320,240 F,0,105110,105497,1,0
//Storyboard Sound Samples
//Background Colour Transformations
3,100,163,162,255

[TimingPoints]
207,387.096774193548,4,1,0,50,1,0
594,-100,4,2,0,40,0,0
1755,-100,4,1,0,60,0,0
5626,-100,4,1,1,70,0,0
6594,-100,4,1,0,70,0,0
9497,-100,4,1,2,90,0,0
10271,-100,4,1,2,100,0,0
11045,-100,4,1,0,50,0,0
11045,-100,4,1,0,70,0,0
12594,-100,4,1,0,70,0,0
21884,-100,4,1,2,70,0,0
22271,-100,4,1,2,80,0,0
22658,-100,4,1,2,90,0,0
23239,-100,4,1,0,70,0,0
37368,-100,4,1,1,100,0,0
37561,-100,4,1,0,80,0,0
42206,-100,4,1,2,100,0,0
42981,-100,4,1,0,60,0,0
49755,-100,4,1,0,70,0,1
55755,-100,4,1,1,70,0,1
56142,-100,4,1,0,70,0,1
62094,-100,4,1,1,70,0,0
62142,-100,4,1,0,70,0,1
68142,-100,4,1,1,90,0,1
68529,-100,4,1,0,70,0,1
74142,-100,4,1,0,60,0,1
74529,-100,4,1,0,90,0,0
82271,-100,4,1,0,30,0,0
83819,-100,4,1,0,35,0,0
84594,-100,4,1,0,40,0,0
85174,-100,4,1,2,60,0,0
85561,-100,4,1,2,70,0,0
85948,-100,4,1,2,80,0,0
86336,-100,4,1,2,90,0,0
86529,-100,4,1,0,90,0,0
86916,-100,4,1,2,100,0,0
91561,-100,4,1,0,80,0,0
93110,-100,4,1,0,90,0,1
93303,-100,4,1,0,80,0,1
99110,-100,4,1,1,80,0,1
99497,-100,4,1,0,80,0,1
105448,-100,4,1,0,80,0,0
105497,-100,4,1,0,80,0,1
117884,-100,4,1,0,60,0,0

[Colours]
Combo1 : 244,162,222
Combo2 : 232,250,171
Combo3 : 163,224,200
SliderBorder : 255,255,255

[HitObjects]
356,44,207,1,4
444,176,981,2,0,B|468:220|436:260,1,79.9999999999999,0|8
368,280,1755,1,0
368,280,2142,1,0
292,252,2529,2,0,B|200:252,2,79.9999999999999
256,96,4077,5,0
96,100,4852,2,0,B|36:156,1,79.9999999999999,8|0
80,220,5626,2,0,B|140:164,1,79.9999999999999,8|0
196,108,6400,5,4
196,268,7174,1,0
332,184,7948,2,0,B|212:184|212:184|120:92,1,240
72,156,9497,2,0,B|117:201|117:201|125:232|125:232|179:286,1,160
320,332,11045,2,0,B|404:312|404:168|320:144,1,240
256,192,12594,6,0,B|256:284,1,79.9999999999999
176,272,13368,2,0,B|176:192,1,79.9999999999999
140,120,14142,1,8
160,44,14529,1,0
240,32,14916,2,0,B|276:8|316:32,2,79.9999999999999
256,192,16465,5,0
359,66,17239,2,0,B|403:90|401:151,3,79.9999999999999,0|8|0|8
320,145,18787,6,0,B|289:87|192:68|120:188|208:232,1,240
260,232,20336,2,0,B|268:180|240:108|156:88|96:132,1,240
100,208,21884,5,0
100,208,22271,1,0
33,250,22658,2,0,B|48:284|100:288,1,79.9999999999999
172,256,23432,2,0,B|188:228|184:184,3,59.9999999999999,12|0|12|0
180,136,24594,2,0,B|168:96,2,40,8|0|0
404,104,31174,6,0,B|404:192,1,79.9999999999999,0|8
360,252,31948,2,0,B|360:164,1,79.9999999999999,0|8
316,104,32723,1,0
316,104,33110,1,8
236,104,33497,2,0,B|144:104,1,79.9999999999999,0|8
76,108,34271,6,0,B|8:104|-24:192|8:284|88:268,1,240,0|0
96,192,35819,2,0,B|152:204|192:308|104:348,1,200
224,320,37368,6,0,B|288:256,1,79.9999999999999,4|8
360,268,38142,2,0,B|448:268,1,79.9999999999999,0|8
416,192,38916,2,0,B|328:192,1,79.9999999999999,0|8
256,192,39690,2,0,B|168:192,1,79.9999999999999,0|8
96,192,40465,5,0
120,116,40852,1,8
200,116,41239,1,0
280,116,41626,2,0,B|448:116,2,160,0|0|8
280,116,43561,6,0,B|296:160|348:168,1,79.9999999999999,0|8
372,240,44336,2,0,B|356:284|304:292,1,79.9999999999999,0|8
236,292,45110,2,0,B|152:292,1,79.9999999999999,0|8
160,212,45884,2,0,B|76:212,2,79.9999999999999,0|8|0
240,212,47045,1,8
288,148,47432,2,0,B|332:172|324:228,1,79.9999999999999,0|8
292,288,48206,6,0,B|348:320|408:288,1,120
406,288,49174,1,0
336,192,49755,6,0,B|416:192,2,79.9999999999999,0|2|0
256,192,50916,1,2
176,192,51303,2,0,B|96:192,2,79.9999999999999,0|2|0
176,272,52465,1,2
256,272,52852,6,0,B|380:272|380:272|468:184,1,240,0|2
464,112,54400,2,0,B|464:32,2,79.9999999999999,0|2|0
384,116,55561,2,0,B|384:164,2,40,2|0|0
304,112,56336,5,2
224,112,56723,2,0,B|144:112,1,79.9999999999999,0|2
68,140,57497,2,0,B|80:180|132:196,3,79.9999999999999,0|2|2|2
148,116,59045,2,0,B|148:48|224:16|320:36|312:128,1,240
232,124,60594,6,0,B|208:196|208:196|148:200|112:280|168:328,1,240,0|0
220,272,62142,6,0,B|304:272,3,79.9999999999999,4|2|0|2
280,352,63690,2,0,B|196:352,3,79.9999999999999,0|2|0|2
120,352,65239,6,0,B|80:292|80:292|112:276|128:220|112:172|56:152,1,240,0|8
32,228,66787,2,0,B|192:176|192:176|192:88,1,240,0|8
240,40,68336,6,0,B|324:40,1,79.9999999999999,4|2
320,120,69110,2,0,B|392:162,1,79.9999999999999,0|2
344,224,69884,2,0,B|385:296,2,79.9999999999999,0|2|2
272,260,71045,1,2
256,192,71432,12,0,72981
116,68,74142,5,0
116,68,74529,2,8,B|92:188|92:188|120:316,1,240,12|8
196,296,76077,2,0,B|176:208,1,79.9999999999999,0|8
180,136,76852,2,0,B|204:104|252:112,1,79.9999999999999,0|8
256,192,77626,6,0,B|504:192,1,240,0|8
472,116,79174,2,0,B|440:88,3,40,0|0|0|4
360,92,80142,6,0,B|232:92,1,120,4|4
256,192,82271,5,4
256,192,83819,5,4
120,104,84594,2,0,B|76:148|76:148|76:216,1,120,4|0
124,272,85561,2,0,B|216:272,1,79.9999999999999
284,272,86336,2,0,B|408:272,1,120
380,284,93110,6,0,B|380:196,1,79.9999999999999,0|2
316,156,93884,2,0,B|316:68,1,79.9999999999999,0|2
236,76,94658,2,0,B|148:76|148:76|108:128|108:128|12:128,1,240,0|2
20,208,96206,2,0,B|20:260,2,40,0|0|2
100,208,96981,2,0,B|140:212|140:212|184:232,1,79.9999999999999,0|2
244,184,97755,2,0,B|268:228|244:264,1,79.9999999999999,0|2
184,312,98529,2,0,B|252:356|252:356|344:356,1,160,0|4
316,276,99690,6,0,B|276:276|276:276|228:244,2,79.9999999999999,2|0|2
380,228,100852,2,0,B|436:172,3,79.9999999999999,0|2|0|2
452,92,102400,2,0,B|396:92|396:92|300:184|300:184|232:184,1,240,0|2
248,104,103948,2,2,B|312:40,3,79.9999999999999
384,48,105497,6,0,B|416:108|416:108|416:204,1,160,0|8
368,264,106658,1,0
288,264,107045,2,0,B|208:264|208:264|128:232,1,160,0|8
96,304,108206,1,0
52,236,108594,6,0,B|24:200|56:152,3,79.9999999999999,0|8|0|8
52,80,110142,2,0,B|132:80|132:80|212:112,1,160,0|8
156,172,111303,1,0
156,172,111690,6,0,B|232:204|232:204|324:204,3,160,0|8|0|8
388,204,114400,1,0
432,136,114787,6,0,B|472:152|484:208|472:260|428:272,1,160,0|8
360,280,115948,1,0
256,192,116336,12,4,117884
