osu file format v9

[General]
AudioFilename: Sweet Rain.mp3
AudioLeadIn: 3000
PreviewTime: 49579
Countdown: 0
SampleSet: Normal
StackLeniency: 0.7
Mode: 0
LetterboxInBreaks: 1
EpilepsyWarning: 1

[Editor]
DistanceSpacing: 0.8
BeatDivisor: 4
GridSize: 4

[Metadata]
Title:Sweet Rain
Artist:Y&Co. feat. Karin
Creator:bossandy
Version:Advanced
Source:jubeat
Tags:spboxer3

[Difficulty]
HPDrainRate:4
CircleSize:4
OverallDifficulty:3
ApproachRate:4
SliderMultiplier:1.2
SliderTickRate:1

[Events]
//Background and Video events
0,0,"BG.jpg"
//Break Periods
2,25181,30424
//Storyboard Layer 0 (Background)
//Storyboard Layer 1 (Fail)
//Storyboard Layer 2 (Pass)
//Storyboard Layer 3 (Foreground)
Sprite,Foreground,Centre,"BG2.jpg",320,240 M,0,80160,,320,240 F,0,80160,80741,0,1 F,0,80741,86916,1 F,0,86916,93110,1,0.06459951
Sprite,Foreground,Centre,"BG3.jpg",320,240 M,0,49386,49773,320,240 F,0,49386,50160,0,1 M,0,49773,,320,240 F,0,50160,50934,1,0 F,0,50934,51708,0,1 F,0,51708,52483,1,0 F,0,52483,53257,0,1 F,0,53257,54031,1,0 F,0,54031,54805,0,1 F,0,54805,55579,1,0 F,0,55579,56354,0,1 F,0,56354,57128,1,0 F,0,57128,57902,0,1 F,0,57902,58676,1,0 F,0,58676,59450,0,1 F,0,59450,60224,1,0 F,0,60224,60999,0,1 F,0,60999,61773,1,0 F,0,61773,,0
Sprite,Foreground,Centre,"BG4.jpg",320,240 M,0,94676,,320,240 F,0,94676,95450,0,1 F,0,95450,96224,1,0 F,0,96224,97773,0 F,0,97773,98547,0,1 F,0,98547,99321,1,0 F,0,99321,100870,0 F,0,100870,101644,0,1 F,0,101644,102418,1,0 F,0,102418,103966,0 F,0,103966,104644,0 F,0,104644,104741,0,1 F,0,104741,105031,1,0.3053229 F,0,105031,105515,0.3053229,0 F,0,105515,107063,0 F,0,107063,107837,0,1 F,0,107837,108612,1,0 F,0,108612,110160,0 F,0,110160,110934,0,1 F,0,110934,111708,1,0 F,0,111708,113257,0 F,0,113257,114031,0,1 F,0,114031,114805,1,0 F,0,114805,116354,0 F,0,116354,117128,0,1 F,0,117128,117902,1,0
Sprite,Foreground,Centre,"BG3.jpg",320,240 M,0,93128,,320,240 F,0,93128,93902,0,1 F,0,93902,94676,1,0 F,0,94676,96224,0,0.01679587 F,0,96224,96999,0.01679587,1 F,0,96999,97773,1,0 F,0,97773,99321,0 F,0,99321,100095,0,1 F,0,100095,100870,1,0 F,0,100870,102418,0 F,0,102418,103192,0,1 F,0,103192,103966,1,0 F,0,103966,105515,0 F,0,105515,106289,0,1 F,0,106289,107063,1,0 F,0,107063,108612,0,0.02067184 F,0,108612,109386,0.02067184,1 F,0,109386,110160,1,0 F,0,110160,111708,0 F,0,111708,112483,0,1 F,0,112483,113257,1,0 F,0,113257,114805,0 F,0,114805,115579,0,1 F,0,115579,116354,1,0
Sprite,Foreground,Centre,"BG2.jpg",320,240 F,0,117902,120999,1 M,0,123321,,320,240
Sprite,Foreground,Centre,"white.png",320,240 F,0,117884,118658,1,0 M,0,117902,,320,240 F,0,118658,,0,0.01093844
Sprite,Foreground,Centre,"white.png",320,240 F,0,6370,6612,0.452,0 M,0,6418,,320,240
Sprite,Foreground,Centre,"white.png",320,240 F,0,93110,93497,1,0 F,0,93497,,0,0.02641862
Sprite,Foreground,Centre,"white.png",320,240 F,0,99303,99690,1,0
Sprite,Foreground,Centre,"white.png",320,240 F,0,103948,104336,1,0
Sprite,Foreground,Centre,"white.png",320,240 F,0,104336,104723,1,0 F,0,104723,,0
Sprite,Foreground,Centre,"white.png",320,240 F,0,104723,105110,1,0
Sprite,Foreground,Centre,"white.png",320,240 F,0,105497,106271,1,0 F,0,106271,,0,0.01421813
Sprite,Foreground,Centre,"white.png",320,240 F,0,116336,116723,1,0
Sprite,Foreground,Centre,"white.png",320,240 F,0,116916,117303,1,0
Sprite,Foreground,Centre,"BG2.jpg",320,240 F,0,47837,48224,0,1 F,0,48224,49773,1
Sprite,Foreground,Centre,"BG3.jpg",320,240 F,0,61773,62547,0,1 F,0,62547,63321,1,0 F,0,63321,64095,0,1 F,0,64095,64870,1,0 F,0,64870,65644,0,1 F,0,65644,66418,1,0 F,0,66418,67192,0,1 F,0,67192,67966,1,0 F,0,67966,68741,0,1 F,0,68741,69515,1,0 F,0,69515,70289,0,1 F,0,70289,71063,1,0 F,0,71063,71837,0,1 F,0,71837,72612,1,0 F,0,72612,73386,0,1 F,0,73386,74160,1,0
Sprite,Foreground,Centre,"white.png",320,240 F,0,74529,74916,1,0 F,0,74916,79174,0,0.03100777
Sprite,Foreground,Centre,"white.png",320,240 F,0,79368,79561,1,0
Sprite,Foreground,Centre,"white.png",320,240 F,0,79561,79755,1,0
Sprite,Foreground,Centre,"white.png",320,240 F,0,79755,79948,1,0
Sprite,Foreground,Centre,"white.png",320,240 F,0,80142,80723,1,0
Sprite,Foreground,Centre,"bossandy.png",320,240 S,0,25386,,0.312,0.1 F,0,25386,25773,0,1 M,0,25386,26547,189,125,118,113 S,0,25386,26547,0.1,0.4731428 R,0,25386,26547,-26.944,-37.408 F,0,25773,30805,1 M,0,26547,31192,118,113,276,118 F,0,30805,31192,1,0
Sprite,Foreground,Centre,"black.png",320,240 F,0,80160,80741,0,1 M,0,80741,,320,240 F,0,80741,86547,1 F,0,86547,93128,1,0
Sprite,Foreground,Centre,"Slow!.png",320,240 F,0,79755,80142,0,1 S,0,79755,80723,0.5039994,0.7119995 M,0,80142,,180,158 F,0,80142,80723,1 F,0,80723,80916,1,0 S,0,80723,80916,0.7119995,2.152
Sprite,Foreground,Centre,"white.png",320,240 M,0,37368,,320,240 F,0,37368,37755,1,0
Sprite,Foreground,Centre,"white.png",320,240 F,0,49755,50142,1,0 M,0,50142,,320,239
Sprite,Foreground,Centre,"white.png",320,240 F,0,62142,62529,1,0
Sprite,Foreground,Centre,"white.png",320,240 F,0,79174,79368,1,0
Sprite,Foreground,Centre,"white.png",320,240 F,0,105110,105497,1,0
//Storyboard Sound Samples
//Background Colour Transformations
3,100,163,162,255

[TimingPoints]
207,387.096774193548,4,1,0,50,1,0
1755,-100,4,1,0,60,0,0
6400,-100,4,1,0,90,0,0
6594,-100,4,1,0,70,0,0
9497,-100,4,1,2,90,0,0
10271,-100,4,1,2,100,0,0
11045,-100,4,1,0,70,0,0
21884,-100,4,1,2,70,0,0
22271,-100,4,1,2,80,0,0
22658,-100,4,1,2,90,0,0
23432,-100,4,1,0,70,0,0
37368,-100,4,1,1,100,0,0
37561,-100,4,1,0,80,0,0
42206,-100,4,1,2,80,0,0
43174,-100,4,1,0,80,0,0
43368,-100,4,1,2,100,0,0
43948,-100,4,1,0,80,0,0
49174,-133.333333333333,4,1,0,80,0,0
49755,-100,4,1,0,90,0,1
50142,-100,4,1,0,70,0,1
55755,-100,4,1,0,70,0,1
56142,-100,4,1,0,70,0,1
61948,-100,4,1,1,70,0,1
62094,-100,4,1,1,70,0,0
62142,-100,4,1,0,90,0,1
68142,-100,4,1,0,90,0,1
68529,-100,4,1,0,70,0,1
74529,-100,4,1,0,90,0,0
74723,-100,4,1,0,60,0,0
79174,-100,4,1,2,80,0,0
79561,-100,4,1,0,60,0,0
79755,-100,4,1,2,90,0,0
80142,-200,4,1,0,90,0,0
82271,-100,4,1,0,30,0,0
83819,-100,4,1,0,35,0,0
84594,-100,4,1,0,40,0,0
85174,-100,4,1,2,60,0,0
85561,-100,4,1,2,70,0,0
85948,-100,4,1,2,80,0,0
86336,-100,4,1,2,90,0,0
86529,-100,4,1,0,50,0,0
86723,-100,4,1,2,100,0,0
87110,-100,4,1,0,30,0,0
87884,-100,4,1,0,40,0,0
88658,-100,4,1,0,50,0,0
89432,-100,4,1,0,60,0,0
90206,-100,4,1,0,70,0,0
90787,-100,4,1,2,100,0,0
91561,-100,4,1,0,80,0,0
92529,-100,4,1,2,80,0,0
93110,-100,4,1,0,80,0,1
99110,-100,4,1,0,90,0,1
99497,-100,4,1,0,80,0,1
105448,-100,4,1,0,80,0,0
105497,-100,4,1,0,80,0,1
114787,-100,4,1,2,80,0,1
115561,-100,4,1,2,90,0,1
116336,-100,4,1,0,90,0,1
117884,-100,4,1,0,80,0,0

[Colours]
Combo1 : 244,162,222
Combo2 : 232,250,171
Combo3 : 163,224,200
SliderBorder : 255,255,255

[HitObjects]
96,264,207,1,4
96,264,400,1,0
192,264,787,2,0,B|281:270|384:312,1,180
392,212,1755,2,0,B|320:176,3,60,8|0|0|0
336,136,2529,2,0,B|276:172,3,60,8|0|0|0
248,136,3303,6,0,B|128:136,1,120,0|8
32,140,4077,1,0
52,96,4271,1,0
76,56,4465,1,8
128,136,4852,2,0,B|252:136|252:136|332:212|332:212|456:212,1,360
404,292,6400,6,0,B|268:292,1,120,4|8
284,292,7174,1,0
216,228,7561,1,8
120,228,7948,2,0,B|48:256|8:188,1,120,0|8
88,136,8723,2,0,B|17:104|37:28,1,120,0|8
80,48,9303,1,0
128,56,9497,5,0
208,112,9884,1,0
304,112,10271,1,0
384,56,10658,1,0
256,192,11045,12,4,12206
404,296,12594,5,0
308,296,12981,1,8
212,292,13368,2,0,B|148:292|148:292|96:244,1,120,0|8
192,212,14142,2,0,B|150:174|150:174|86:174,1,120,0|8
132,88,14916,2,0,B|48:88,2,60,0|0|8
196,16,15690,6,0,B|244:36|260:100|248:156|192:180|192:180|32:180,1,360,0|8
72,268,17239,1,0
168,268,17626,1,8
264,268,18013,1,0
312,268,18206,1,0
360,268,18400,1,8
360,268,18787,6,0,B|360:144,1,120,0|8
264,148,19561,2,0,B|264:84|264:84|312:40,2,120,0|8|0
168,148,20723,1,8
72,148,21110,1,0
72,148,21303,1,0
72,148,21497,1,8
108,240,21884,5,0
108,240,22077,1,0
108,240,22271,1,0
204,240,22658,2,0,B|272:240,3,60
312,240,23432,2,0,B|368:224|372:152,1,90,12|0
296,168,24013,2,0,B|280:112|208:108,1,90,12|0
160,112,24594,1,12
112,112,24787,1,0
64,112,24981,1,0
92,76,31174,6,0,B|216:76,1,120,0|8
212,76,31755,1,0
308,76,32142,1,0
340,112,32336,1,8
340,208,32723,1,0
364,300,33110,2,0,B|428:300|428:300|476:252,2,120,8|0|8
276,344,34271,5,0
180,344,34658,1,8
180,344,34852,2,0,B|108:324|84:256,1,120,0|0
44,272,35432,2,0,B|44:208,1,60,8|0
88,232,35819,2,0,B|88:172,1,60,8|0
108,64,36400,2,0,B|244:64,1,120
324,68,37174,5,0
324,68,37368,1,4
420,68,37755,6,0,B|420:128|420:128|468:180,1,120,8|0
368,196,38529,2,0,B|408:240|408:240|408:300,2,120,8|0|8
272,196,39690,2,0,B|272:316,1,120,0|8
272,316,40271,1,0
272,316,40465,2,0,B|152:316,1,120
152,172,41432,6,0,B|288:172,1,120
272,76,42206,2,0,B|136:76,1,120
64,36,42981,2,0,B|64:96,1,60
48,140,43368,2,0,B|48:220,1,60
108,276,43948,6,0,B|156:340,2,60,8|0|0
204,276,44723,2,0,B|288:276,2,60,8|0|0
228,236,45303,1,0
252,192,45497,2,0,B|312:192|312:192|356:148,2,120,8|0|8
204,192,46465,1,0
156,192,46658,6,0,B|32:192,2,120,0|8|0
100,112,47819,1,8
124,68,48013,1,0
124,20,48206,2,0,B|184:20,3,60
252,40,49174,2,0,B|392:40,1,134.999995976687,0|4
420,128,50142,6,0,B|276:128,2,120,2|0|2
420,224,51303,2,0,B|440:252|420:284,2,60,0|0|2
340,288,52077,2,0,B|320:356|248:356,1,120,0|2
244,260,52852,5,0
244,260,53239,1,2
148,260,53626,2,0,B|24:260,2,120,0|2|0
140,164,54787,2,0,B|92:112,1,60,2|0
188,88,55368,2,0,B|240:40,1,60,0|2
280,48,55755,1,0
328,48,55948,5,4
424,48,56336,1,2
424,48,56723,2,0,B|424:184,1,120,0|2
476,248,57497,2,0,B|452:280|388:288|360:232,3,120,0|2|2|2
256,192,59045,12,0,60206
88,88,60787,5,8
184,88,61174,1,8
280,88,61561,2,0,B|352:88,3,60,0|8|0|4
364,180,62529,6,0,B|228:180,2,120,2|0|2
348,224,63497,1,0
328,268,63690,2,0,B|284:308|284:308|224:308,1,120,0|2
136,264,64465,2,0,B|105:264|105:264|83:284,2,60,0|0|2
216,212,65239,1,0
136,168,65626,6,0,B|136:40,1,120,2|0
220,92,66400,2,0,B|220:220,2,120,2|0|2
304,48,67561,1,0
304,48,67755,1,0
304,48,67948,1,2
400,48,68336,6,0,B|456:84|444:156,1,120,4|2
348,156,69110,2,0,B|288:156|288:156|212:124,2,120,0|2|0
376,196,70077,1,0
400,236,70271,2,0,B|400:368,2,120,2|2|2
256,192,71432,12,0,74142
432,304,74529,6,0,B|312:304,2,120,4|8|0
432,208,75690,2,0,B|464:156|432:88,1,120,8|0
356,148,76465,2,0,B|232:148,1,120,8|0
236,100,77045,1,0
236,52,77239,1,8
152,100,77626,5,0
152,196,78013,1,8
240,236,78400,1,0
240,236,78787,1,8
336,236,79174,1,0
336,236,79368,1,0
336,236,79561,1,0
336,236,79755,1,4
432,236,80142,6,0,B|432:140,1,90,4|4
256,192,82271,5,4
256,192,83819,5,4
256,192,84594,1,4
112,192,85174,2,0,B|-12:192,2,120
88,284,86336,2,0,B|172:284,1,60
196,284,86723,2,0,B|264:284,1,60
400,292,87497,6,0,B|413:231|413:231|400:168,1,120
328,115,88271,2,0,B|314:176|314:176|326:233,1,120
232,212,89045,2,0,B|244:268|244:268|230:329,1,120
156,268,89819,2,0,B|143:211|143:211|157:150,1,120
248,120,90594,6,0,B|224:48|140:52,2,120
248,120,91561,1,0
344,120,91948,1,0
344,120,92142,1,0
440,120,92529,2,0,B|516:120,3,60,0|0|0|4
500,216,93497,5,2
448,296,93884,1,0
396,216,94271,1,2
344,296,94658,1,0
292,216,95045,2,0,B|292:88,2,120,2|0|2
264,256,96013,1,0
240,296,96206,5,0
144,296,96594,2,0,B|16:296,2,120,2|0|2
144,200,97755,2,0,B|184:156|184:156|256:156,1,120,0|2
320,212,98529,1,0
356,180,98723,2,0,B|404:132,1,60,0|2
340,60,99303,5,4
340,60,99690,1,2
244,60,100077,1,0
244,60,100271,1,0
244,60,100465,1,2
148,60,100852,2,0,B|80:60,2,60,0|0|2
152,108,101432,1,0
160,156,101626,2,0,B|228:156,2,60,0|0|2
64,156,102400,6,0,B|56:216|112:248|144:248|144:248|368:248,1,360,0|2
464,248,103948,1,2
464,248,104336,1,2
464,152,104723,2,0,B|464:80,3,60,2|0|2|0
464,92,105497,1,4
368,92,105884,6,0,B|368:156|368:156|316:204,1,120,8|0
232,196,106658,2,0,B|104:196,2,120,8|0|8
260,236,107626,1,0
284,276,107819,2,0,B|364:276,2,60,0|0|8
188,276,108594,6,0,B|124:276|124:276|80:224,1,120,0|8
152,164,109368,1,0
88,92,109755,1,8
152,20,110142,2,0,B|212:20,3,60,8|0|0|0
244,56,110916,2,0,B|304:56,3,60,8|0|0|0
352,56,111690,5,4
432,4,112077,6,0,B|476:60|428:116,1,120,8|0
432,208,112852,2,0,B|386:261|430:317,1,120,8|0
336,320,113626,2,0,B|280:363|216:316,2,120,8|0|8
308,280,114594,1,0
280,240,114787,6,0,B|296:160,3,60
248,160,115561,2,0,B|232:80,3,60
188,104,116336,2,0,B|72:104,1,90,8|0
52,160,116916,2,0,B|52:276,1,90,8|0
124,252,117497,1,8
172,252,117690,1,0
220,252,117884,1,4
