osu file format v12

[General]
AudioFilename: Sweet Rain.mp3
AudioLeadIn: 2004
PreviewTime: 49755
Countdown: 0
SampleSet: Soft
StackLeniency: 0.7
Mode: 3
LetterboxInBreaks: 0
SpecialStyle: 0
WidescreenStoryboard: 0

[Editor]
DistanceSpacing: 1.1
BeatDivisor: 4
GridSize: 8

[Metadata]
Title:Sweet Rain
TitleUnicode:Sweet Rain
Artist:Y&Co. feat. Karin
ArtistUnicode:Y&Co. feat. Karin
Creator:Lieselotte
Version:LV.5
Source:jubeat
Tags:knit eurobeat plus jukebeat reflec beat limelight dancedancerevolution
BeatmapID:256644
BeatmapSetID:95592

[Difficulty]
HPDrainRate:6
CircleSize:7
OverallDifficulty:6
ApproachRate:5
SliderMultiplier:1.9
SliderTickRate:1

[Events]
//Background and Video events
0,0,"BG.jpg",0,0
//Break Periods
//Storyboard Layer 0 (Background)
//Storyboard Layer 1 (Fail)
//Storyboard Layer 2 (Pass)
//Storyboard Layer 3 (Foreground)
//Storyboard Sound Samples
Sample,13368,0,"kick2.wav",55
Sample,16465,0,"kick2.wav",55
Sample,19561,0,"kick2.wav",55
Sample,22658,0,"kick2.wav",55
Sample,47336,0,"kick2.wav",55
Sample,50916,0,"kick2.wav",55
Sample,51303,0,"kick2.wav",55
Sample,51690,0,"kick2.wav",55
Sample,52077,0,"kick2.wav",55
Sample,52755,0,"kick2.wav",55
Sample,54013,0,"kick2.wav",55
Sample,54400,0,"kick2.wav",55
Sample,54787,0,"kick2.wav",55
Sample,55174,0,"kick2.wav",55
Sample,55755,0,"kick2.wav",55
Sample,57110,0,"kick2.wav",55
Sample,57497,0,"kick2.wav",55
Sample,59432,0,"kick2.wav",55
Sample,59819,0,"kick2.wav",55
Sample,60206,0,"kick2.wav",55
Sample,60594,0,"kick2.wav",55
Sample,60884,0,"kick2.wav",55
Sample,60981,0,"kick2.wav",55
Sample,61755,0,"kick2.wav",55
Sample,61948,0,"kick2.wav",55
Sample,63303,0,"kick2.wav",55
Sample,63690,0,"kick2.wav",55
Sample,64077,0,"kick2.wav",55
Sample,64465,0,"kick2.wav",55
Sample,65142,0,"kick2.wav",55
Sample,66400,0,"kick2.wav",55
Sample,66787,0,"kick2.wav",55
Sample,67174,0,"kick2.wav",55
Sample,67561,0,"kick2.wav",55
Sample,69884,0,"kick2.wav",55
Sample,71819,0,"kick2.wav",55
Sample,72594,0,"kick2.wav",55
Sample,72981,0,"kick2.wav",55
Sample,73368,0,"kick2.wav",55
Sample,73755,0,"kick2.wav",55
Sample,74916,0,"kick2.wav",55
Sample,75303,0,"kick2.wav",55
Sample,75690,0,"kick2.wav",55
Sample,76077,0,"kick2.wav",55
Sample,77626,0,"kick2.wav",55
Sample,78013,0,"kick2.wav",55
Sample,78303,0,"kick2.wav",55
Sample,94271,0,"kick2.wav",55
Sample,94658,0,"kick2.wav",55
Sample,95045,0,"kick2.wav",55
Sample,95432,0,"kick2.wav",55
Sample,96110,0,"kick2.wav",55
Sample,97368,0,"kick2.wav",55
Sample,97755,0,"kick2.wav",55
Sample,98142,0,"kick2.wav",55
Sample,98529,0,"kick2.wav",55
Sample,100852,0,"kick2.wav",55
Sample,102787,0,"kick2.wav",55
Sample,103561,0,"kick2.wav",55
Sample,103948,0,"kick2.wav",55
Sample,104336,0,"kick2.wav",55
Sample,106271,0,"kick2.wav",55
Sample,109368,0,"kick2.wav",55
Sample,112465,0,"kick2.wav",55
Sample,114690,0,"kick2.wav",55
Sample,115561,0,"kick2.wav",55
//Background Colour Transformations
3,100,0,0,0

[TimingPoints]
207,387.096774193548,4,2,0,30,1,0

[Colours]
Combo1 : 255,166,255
Combo2 : 155,155,255

[HitObjects]
109,192,207,1,0,0:0:0:55:kick2.wav
402,192,400,1,0,0:0:0:0:
182,192,787,1,0,0:0:0:0:
329,192,1174,1,0,0:0:0:0:
256,192,1368,1,0,0:0:0:0:
256,192,1755,128,0,3303:0:0:0:0:
475,192,3303,1,0,0:0:0:0:
329,192,3497,1,0,0:0:0:0:
36,192,3690,1,0,0:0:0:0:
182,192,3884,1,0,0:0:0:0:
402,192,4077,1,0,0:0:0:0:
329,192,4271,1,0,0:0:0:0:
109,192,4465,1,0,0:0:0:0:
182,192,4658,1,0,0:0:0:0:
256,192,4852,128,0,5626:0:0:0:0:
402,192,5819,1,0,0:0:0:55:kick2.wav
182,192,6013,1,0,0:0:0:0:
329,192,6206,1,0,0:0:0:0:
256,192,6400,1,0,0:0:0:55:kick2.wav
256,192,6787,1,0,0:0:0:55:kick2.wav
256,192,7174,1,0,0:0:0:55:kick2.wav
256,192,7561,1,0,0:0:0:55:kick2.wav
109,192,7948,1,0,0:0:0:55:kick2.wav
109,192,8336,1,0,0:0:0:55:kick2.wav
109,192,8723,1,0,0:0:0:55:kick2.wav
109,192,9110,1,0,0:0:0:55:kick2.wav
109,192,9400,1,0,0:0:0:55:kick2.wav
402,192,9497,1,0,0:0:0:55:kick2.wav
256,192,9884,1,0,0:0:0:55:kick2.wav
182,192,10271,1,0,0:0:0:55:kick2.wav
329,192,10465,1,0,0:0:0:55:kick2.wav
109,192,10658,1,0,0:0:0:55:kick2.wav
402,192,10852,1,0,0:0:0:55:kick2.wav
256,192,11045,128,0,12594:0:0:0:0:
109,192,12594,1,0,0:0:0:55:kick2.wav
256,192,12981,1,0,0:0:0:55:kick2.wav
329,192,13271,1,0,0:0:0:0:
256,192,13561,1,0,0:0:0:0:
402,192,13755,1,0,0:0:0:55:kick2.wav
182,192,13948,1,0,0:0:0:0:
475,192,14142,1,0,0:0:0:55:kick2.wav
329,192,14336,1,0,0:0:0:0:
36,192,14529,1,0,0:0:0:55:kick2.wav
182,192,14723,1,0,0:0:0:0:
402,192,14916,1,0,0:0:0:55:kick2.wav
329,192,15110,1,0,0:0:0:0:
109,192,15303,1,0,0:0:0:55:kick2.wav
182,192,15497,1,0,0:0:0:0:
329,192,15690,1,0,0:0:0:55:kick2.wav
256,192,16077,1,0,0:0:0:55:kick2.wav
402,192,16368,1,0,0:0:0:0:
109,192,16658,1,0,0:0:0:0:
182,192,16852,1,0,0:0:0:55:kick2.wav
329,192,17045,1,0,0:0:0:0:
36,192,17239,1,0,0:0:0:55:kick2.wav
182,192,17432,1,0,0:0:0:0:
329,192,17626,1,0,0:0:0:55:kick2.wav
475,192,17819,1,0,0:0:0:0:
402,192,18013,1,0,0:0:0:55:kick2.wav
256,192,18206,1,0,0:0:0:0:
109,192,18400,1,0,0:0:0:55:kick2.wav
256,192,18594,1,0,0:0:0:0:
36,192,18787,1,0,0:0:0:55:kick2.wav
109,192,19174,1,0,0:0:0:55:kick2.wav
182,192,19465,1,0,0:0:0:0:
256,192,19755,1,0,0:0:0:0:
402,192,19948,1,0,0:0:0:55:kick2.wav
109,192,20142,1,0,0:0:0:0:
475,192,20336,1,0,0:0:0:55:kick2.wav
329,192,20529,1,0,0:0:0:0:
36,192,20723,1,0,0:0:0:55:kick2.wav
182,192,20916,1,0,0:0:0:0:
402,192,21110,1,0,0:0:0:55:kick2.wav
329,192,21303,1,0,0:0:0:0:
256,192,21497,1,0,0:0:0:55:kick2.wav
182,192,21690,1,0,0:0:0:0:
402,192,21884,1,0,0:0:0:55:kick2.wav
256,192,22271,1,0,0:0:0:55:kick2.wav
109,192,22561,1,0,0:0:0:0:
329,192,22852,1,0,0:0:0:0:
182,192,23045,1,0,0:0:0:55:kick2.wav
329,192,23239,1,0,0:0:0:0:
109,192,23432,1,0,0:0:0:55:kick2.wav
256,192,23723,1,0,0:0:0:55:kick2.wav
402,192,24013,1,0,0:0:0:55:kick2.wav
256,192,24303,1,0,0:0:0:55:kick2.wav
329,192,24594,1,0,0:0:0:55:kick2.wav
182,192,24787,1,0,0:0:0:0:
256,192,24981,1,0,0:0:0:55:kick2.wav
256,192,25368,1,0,0:0:0:55:kick2.wav
182,192,25755,1,0,0:0:0:55:kick2.wav
182,192,26142,1,0,0:0:0:55:kick2.wav
402,192,26529,1,0,0:0:0:55:kick2.wav
402,192,26916,1,0,0:0:0:55:kick2.wav
329,192,27303,1,0,0:0:0:55:kick2.wav
329,192,27690,1,0,0:0:0:55:kick2.wav
109,192,27981,1,0,0:0:0:55:kick2.wav
256,192,28077,1,0,0:0:0:55:kick2.wav
256,192,28465,1,0,0:0:0:55:kick2.wav
182,192,28852,1,0,0:0:0:55:kick2.wav
182,192,29239,1,0,0:0:0:55:kick2.wav
109,192,29626,1,0,0:0:0:55:kick2.wav
109,192,30013,1,0,0:0:0:55:kick2.wav
36,192,30400,1,0,0:0:0:55:kick2.wav
36,192,30787,1,0,0:0:0:55:kick2.wav
109,192,31174,1,0,0:0:0:55:kick2.wav
109,192,31561,1,0,0:0:0:55:kick2.wav
182,192,31948,1,0,0:0:0:55:kick2.wav
182,192,32336,1,0,0:0:0:55:kick2.wav
256,192,32723,1,0,0:0:0:55:kick2.wav
256,192,33110,1,0,0:0:0:55:kick2.wav
329,192,33497,1,0,0:0:0:55:kick2.wav
329,192,33884,1,0,0:0:0:55:kick2.wav
182,192,34174,1,0,0:0:0:55:kick2.wav
402,192,34271,1,0,0:0:0:55:kick2.wav
402,192,34658,1,0,0:0:0:55:kick2.wav
329,192,35045,1,0,0:0:0:55:kick2.wav
329,192,35432,1,0,0:0:0:55:kick2.wav
109,192,35819,1,0,0:0:0:55:kick2.wav
402,192,36013,1,0,0:0:0:55:kick2.wav
256,192,36400,1,0,0:0:0:55:kick2.wav
256,192,36787,1,0,0:0:0:55:kick2.wav
475,192,37368,1,0,0:0:0:55:kick2.wav
475,192,37755,1,0,0:0:0:55:kick2.wav
402,192,38142,1,0,0:0:0:55:kick2.wav
402,192,38529,1,0,0:0:0:55:kick2.wav
329,192,38916,1,0,0:0:0:55:kick2.wav
329,192,39303,1,0,0:0:0:55:kick2.wav
256,192,39690,1,0,0:0:0:55:kick2.wav
256,192,40077,1,0,0:0:0:55:kick2.wav
182,192,40465,1,0,0:0:0:55:kick2.wav
182,192,40852,1,0,0:0:0:55:kick2.wav
402,192,41239,1,0,0:0:0:55:kick2.wav
109,192,41432,1,0,0:0:0:55:kick2.wav
256,192,41819,1,0,0:0:0:55:kick2.wav
182,192,42013,1,0,0:0:0:55:kick2.wav
329,192,42206,1,0,0:0:0:55:kick2.wav
182,192,42400,1,0,0:0:0:55:kick2.wav
329,192,42594,1,0,0:0:0:55:kick2.wav
256,192,42981,1,0,0:0:0:55:kick2.wav
256,192,43368,1,0,0:0:0:55:kick2.wav
36,192,43561,1,0,0:0:0:55:kick2.wav
36,192,43948,1,0,0:0:0:55:kick2.wav
109,192,44336,1,0,0:0:0:55:kick2.wav
109,192,44723,1,0,0:0:0:55:kick2.wav
182,192,45110,1,0,0:0:0:55:kick2.wav
182,192,45497,1,0,0:0:0:55:kick2.wav
256,192,45884,1,0,0:0:0:55:kick2.wav
256,192,46271,1,0,0:0:0:55:kick2.wav
329,192,46658,1,0,0:0:0:55:kick2.wav
329,192,47045,1,0,0:0:0:55:kick2.wav
182,192,47432,1,0,0:0:0:55:kick2.wav
329,192,47626,1,0,0:0:0:55:kick2.wav
256,192,48013,1,0,0:0:0:55:kick2.wav
475,192,48206,1,0,0:0:0:55:kick2.wav
329,192,48400,1,0,0:0:0:55:kick2.wav
36,192,48594,1,0,0:0:0:55:kick2.wav
182,192,48787,1,0,0:0:0:55:kick2.wav
256,192,49174,1,0,0:0:0:55:kick2.wav
402,192,49755,1,0,0:0:0:0:
36,192,49755,1,0,0:0:0:55:kick2.wav
109,192,50142,1,0,0:0:0:55:kick2.wav
329,192,50529,1,0,0:0:0:55:kick2.wav
182,192,50723,1,0,0:0:0:0:
256,192,51110,1,0,0:0:0:0:
329,192,51497,1,0,0:0:0:0:
402,192,51884,1,0,0:0:0:0:
182,192,52271,1,0,0:0:0:0:
329,192,52465,1,0,0:0:0:55:kick2.wav
402,192,52852,1,0,0:0:0:55:kick2.wav
329,192,53239,1,0,0:0:0:55:kick2.wav
182,192,53626,1,0,0:0:0:55:kick2.wav
256,192,53819,1,0,0:0:0:0:
402,192,54206,1,0,0:0:0:0:
329,192,54594,1,0,0:0:0:0:
256,192,54981,1,0,0:0:0:0:
182,192,55368,1,0,0:0:0:0:
329,192,55561,1,0,0:0:0:55:kick2.wav
402,192,55948,1,0,0:0:0:55:kick2.wav
329,192,56336,1,0,0:0:0:55:kick2.wav
182,192,56723,1,0,0:0:0:55:kick2.wav
256,192,56916,1,0,0:0:0:0:
329,192,57303,1,0,0:0:0:0:
475,192,57690,1,0,0:0:0:0:
329,192,57884,1,0,0:0:0:55:kick2.wav
36,192,58271,1,0,0:0:0:55:kick2.wav
109,192,58465,1,0,0:0:0:0:
182,192,58658,1,0,0:0:0:55:kick2.wav
256,192,58852,1,0,0:0:0:0:
329,192,59045,1,0,0:0:0:55:kick2.wav
402,192,59626,1,0,0:0:0:0:
256,192,59819,128,0,60787:0:0:0:0:
402,192,60787,1,0,0:0:0:0:
109,192,61174,1,0,0:0:0:55:kick2.wav
256,192,61561,128,0,62142:0:0:0:0:
475,192,62142,1,0,0:0:0:55:kick2.wav
329,192,62529,1,0,0:0:0:55:kick2.wav
109,192,62916,1,0,0:0:0:55:kick2.wav
256,192,63110,1,0,0:0:0:0:
329,192,63497,1,0,0:0:0:0:
256,192,63884,1,0,0:0:0:0:
182,192,64271,1,0,0:0:0:0:
402,192,64658,1,0,0:0:0:0:
256,192,64852,1,0,0:0:0:55:kick2.wav
36,192,65239,1,0,0:0:0:55:kick2.wav
182,192,65432,1,0,0:0:0:0:
329,192,65626,1,0,0:0:0:55:kick2.wav
109,192,66013,1,0,0:0:0:55:kick2.wav
402,192,66206,1,0,0:0:0:0:
329,192,66594,1,0,0:0:0:0:
256,192,66981,1,0,0:0:0:0:
182,192,67368,1,0,0:0:0:0:
402,192,67755,1,0,0:0:0:0:
329,192,67948,1,0,0:0:0:55:kick2.wav
256,192,68142,1,0,0:0:0:0:
109,192,68336,1,0,0:0:0:55:kick2.wav
182,192,68723,1,0,0:0:0:55:kick2.wav
256,192,69110,1,0,0:0:0:55:kick2.wav
402,192,69497,1,0,0:0:0:55:kick2.wav
109,192,69690,1,0,0:0:0:0:
475,192,70077,1,0,0:0:0:0:
329,192,70271,1,0,0:0:0:55:kick2.wav
36,192,70465,1,0,0:0:0:0:
182,192,70658,1,0,0:0:0:55:kick2.wav
256,192,71045,1,0,0:0:0:55:kick2.wav
329,192,71432,1,0,0:0:0:55:kick2.wav
182,192,72013,1,0,0:0:0:0:
256,192,72206,128,0,72981:0:0:0:55:kick2.wav
256,192,73174,1,0,0:0:0:55:kick2.wav
256,192,73561,1,0,0:0:0:55:kick2.wav
256,192,73948,128,0,74529:0:0:0:0:
402,192,74529,1,0,0:0:0:55:kick2.wav
329,192,74819,1,0,0:0:0:0:
256,192,75013,1,0,0:0:0:0:
182,192,75206,1,0,0:0:0:0:
402,192,75497,1,0,0:0:0:0:
329,192,75787,1,0,0:0:0:0:
256,192,75981,1,0,0:0:0:0:
109,192,76174,1,0,0:0:0:0:
256,192,76465,1,0,0:0:0:55:kick2.wav
402,192,76852,1,0,0:0:0:55:kick2.wav
109,192,77045,1,0,0:0:0:0:
329,192,77239,1,0,0:0:0:55:kick2.wav
256,192,77432,1,0,0:0:0:0:
109,192,77723,1,0,0:0:0:0:
182,192,77916,1,0,0:0:0:0:
329,192,78206,1,0,0:0:0:0:
109,192,78400,1,0,0:0:0:55:kick2.wav
256,192,78594,1,0,0:0:0:55:kick2.wav
402,192,78787,1,0,0:0:0:55:kick2.wav
182,192,78981,1,0,0:0:0:55:kick2.wav
36,192,79174,1,0,0:0:0:55:kick2.wav
182,192,79368,1,0,0:0:0:55:kick2.wav
475,192,79561,1,0,0:0:0:55:kick2.wav
329,192,79755,1,0,0:0:0:55:kick2.wav
256,192,80142,1,0,0:0:0:55:kick2.wav
402,192,80723,1,0,0:0:0:0:
109,192,80723,1,0,0:0:0:0:
475,192,85174,1,0,0:0:0:55:kick2.wav
329,192,85561,1,0,0:0:0:55:kick2.wav
182,192,85948,1,0,0:0:0:55:kick2.wav
36,192,86336,1,0,0:0:0:55:kick2.wav
256,192,86723,1,0,0:0:0:55:kick2.wav
402,192,86916,1,0,0:0:0:55:kick2.wav
329,192,88465,1,0,0:0:0:0:
256,192,90013,1,0,0:0:0:0:
182,192,90594,1,0,0:0:0:0:
256,192,91561,1,0,0:0:0:55:kick2.wav
402,192,91755,1,0,0:0:0:55:kick2.wav
109,192,92142,1,0,0:0:0:55:kick2.wav
256,192,92529,128,0,93110:0:0:0:55:kick2.wav
36,192,93110,1,0,0:0:0:55:kick2.wav
109,192,93497,1,0,0:0:0:55:kick2.wav
329,192,93884,1,0,0:0:0:55:kick2.wav
182,192,94077,1,0,0:0:0:0:
475,192,94465,1,0,0:0:0:0:
402,192,94852,1,0,0:0:0:0:
329,192,95239,1,0,0:0:0:0:
402,192,95626,1,0,0:0:0:0:
256,192,95819,1,0,0:0:0:55:kick2.wav
182,192,96206,1,0,0:0:0:55:kick2.wav
256,192,96400,1,0,0:0:0:0:
329,192,96594,1,0,0:0:0:55:kick2.wav
402,192,96981,1,0,0:0:0:55:kick2.wav
109,192,97174,1,0,0:0:0:0:
182,192,97561,1,0,0:0:0:0:
256,192,97948,1,0,0:0:0:0:
329,192,98336,1,0,0:0:0:0:
182,192,98723,1,0,0:0:0:0:
256,192,98916,1,0,0:0:0:55:kick2.wav
329,192,99110,1,0,0:0:0:55:kick2.wav
109,192,99303,1,0,0:0:0:55:kick2.wav
109,192,99690,1,0,0:0:0:55:kick2.wav
182,192,100077,1,0,0:0:0:55:kick2.wav
402,192,100465,1,0,0:0:0:55:kick2.wav
109,192,100658,1,0,0:0:0:0:
475,192,101045,1,0,0:0:0:0:
329,192,101239,1,0,0:0:0:55:kick2.wav
36,192,101432,1,0,0:0:0:0:
182,192,101626,1,0,0:0:0:55:kick2.wav
109,192,102013,1,0,0:0:0:55:kick2.wav
402,192,102400,1,0,0:0:0:55:kick2.wav
182,192,102981,1,0,0:0:0:0:
256,192,103174,128,0,103948:0:0:0:55:kick2.wav
402,192,104142,1,0,0:0:0:55:kick2.wav
109,192,104432,1,0,0:0:0:55:kick2.wav
182,192,104723,1,0,0:0:0:0:
329,192,105013,1,0,0:0:0:0:
256,192,105303,1,0,0:0:0:0:
402,192,105497,1,0,0:0:0:55:kick2.wav
109,192,105497,1,0,0:0:0:0:
329,192,105884,1,0,0:0:0:55:kick2.wav
182,192,106174,1,0,0:0:0:0:
256,192,106465,1,0,0:0:0:0:
109,192,106658,1,0,0:0:0:55:kick2.wav
402,192,106852,1,0,0:0:0:0:
36,192,107045,1,0,0:0:0:55:kick2.wav
182,192,107239,1,0,0:0:0:0:
475,192,107432,1,0,0:0:0:55:kick2.wav
329,192,107626,1,0,0:0:0:0:
109,192,107819,1,0,0:0:0:55:kick2.wav
182,192,108013,1,0,0:0:0:0:
402,192,108206,1,0,0:0:0:55:kick2.wav
329,192,108400,1,0,0:0:0:0:
256,192,108594,1,0,0:0:0:55:kick2.wav
182,192,108981,1,0,0:0:0:55:kick2.wav
329,192,109271,1,0,0:0:0:0:
256,192,109561,1,0,0:0:0:0:
402,192,109755,1,0,0:0:0:55:kick2.wav
109,192,109948,1,0,0:0:0:0:
475,192,110142,1,0,0:0:0:55:kick2.wav
329,192,110336,1,0,0:0:0:0:
36,192,110529,1,0,0:0:0:55:kick2.wav
182,192,110723,1,0,0:0:0:0:
402,192,110916,1,0,0:0:0:55:kick2.wav
329,192,111110,1,0,0:0:0:0:
109,192,111303,1,0,0:0:0:55:kick2.wav
182,192,111497,1,0,0:0:0:55:kick2.wav
256,192,111690,1,0,0:0:0:55:kick2.wav
329,192,112077,1,0,0:0:0:55:kick2.wav
182,192,112368,1,0,0:0:0:0:
256,192,112658,1,0,0:0:0:0:
109,192,112852,1,0,0:0:0:55:kick2.wav
402,192,113045,1,0,0:0:0:0:
182,192,113239,1,0,0:0:0:55:kick2.wav
329,192,113432,1,0,0:0:0:0:
109,192,113626,1,0,0:0:0:55:kick2.wav
182,192,113819,1,0,0:0:0:0:
402,192,114013,1,0,0:0:0:55:kick2.wav
329,192,114206,1,0,0:0:0:0:
109,192,114400,1,0,0:0:0:55:kick2.wav
402,192,114594,1,0,0:0:0:0:
256,192,114787,1,0,0:0:0:55:kick2.wav
182,192,115174,1,0,0:0:0:55:kick2.wav
329,192,115465,1,0,0:0:0:0:
256,192,115755,1,0,0:0:0:55:kick2.wav
402,192,115948,1,0,0:0:0:55:kick2.wav
109,192,116142,1,0,0:0:0:55:kick2.wav
329,192,116336,1,0,0:0:0:55:kick2.wav
182,192,116626,1,0,0:0:0:55:kick2.wav
256,192,116916,1,0,0:0:0:55:kick2.wav
329,192,117206,1,0,0:0:0:55:kick2.wav
109,192,117497,1,0,0:0:0:55:kick2.wav
402,192,117690,1,0,0:0:0:55:kick2.wav
256,192,117884,1,0,0:0:0:0:
