osu file format v12

[General]
AudioFilename: Sweet Rain.mp3
AudioLeadIn: 2004
PreviewTime: 49755
Countdown: 0
SampleSet: Soft
StackLeniency: 0.7
Mode: 3
LetterboxInBreaks: 0
SpecialStyle: 0
WidescreenStoryboard: 0

[Editor]
DistanceSpacing: 1.1
BeatDivisor: 4
GridSize: 8

[Metadata]
Title:Sweet Rain
TitleUnicode:Sweet Rain
Artist:Y&Co. feat. Karin
ArtistUnicode:Y&Co. feat. Karin
Creator:Lieselotte
Version:LV.22
Source:jubeat
Tags:knit eurobeat plus jukebeat reflec beat limelight dancedancerevolution
BeatmapID:256643
BeatmapSetID:95592

[Difficulty]
HPDrainRate:8
CircleSize:7
OverallDifficulty:8
ApproachRate:5
SliderMultiplier:1.9
SliderTickRate:1

[Events]
//Background and Video events
0,0,"BG.jpg",0,0
//Break Periods
//Storyboard Layer 0 (Background)
//Storyboard Layer 1 (Fail)
//Storyboard Layer 2 (Pass)
//Storyboard Layer 3 (Foreground)
//Storyboard Sound Samples
Sample,22658,0,"kick2.wav",55
Sample,54013,0,"kick2.wav",55
Sample,54400,0,"kick2.wav",55
Sample,54787,0,"kick2.wav",55
Sample,55174,0,"kick2.wav",55
Sample,66400,0,"kick2.wav",55
Sample,66787,0,"kick2.wav",55
Sample,67174,0,"kick2.wav",55
Sample,67561,0,"kick2.wav",55
Sample,71819,0,"kick2.wav",55
Sample,72594,0,"kick2.wav",55
Sample,94658,0,"kick2.wav",55
Sample,95045,0,"kick2.wav",55
Sample,97368,0,"kick2.wav",55
Sample,97755,0,"kick2.wav",55
Sample,98142,0,"kick2.wav",55
Sample,98529,0,"kick2.wav",55
Sample,100852,0,"kick2.wav",55
Sample,102787,0,"kick2.wav",55
//Background Colour Transformations
3,100,0,0,0

[TimingPoints]
207,387.096774193548,4,2,0,30,1,0

[Colours]
Combo1 : 255,166,255
Combo2 : 155,155,255

[HitObjects]
475,192,207,1,0,0:0:0:0:
256,192,207,1,0,0:0:0:55:kick2.wav
36,192,207,1,0,0:0:0:0:
256,192,400,128,0,787:0:0:0:0:
109,192,594,1,0,0:0:0:0:
402,192,787,1,0,0:0:0:0:
182,192,981,1,0,0:0:0:0:
329,192,1174,1,0,0:0:0:0:
256,192,1368,1,0,0:0:0:0:
182,192,1561,1,0,0:0:0:0:
475,192,1755,1,0,0:0:0:0:
329,192,1852,1,0,0:0:0:0:
475,192,1948,1,0,0:0:0:0:
329,192,2045,1,0,0:0:0:0:
256,192,2142,1,0,0:0:0:0:
109,192,2239,1,0,0:0:0:0:
256,192,2336,1,0,0:0:0:0:
109,192,2432,1,0,0:0:0:0:
329,192,2529,1,0,0:0:0:0:
182,192,2626,1,0,0:0:0:0:
329,192,2723,1,0,0:0:0:0:
182,192,2819,1,0,0:0:0:0:
402,192,2916,1,0,0:0:0:0:
256,192,3013,1,0,0:0:0:0:
402,192,3110,1,0,0:0:0:0:
256,192,3206,1,0,0:0:0:0:
109,192,3303,1,0,0:0:0:0:
402,192,3497,1,0,0:0:0:0:
182,192,3690,1,0,0:0:0:0:
329,192,3884,1,0,0:0:0:0:
475,192,4077,1,0,0:0:0:0:
109,192,4271,1,0,0:0:0:0:
402,192,4465,1,0,0:0:0:0:
109,192,4658,1,0,0:0:0:0:
36,192,4852,1,0,0:0:0:0:
109,192,4948,1,0,0:0:0:0:
182,192,5045,1,0,0:0:0:0:
256,192,5142,1,0,0:0:0:0:
182,192,5239,1,0,0:0:0:0:
109,192,5336,1,0,0:0:0:0:
182,192,5432,1,0,0:0:0:0:
256,192,5529,1,0,0:0:0:0:
329,192,5626,1,0,0:0:0:0:
402,192,5723,1,0,0:0:0:0:
475,192,5819,1,0,0:0:0:0:
36,192,5819,1,0,0:0:0:55:kick2.wav
402,192,5916,1,0,0:0:0:0:
329,192,6013,1,0,0:0:0:0:
36,192,6013,1,0,0:0:0:0:
109,192,6061,1,0,0:0:0:0:
182,192,6110,1,0,0:0:0:0:
475,192,6158,1,0,0:0:0:0:
402,192,6206,1,0,0:0:0:0:
329,192,6255,1,0,0:0:0:0:
256,192,6303,1,0,0:0:0:0:
182,192,6352,1,0,0:0:0:0:
109,192,6400,1,0,0:0:0:0:
402,192,6400,1,0,0:0:0:55:kick2.wav
36,192,6594,128,0,6787:0:0:0:0:
256,192,6594,128,0,6787:0:0:0:0:
402,192,6787,1,0,0:0:0:55:kick2.wav
109,192,6981,1,0,0:0:0:0:
182,192,7174,1,0,0:0:0:55:kick2.wav
475,192,7174,1,0,0:0:0:0:
329,192,7271,1,0,0:0:0:0:
109,192,7368,1,0,0:0:0:0:
256,192,7465,1,0,0:0:0:0:
36,192,7561,1,0,0:0:0:55:kick2.wav
402,192,7561,1,0,0:0:0:0:
109,192,7658,1,0,0:0:0:0:
329,192,7755,1,0,0:0:0:0:
182,192,7852,1,0,0:0:0:0:
402,192,7948,1,0,0:0:0:0:
36,192,7948,1,0,0:0:0:55:kick2.wav
256,192,8045,1,0,0:0:0:0:
475,192,8142,1,0,0:0:0:0:
329,192,8239,1,0,0:0:0:0:
182,192,8336,1,0,0:0:0:0:
36,192,8336,1,0,0:0:0:55:kick2.wav
402,192,8432,1,0,0:0:0:0:
256,192,8529,1,0,0:0:0:0:
109,192,8626,1,0,0:0:0:0:
256,192,8723,1,0,0:0:0:0:
475,192,8723,1,0,0:0:0:55:kick2.wav
36,192,8819,1,0,0:0:0:0:
182,192,8916,1,0,0:0:0:0:
329,192,9013,1,0,0:0:0:0:
475,192,9110,1,0,0:0:0:55:kick2.wav
256,192,9110,1,0,0:0:0:0:
109,192,9206,1,0,0:0:0:0:
402,192,9303,1,0,0:0:0:0:
36,192,9400,1,0,0:0:0:0:
182,192,9400,1,0,0:0:0:55:kick2.wav
329,192,9497,1,0,0:0:0:0:
475,192,9497,1,0,0:0:0:55:kick2.wav
256,192,9884,1,0,0:0:0:55:kick2.wav
256,192,10271,1,0,0:0:0:55:kick2.wav
256,192,10465,1,0,0:0:0:55:kick2.wav
109,192,10658,1,0,0:0:0:55:kick2.wav
402,192,10852,1,0,0:0:0:55:kick2.wav
36,192,11045,128,0,11239:0:0:0:0:
329,192,11142,128,0,11336:0:0:0:0:
475,192,11239,128,0,11432:0:0:0:0:
182,192,11336,128,0,11529:0:0:0:0:
402,192,11432,128,0,11626:0:0:0:0:
36,192,11529,128,0,11723:0:0:0:0:
182,192,11626,128,0,11819:0:0:0:0:
402,192,11723,128,0,11916:0:0:0:0:
109,192,11819,128,0,11916:0:0:0:0:
329,192,11916,128,0,12013:0:0:0:0:
182,192,12013,128,0,12110:0:0:0:0:
402,192,12110,128,0,12206:0:0:0:0:
256,192,12206,1,0,0:0:0:0:
109,192,12303,1,0,0:0:0:0:
402,192,12400,1,0,0:0:0:0:
182,192,12497,1,0,0:0:0:0:
475,192,12594,1,0,0:0:0:55:kick2.wav
36,192,12594,1,0,0:0:0:0:
256,192,12594,128,0,12981:0:0:0:0:
475,192,12981,1,0,0:0:0:55:kick2.wav
182,192,12981,128,0,13368:0:0:0:0:
329,192,13368,1,0,0:0:0:0:
475,192,13368,1,0,0:0:0:55:kick2.wav
182,192,13561,1,0,0:0:0:0:
256,192,13658,1,0,0:0:0:0:
329,192,13755,1,0,0:0:0:0:
475,192,13755,1,0,0:0:0:55:kick2.wav
109,192,13948,1,0,0:0:0:0:
182,192,14142,1,0,0:0:0:0:
475,192,14142,1,0,0:0:0:55:kick2.wav
402,192,14239,1,0,0:0:0:0:
329,192,14336,1,0,0:0:0:0:
256,192,14432,1,0,0:0:0:0:
109,192,14529,1,0,0:0:0:0:
402,192,14529,1,0,0:0:0:55:kick2.wav
182,192,14626,1,0,0:0:0:0:
256,192,14723,1,0,0:0:0:0:
329,192,14819,1,0,0:0:0:0:
475,192,14916,1,0,0:0:0:55:kick2.wav
36,192,14916,1,0,0:0:0:0:
109,192,15013,1,0,0:0:0:0:
182,192,15110,1,0,0:0:0:0:
256,192,15206,1,0,0:0:0:0:
182,192,15303,1,0,0:0:0:0:
402,192,15303,1,0,0:0:0:55:kick2.wav
109,192,15400,1,0,0:0:0:0:
182,192,15497,1,0,0:0:0:0:
256,192,15594,1,0,0:0:0:0:
36,192,15690,1,0,0:0:0:55:kick2.wav
402,192,15690,1,0,0:0:0:0:
329,192,15787,128,0,16077:0:0:0:0:
256,192,16077,1,0,0:0:0:0:
109,192,16077,1,0,0:0:0:55:kick2.wav
182,192,16271,1,0,0:0:0:0:
256,192,16368,1,0,0:0:0:0:
109,192,16465,1,0,0:0:0:55:kick2.wav
402,192,16561,1,0,0:0:0:0:
329,192,16658,1,0,0:0:0:0:
256,192,16852,1,0,0:0:0:0:
36,192,16852,1,0,0:0:0:55:kick2.wav
182,192,16948,1,0,0:0:0:0:
475,192,17045,1,0,0:0:0:0:
329,192,17142,1,0,0:0:0:0:
256,192,17239,1,0,0:0:0:0:
36,192,17239,1,0,0:0:0:55:kick2.wav
109,192,17336,1,0,0:0:0:0:
182,192,17432,1,0,0:0:0:0:
256,192,17529,1,0,0:0:0:0:
402,192,17626,1,0,0:0:0:0:
36,192,17626,1,0,0:0:0:55:kick2.wav
329,192,17723,1,0,0:0:0:0:
256,192,17819,1,0,0:0:0:0:
182,192,17916,1,0,0:0:0:0:
36,192,18013,1,0,0:0:0:0:
402,192,18013,1,0,0:0:0:55:kick2.wav
109,192,18110,1,0,0:0:0:0:
182,192,18206,1,0,0:0:0:0:
256,192,18303,1,0,0:0:0:0:
475,192,18400,1,0,0:0:0:0:
109,192,18400,1,0,0:0:0:55:kick2.wav
402,192,18497,1,0,0:0:0:0:
329,192,18594,1,0,0:0:0:0:
109,192,18594,1,0,0:0:0:55:kick2.wav
402,192,18690,1,0,0:0:0:0:
256,192,18787,1,0,0:0:0:0:
36,192,18787,1,0,0:0:0:55:kick2.wav
329,192,18884,128,0,19174:0:0:0:0:
109,192,19174,1,0,0:0:0:0:
475,192,19174,1,0,0:0:0:55:kick2.wav
182,192,19368,1,0,0:0:0:0:
256,192,19465,1,0,0:0:0:0:
475,192,19561,1,0,0:0:0:55:kick2.wav
329,192,19658,1,0,0:0:0:0:
256,192,19755,1,0,0:0:0:0:
182,192,19948,1,0,0:0:0:0:
475,192,19948,1,0,0:0:0:55:kick2.wav
109,192,20142,1,0,0:0:0:0:
36,192,20336,1,0,0:0:0:55:kick2.wav
475,192,20336,1,0,0:0:0:0:
402,192,20432,1,0,0:0:0:0:
329,192,20529,1,0,0:0:0:0:
256,192,20626,1,0,0:0:0:0:
36,192,20723,1,0,0:0:0:55:kick2.wav
402,192,20723,1,0,0:0:0:0:
329,192,20819,1,0,0:0:0:0:
256,192,20916,1,0,0:0:0:0:
182,192,21013,1,0,0:0:0:0:
256,192,21110,1,0,0:0:0:0:
36,192,21110,1,0,0:0:0:55:kick2.wav
109,192,21206,1,0,0:0:0:0:
329,192,21206,1,0,0:0:0:0:
182,192,21303,1,0,0:0:0:0:
402,192,21303,1,0,0:0:0:0:
256,192,21400,1,0,0:0:0:0:
475,192,21400,1,0,0:0:0:0:
329,192,21497,1,0,0:0:0:0:
36,192,21497,1,0,0:0:0:55:kick2.wav
182,192,21690,1,0,0:0:0:0:
475,192,21690,1,0,0:0:0:0:
256,192,21884,1,0,0:0:0:0:
36,192,21884,1,0,0:0:0:55:kick2.wav
329,192,21981,128,0,22271:0:0:0:0:
402,192,22271,1,0,0:0:0:0:
109,192,22271,1,0,0:0:0:55:kick2.wav
182,192,22561,1,0,0:0:0:0:
475,192,22561,1,0,0:0:0:0:
256,192,22755,1,0,0:0:0:0:
109,192,22852,1,0,0:0:0:0:
402,192,22852,1,0,0:0:0:0:
36,192,23045,1,0,0:0:0:55:kick2.wav
475,192,23045,1,0,0:0:0:0:
182,192,23239,1,0,0:0:0:0:
329,192,23239,1,0,0:0:0:0:
256,192,23432,1,0,0:0:0:55:kick2.wav
36,192,23432,128,0,23626:0:0:0:0:
475,192,23432,128,0,23626:0:0:0:0:
402,192,23723,128,0,23916:0:0:0:0:
109,192,23723,128,0,23916:0:0:0:55:kick2.wav
36,192,24013,128,0,24206:0:0:0:55:kick2.wav
475,192,24013,128,0,24206:0:0:0:0:
109,192,24303,128,0,24497:0:0:0:55:kick2.wav
402,192,24303,128,0,24497:0:0:0:0:
182,192,24594,1,0,0:0:0:55:kick2.wav
329,192,24594,1,0,0:0:0:0:
256,192,24787,1,0,0:0:0:55:kick2.wav
329,192,24981,1,0,0:0:0:0:
182,192,24981,1,0,0:0:0:0:
36,192,24981,1,0,0:0:0:55:kick2.wav
402,192,25174,128,0,25368:0:0:0:0:
256,192,25368,1,0,0:0:0:0:
36,192,25368,1,0,0:0:0:55:kick2.wav
182,192,25561,128,0,25755:0:0:0:0:
36,192,25755,1,0,0:0:0:55:kick2.wav
329,192,25755,1,0,0:0:0:0:
256,192,25948,128,0,26142:0:0:0:0:
36,192,26142,1,0,0:0:0:55:kick2.wav
402,192,26142,1,0,0:0:0:0:
182,192,26336,128,0,26529:0:0:0:0:
329,192,26529,1,0,0:0:0:0:
475,192,26529,1,0,0:0:0:55:kick2.wav
109,192,26723,128,0,26916:0:0:0:0:
256,192,26916,1,0,0:0:0:0:
475,192,26916,1,0,0:0:0:55:kick2.wav
329,192,27110,128,0,27303:0:0:0:0:
475,192,27303,1,0,0:0:0:55:kick2.wav
182,192,27303,1,0,0:0:0:0:
256,192,27497,128,0,27690:0:0:0:0:
475,192,27690,1,0,0:0:0:55:kick2.wav
109,192,27690,1,0,0:0:0:0:
329,192,27884,1,0,0:0:0:0:
256,192,27981,1,0,0:0:0:55:kick2.wav
182,192,28077,1,0,0:0:0:55:kick2.wav
475,192,28077,1,0,0:0:0:0:
329,192,28271,128,0,28465:0:0:0:0:
402,192,28465,1,0,0:0:0:0:
182,192,28465,1,0,0:0:0:55:kick2.wav
256,192,28658,128,0,28852:0:0:0:0:
182,192,28852,1,0,0:0:0:55:kick2.wav
329,192,28852,1,0,0:0:0:0:
109,192,29045,128,0,29239:0:0:0:0:
182,192,29239,1,0,0:0:0:55:kick2.wav
256,192,29239,1,0,0:0:0:0:
402,192,29432,128,0,29626:0:0:0:0:
329,192,29626,1,0,0:0:0:55:kick2.wav
109,192,29626,1,0,0:0:0:0:
182,192,29819,128,0,30013:0:0:0:0:
256,192,30013,1,0,0:0:0:55:kick2.wav
475,192,30013,1,0,0:0:0:0:
402,192,30206,128,0,30400:0:0:0:0:
329,192,30400,1,0,0:0:0:0:
256,192,30400,1,0,0:0:0:55:kick2.wav
109,192,30400,128,0,30787:0:0:0:0:
182,192,30787,1,0,0:0:0:0:
256,192,30787,1,0,0:0:0:55:kick2.wav
402,192,30787,128,0,31174:0:0:0:0:
256,192,31174,1,0,0:0:0:55:kick2.wav
329,192,31368,128,0,31561:0:0:0:0:
256,192,31561,1,0,0:0:0:55:kick2.wav
36,192,31561,1,0,0:0:0:0:
182,192,31755,128,0,31948:0:0:0:0:
256,192,31948,1,0,0:0:0:55:kick2.wav
402,192,31948,1,0,0:0:0:0:
109,192,32142,128,0,32336:0:0:0:0:
256,192,32336,1,0,0:0:0:55:kick2.wav
475,192,32336,1,0,0:0:0:0:
329,192,32529,128,0,32723:0:0:0:0:
475,192,32723,1,0,0:0:0:0:
109,192,32723,1,0,0:0:0:55:kick2.wav
256,192,32916,128,0,33110:0:0:0:0:
109,192,33110,1,0,0:0:0:55:kick2.wav
402,192,33110,1,0,0:0:0:0:
182,192,33303,128,0,33497:0:0:0:0:
109,192,33497,1,0,0:0:0:55:kick2.wav
329,192,33497,1,0,0:0:0:0:
402,192,33690,128,0,33884:0:0:0:0:
256,192,33884,1,0,0:0:0:0:
109,192,33884,1,0,0:0:0:55:kick2.wav
329,192,34077,1,0,0:0:0:0:
182,192,34174,1,0,0:0:0:55:kick2.wav
36,192,34271,1,0,0:0:0:0:
402,192,34271,1,0,0:0:0:55:kick2.wav
182,192,34465,128,0,34658:0:0:0:0:
109,192,34658,1,0,0:0:0:0:
402,192,34658,1,0,0:0:0:55:kick2.wav
256,192,34852,128,0,35045:0:0:0:0:
182,192,35045,1,0,0:0:0:0:
402,192,35045,1,0,0:0:0:55:kick2.wav
109,192,35239,128,0,35432:0:0:0:0:
402,192,35432,128,0,35626:0:0:0:55:kick2.wav
256,192,35626,128,0,35819:0:0:0:0:
36,192,35819,1,0,0:0:0:55:kick2.wav
475,192,35819,1,0,0:0:0:0:
256,192,36013,1,0,0:0:0:55:kick2.wav
36,192,36013,128,0,36400:0:0:0:0:
475,192,36013,128,0,36400:0:0:0:0:
256,192,36400,1,0,0:0:0:55:kick2.wav
109,192,36400,128,0,36787:0:0:0:0:
402,192,36400,128,0,36787:0:0:0:0:
256,192,36787,128,0,37368:0:0:0:55:kick2.wav
36,192,37368,1,0,0:0:0:55:kick2.wav
182,192,37368,1,0,0:0:0:0:
475,192,37368,1,0,0:0:0:0:
329,192,37561,128,0,37755:0:0:0:0:
256,192,37755,1,0,0:0:0:0:
36,192,37755,1,0,0:0:0:55:kick2.wav
109,192,37948,128,0,38142:0:0:0:0:
256,192,38142,1,0,0:0:0:55:kick2.wav
402,192,38142,1,0,0:0:0:0:
36,192,38336,128,0,38529:0:0:0:0:
329,192,38336,128,0,38916:0:0:0:0:
475,192,38336,128,0,38723:0:0:0:0:
109,192,38529,1,0,0:0:0:0:
256,192,38529,1,0,0:0:0:55:kick2.wav
182,192,38723,128,0,38916:0:0:0:0:
402,192,38916,1,0,0:0:0:55:kick2.wav
36,192,38916,1,0,0:0:0:0:
182,192,39110,128,0,39303:0:0:0:0:
109,192,39303,1,0,0:0:0:0:
329,192,39303,1,0,0:0:0:55:kick2.wav
475,192,39303,128,0,39690:0:0:0:0:
256,192,39497,128,0,39690:0:0:0:0:
402,192,39690,1,0,0:0:0:55:kick2.wav
182,192,39690,1,0,0:0:0:0:
36,192,39884,128,0,40465:0:0:0:0:
182,192,39884,128,0,40271:0:0:0:0:
329,192,39884,128,0,40077:0:0:0:0:
256,192,40077,1,0,0:0:0:0:
475,192,40077,1,0,0:0:0:55:kick2.wav
256,192,40271,128,0,40465:0:0:0:0:
329,192,40465,1,0,0:0:0:55:kick2.wav
109,192,40465,1,0,0:0:0:0:
475,192,40658,128,0,40852:0:0:0:0:
329,192,40852,128,0,41045:0:0:0:0:
256,192,40852,1,0,0:0:0:55:kick2.wav
109,192,40852,1,0,0:0:0:0:
182,192,41045,128,0,41239:0:0:0:0:
256,192,41239,1,0,0:0:0:55:kick2.wav
256,192,41432,1,0,0:0:0:55:kick2.wav
109,192,41432,128,0,41819:0:0:0:0:
402,192,41432,128,0,41819:0:0:0:0:
256,192,41819,1,0,0:0:0:55:kick2.wav
182,192,42013,1,0,0:0:0:55:kick2.wav
36,192,42013,1,0,0:0:0:0:
329,192,42206,1,0,0:0:0:55:kick2.wav
475,192,42206,1,0,0:0:0:0:
182,192,42400,1,0,0:0:0:55:kick2.wav
36,192,42400,1,0,0:0:0:0:
329,192,42594,1,0,0:0:0:55:kick2.wav
475,192,42594,1,0,0:0:0:0:
109,192,42981,1,0,0:0:0:0:
256,192,42981,1,0,0:0:0:55:kick2.wav
402,192,42981,1,0,0:0:0:0:
256,192,43368,1,0,0:0:0:55:kick2.wav
36,192,43368,128,0,43561:0:0:0:0:
475,192,43368,128,0,43561:0:0:0:0:
256,192,43561,1,0,0:0:0:55:kick2.wav
182,192,43755,128,0,43948:0:0:0:0:
36,192,43948,1,0,0:0:0:55:kick2.wav
329,192,43948,1,0,0:0:0:0:
402,192,44142,128,0,44336:0:0:0:0:
256,192,44336,1,0,0:0:0:0:
36,192,44336,1,0,0:0:0:55:kick2.wav
329,192,44529,128,0,44723:0:0:0:0:
475,192,44529,128,0,44916:0:0:0:0:
109,192,44529,128,0,45110:0:0:0:0:
402,192,44723,1,0,0:0:0:55:kick2.wav
182,192,44723,1,0,0:0:0:0:
256,192,44916,128,0,45110:0:0:0:0:
402,192,45110,1,0,0:0:0:55:kick2.wav
36,192,45110,1,0,0:0:0:0:
329,192,45303,128,0,45497:0:0:0:0:
475,192,45497,1,0,0:0:0:55:kick2.wav
36,192,45497,128,0,45690:0:0:0:0:
109,192,45497,1,0,0:0:0:0:
256,192,45690,128,0,45884:0:0:0:0:
182,192,45884,1,0,0:0:0:0:
475,192,45884,1,0,0:0:0:55:kick2.wav
109,192,46077,128,0,46271:0:0:0:0:
182,192,46271,128,0,46465:0:0:0:0:
256,192,46271,1,0,0:0:0:0:
475,192,46271,1,0,0:0:0:55:kick2.wav
329,192,46465,128,0,46658:0:0:0:0:
475,192,46658,128,0,46852:0:0:0:0:
402,192,46658,1,0,0:0:0:0:
109,192,46658,1,0,0:0:0:55:kick2.wav
256,192,46852,128,0,47239:0:0:0:0:
36,192,46852,128,0,47432:0:0:0:0:
109,192,47045,1,0,0:0:0:55:kick2.wav
182,192,47239,1,0,0:0:0:0:
402,192,47239,128,0,47432:0:0:0:0:
256,192,47336,1,0,0:0:0:55:kick2.wav
329,192,47432,1,0,0:0:0:0:
109,192,47432,1,0,0:0:0:55:kick2.wav
182,192,47626,1,0,0:0:0:55:kick2.wav
402,192,47626,1,0,0:0:0:0:
329,192,47916,1,0,0:0:0:0:
182,192,48013,1,0,0:0:0:55:kick2.wav
36,192,48206,1,0,0:0:0:0:
256,192,48206,1,0,0:0:0:55:kick2.wav
475,192,48206,1,0,0:0:0:0:
475,192,48400,1,0,0:0:0:0:
256,192,48400,1,0,0:0:0:55:kick2.wav
36,192,48400,1,0,0:0:0:0:
36,192,48594,1,0,0:0:0:0:
256,192,48594,1,0,0:0:0:55:kick2.wav
475,192,48594,1,0,0:0:0:0:
402,192,48787,1,0,0:0:0:0:
256,192,48787,1,0,0:0:0:55:kick2.wav
109,192,48787,1,0,0:0:0:0:
109,192,49174,1,0,0:0:0:0:
402,192,49174,1,0,0:0:0:0:
256,192,49174,128,0,49755:0:0:0:55:kick2.wav
182,192,49755,1,0,0:0:0:0:
329,192,49755,1,0,0:0:0:0:
36,192,49755,1,0,0:0:0:55:kick2.wav
475,192,49755,128,0,50142:0:0:0:0:
109,192,49948,1,0,0:0:0:0:
402,192,50142,128,0,50529:0:0:0:0:
256,192,50142,1,0,0:0:0:0:
36,192,50142,1,0,0:0:0:55:kick2.wav
182,192,50336,1,0,0:0:0:0:
256,192,50529,1,0,0:0:0:0:
36,192,50529,1,0,0:0:0:55:kick2.wav
329,192,50723,1,0,0:0:0:0:
182,192,50723,128,0,51110:0:0:0:0:
475,192,50916,1,0,0:0:0:0:
36,192,50916,1,0,0:0:0:55:kick2.wav
256,192,51110,128,0,51303:0:0:0:0:
402,192,51110,1,0,0:0:0:0:
329,192,51303,1,0,0:0:0:0:
109,192,51303,1,0,0:0:0:55:kick2.wav
182,192,51497,1,0,0:0:0:0:
329,192,51497,128,0,51690:0:0:0:0:
256,192,51690,1,0,0:0:0:0:
109,192,51690,1,0,0:0:0:55:kick2.wav
36,192,51884,1,0,0:0:0:0:
402,192,51884,128,0,52271:0:0:0:0:
109,192,52077,1,0,0:0:0:55:kick2.wav
256,192,52077,1,0,0:0:0:0:
329,192,52271,1,0,0:0:0:0:
36,192,52465,128,0,52852:0:0:0:0:
256,192,52465,128,0,52852:0:0:0:0:
402,192,52465,1,0,0:0:0:55:kick2.wav
475,192,52658,1,0,0:0:0:0:
402,192,52755,1,0,0:0:0:55:kick2.wav
329,192,52852,1,0,0:0:0:55:kick2.wav
109,192,52852,128,0,53239:0:0:0:0:
402,192,53045,1,0,0:0:0:0:
475,192,53239,1,0,0:0:0:0:
182,192,53239,1,0,0:0:0:55:kick2.wav
256,192,53432,1,0,0:0:0:0:
182,192,53626,1,0,0:0:0:55:kick2.wav
329,192,53626,1,0,0:0:0:0:
256,192,53819,128,0,54206:0:0:0:0:
475,192,53819,128,0,54206:0:0:0:0:
329,192,54206,128,0,54400:0:0:0:0:
182,192,54206,1,0,0:0:0:0:
109,192,54206,1,0,0:0:0:0:
36,192,54206,128,0,54594:0:0:0:0:
109,192,54594,128,0,54981:0:0:0:0:
182,192,54594,1,0,0:0:0:0:
256,192,54594,1,0,0:0:0:0:
402,192,54594,128,0,54787:0:0:0:0:
182,192,54981,128,0,55368:0:0:0:0:
475,192,54981,128,0,55174:0:0:0:0:
256,192,54981,1,0,0:0:0:0:
329,192,54981,1,0,0:0:0:0:
329,192,55368,1,0,0:0:0:0:
256,192,55561,128,0,55948:0:0:0:0:
402,192,55561,128,0,55948:0:0:0:0:
182,192,55561,1,0,0:0:0:55:kick2.wav
36,192,55755,1,0,0:0:0:55:kick2.wav
329,192,55948,1,0,0:0:0:0:
36,192,55948,1,0,0:0:0:55:kick2.wav
109,192,55948,128,0,56336:0:0:0:0:
475,192,56142,1,0,0:0:0:0:
36,192,56336,1,0,0:0:0:55:kick2.wav
329,192,56336,1,0,0:0:0:0:
182,192,56336,128,0,56723:0:0:0:0:
256,192,56529,1,0,0:0:0:0:
402,192,56723,1,0,0:0:0:0:
36,192,56723,1,0,0:0:0:55:kick2.wav
109,192,56916,1,0,0:0:0:0:
329,192,56916,128,0,57303:0:0:0:0:
36,192,57110,1,0,0:0:0:55:kick2.wav
182,192,57110,1,0,0:0:0:0:
256,192,57303,128,0,57690:0:0:0:0:
109,192,57303,1,0,0:0:0:0:
36,192,57497,1,0,0:0:0:0:
475,192,57497,1,0,0:0:0:55:kick2.wav
109,192,57690,1,0,0:0:0:0:
182,192,57884,128,0,58271:0:0:0:0:
475,192,57884,1,0,0:0:0:55:kick2.wav
256,192,57884,1,0,0:0:0:0:
109,192,58077,1,0,0:0:0:0:
329,192,58271,1,0,0:0:0:0:
475,192,58271,1,0,0:0:0:55:kick2.wav
256,192,58465,1,0,0:0:0:0:
182,192,58658,1,0,0:0:0:0:
475,192,58658,1,0,0:0:0:55:kick2.wav
109,192,58852,1,0,0:0:0:0:
256,192,59045,1,0,0:0:0:55:kick2.wav
36,192,59045,128,0,59626:0:0:0:0:
475,192,59045,128,0,59626:0:0:0:0:
256,192,59432,1,0,0:0:0:55:kick2.wav
182,192,59626,1,0,0:0:0:0:
329,192,59626,1,0,0:0:0:0:
402,192,59819,1,0,0:0:0:0:
109,192,59819,1,0,0:0:0:55:kick2.wav
256,192,59819,128,0,61561:0:0:0:0:
109,192,60206,1,0,0:0:0:55:kick2.wav
402,192,60206,1,0,0:0:0:0:
402,192,60594,1,0,0:0:0:0:
109,192,60594,1,0,0:0:0:55:kick2.wav
475,192,60787,128,0,60981:0:0:0:0:
36,192,60787,128,0,60981:0:0:0:0:
329,192,60884,1,0,0:0:0:55:kick2.wav
182,192,60981,1,0,0:0:0:55:kick2.wav
329,192,61174,1,0,0:0:0:55:kick2.wav
36,192,61174,128,0,61368:0:0:0:0:
475,192,61174,128,0,61368:0:0:0:0:
182,192,61368,1,0,0:0:0:55:kick2.wav
329,192,61465,1,0,0:0:0:55:kick2.wav
182,192,61561,1,0,0:0:0:55:kick2.wav
109,192,61561,128,0,62142:0:0:0:0:
402,192,61561,128,0,62142:0:0:0:0:
256,192,61755,1,0,0:0:0:55:kick2.wav
329,192,61948,1,0,0:0:0:55:kick2.wav
182,192,62045,1,0,0:0:0:55:kick2.wav
256,192,62142,1,0,0:0:0:55:kick2.wav
475,192,62142,1,0,0:0:0:0:
36,192,62142,128,0,62529:0:0:0:0:
182,192,62336,1,0,0:0:0:0:
109,192,62529,128,0,62916:0:0:0:0:
329,192,62529,1,0,0:0:0:0:
475,192,62529,1,0,0:0:0:55:kick2.wav
402,192,62723,1,0,0:0:0:0:
475,192,62916,1,0,0:0:0:55:kick2.wav
256,192,62916,1,0,0:0:0:0:
329,192,63110,1,0,0:0:0:0:
182,192,63110,128,0,63497:0:0:0:0:
256,192,63303,1,0,0:0:0:0:
475,192,63303,1,0,0:0:0:55:kick2.wav
109,192,63497,1,0,0:0:0:0:
329,192,63497,128,0,63690:0:0:0:0:
402,192,63690,1,0,0:0:0:55:kick2.wav
36,192,63690,1,0,0:0:0:0:
475,192,63884,1,0,0:0:0:0:
256,192,63884,128,0,64077:0:0:0:0:
402,192,64077,1,0,0:0:0:55:kick2.wav
109,192,64077,1,0,0:0:0:0:
36,192,64271,1,0,0:0:0:0:
182,192,64271,128,0,64658:0:0:0:0:
256,192,64465,1,0,0:0:0:0:
402,192,64465,1,0,0:0:0:55:kick2.wav
329,192,64658,1,0,0:0:0:0:
256,192,64852,128,0,65239:0:0:0:0:
402,192,64852,128,0,65239:0:0:0:0:
182,192,64852,1,0,0:0:0:55:kick2.wav
36,192,65045,1,0,0:0:0:0:
109,192,65142,1,0,0:0:0:55:kick2.wav
182,192,65239,1,0,0:0:0:55:kick2.wav
109,192,65432,1,0,0:0:0:0:
402,192,65432,1,0,0:0:0:0:
36,192,65626,1,0,0:0:0:0:
256,192,65626,1,0,0:0:0:55:kick2.wav
329,192,65626,128,0,66013:0:0:0:0:
182,192,65819,1,0,0:0:0:0:
256,192,66013,1,0,0:0:0:55:kick2.wav
109,192,66013,1,0,0:0:0:0:
36,192,66206,128,0,66594:0:0:0:0:
182,192,66206,128,0,66594:0:0:0:0:
402,192,66206,1,0,0:0:0:0:
256,192,66594,128,0,66787:0:0:0:0:
329,192,66594,1,0,0:0:0:0:
402,192,66594,1,0,0:0:0:0:
475,192,66594,128,0,66981:0:0:0:0:
402,192,66981,128,0,67368:0:0:0:0:
329,192,66981,1,0,0:0:0:0:
256,192,66981,1,0,0:0:0:0:
109,192,66981,128,0,67174:0:0:0:0:
256,192,67368,1,0,0:0:0:0:
182,192,67368,1,0,0:0:0:0:
329,192,67368,128,0,67755:0:0:0:0:
36,192,67368,128,0,67561:0:0:0:0:
256,192,67755,1,0,0:0:0:0:
109,192,67948,1,0,0:0:0:0:
402,192,67948,1,0,0:0:0:55:kick2.wav
109,192,68142,1,0,0:0:0:0:
402,192,68142,1,0,0:0:0:55:kick2.wav
256,192,68336,1,0,0:0:0:0:
402,192,68336,1,0,0:0:0:55:kick2.wav
182,192,68336,128,0,68529:0:0:0:0:
329,192,68529,1,0,0:0:0:0:
402,192,68723,128,0,68916:0:0:0:0:
256,192,68723,1,0,0:0:0:0:
109,192,68723,1,0,0:0:0:55:kick2.wav
182,192,68916,1,0,0:0:0:0:
256,192,69110,1,0,0:0:0:0:
109,192,69110,1,0,0:0:0:55:kick2.wav
329,192,69110,128,0,69497:0:0:0:0:
182,192,69303,1,0,0:0:0:0:
256,192,69497,1,0,0:0:0:0:
36,192,69497,1,0,0:0:0:55:kick2.wav
402,192,69690,128,0,70077:0:0:0:0:
109,192,69690,1,0,0:0:0:0:
182,192,69884,1,0,0:0:0:55:kick2.wav
329,192,69884,1,0,0:0:0:0:
256,192,70077,1,0,0:0:0:0:
329,192,70271,1,0,0:0:0:55:kick2.wav
109,192,70271,1,0,0:0:0:0:
182,192,70465,1,0,0:0:0:0:
109,192,70658,1,0,0:0:0:0:
402,192,70658,1,0,0:0:0:55:kick2.wav
256,192,70658,128,0,71045:0:0:0:0:
182,192,71045,1,0,0:0:0:0:
329,192,71045,1,0,0:0:0:55:kick2.wav
109,192,71045,128,0,72013:0:0:0:0:
402,192,71432,128,0,72013:0:0:0:0:
182,192,71432,1,0,0:0:0:0:
329,192,71432,1,0,0:0:0:55:kick2.wav
256,192,72013,1,0,0:0:0:0:
256,192,72206,1,0,0:0:0:55:kick2.wav
36,192,72206,128,0,73755:0:0:0:0:
475,192,72206,128,0,73755:0:0:0:0:
182,192,72981,1,0,0:0:0:55:kick2.wav
329,192,72981,1,0,0:0:0:0:
182,192,73174,1,0,0:0:0:55:kick2.wav
329,192,73174,1,0,0:0:0:0:
109,192,73368,1,0,0:0:0:55:kick2.wav
402,192,73368,1,0,0:0:0:0:
402,192,73561,1,0,0:0:0:0:
109,192,73561,1,0,0:0:0:55:kick2.wav
182,192,73755,1,0,0:0:0:0:
329,192,73852,1,0,0:0:0:0:
182,192,73948,1,0,0:0:0:0:
329,192,74045,1,0,0:0:0:0:
109,192,74142,1,0,0:0:0:0:
402,192,74239,1,0,0:0:0:0:
182,192,74336,1,0,0:0:0:0:
329,192,74432,1,0,0:0:0:0:
256,192,74529,1,0,0:0:0:55:kick2.wav
475,192,74529,1,0,0:0:0:0:
36,192,74529,1,0,0:0:0:0:
402,192,74626,1,0,0:0:0:0:
109,192,74626,1,0,0:0:0:0:
182,192,74723,1,0,0:0:0:0:
256,192,74819,1,0,0:0:0:0:
402,192,74819,1,0,0:0:0:0:
329,192,74916,1,0,0:0:0:55:kick2.wav
256,192,75013,1,0,0:0:0:0:
402,192,75013,1,0,0:0:0:0:
475,192,75110,1,0,0:0:0:0:
109,192,75110,1,0,0:0:0:0:
182,192,75206,1,0,0:0:0:0:
402,192,75206,1,0,0:0:0:0:
329,192,75303,1,0,0:0:0:55:kick2.wav
256,192,75400,1,0,0:0:0:0:
182,192,75497,1,0,0:0:0:0:
36,192,75497,1,0,0:0:0:0:
256,192,75594,1,0,0:0:0:0:
329,192,75690,1,0,0:0:0:55:kick2.wav
402,192,75787,1,0,0:0:0:0:
475,192,75884,1,0,0:0:0:0:
402,192,75981,1,0,0:0:0:0:
109,192,75981,1,0,0:0:0:0:
256,192,76077,1,0,0:0:0:55:kick2.wav
329,192,76174,1,0,0:0:0:0:
36,192,76174,1,0,0:0:0:0:
402,192,76271,1,0,0:0:0:0:
475,192,76368,1,0,0:0:0:0:
182,192,76368,1,0,0:0:0:0:
256,192,76465,1,0,0:0:0:55:kick2.wav
402,192,76465,1,0,0:0:0:0:
329,192,76561,1,0,0:0:0:0:
256,192,76658,1,0,0:0:0:0:
182,192,76755,1,0,0:0:0:0:
36,192,76852,1,0,0:0:0:0:
402,192,76852,1,0,0:0:0:55:kick2.wav
36,192,76948,1,0,0:0:0:0:
182,192,77045,1,0,0:0:0:0:
402,192,77045,1,0,0:0:0:0:
109,192,77142,1,0,0:0:0:0:
182,192,77239,1,0,0:0:0:0:
329,192,77239,1,0,0:0:0:55:kick2.wav
36,192,77336,1,0,0:0:0:0:
182,192,77432,1,0,0:0:0:0:
256,192,77529,1,0,0:0:0:0:
329,192,77626,1,0,0:0:0:0:
475,192,77626,1,0,0:0:0:0:
36,192,77626,1,0,0:0:0:55:kick2.wav
109,192,77723,1,0,0:0:0:0:
402,192,77723,1,0,0:0:0:0:
329,192,77819,1,0,0:0:0:0:
256,192,77916,1,0,0:0:0:0:
36,192,77916,1,0,0:0:0:0:
182,192,78013,1,0,0:0:0:55:kick2.wav
109,192,78110,1,0,0:0:0:0:
475,192,78110,1,0,0:0:0:0:
182,192,78206,1,0,0:0:0:0:
402,192,78206,1,0,0:0:0:0:
109,192,78303,1,0,0:0:0:55:kick2.wav
329,192,78303,1,0,0:0:0:0:
256,192,78400,1,0,0:0:0:0:
36,192,78400,1,0,0:0:0:55:kick2.wav
109,192,78497,1,0,0:0:0:0:
182,192,78594,1,0,0:0:0:0:
402,192,78594,1,0,0:0:0:55:kick2.wav
329,192,78787,1,0,0:0:0:55:kick2.wav
182,192,78884,1,0,0:0:0:0:
109,192,78981,1,0,0:0:0:0:
402,192,78981,1,0,0:0:0:0:
36,192,79174,1,0,0:0:0:0:
329,192,79174,1,0,0:0:0:0:
402,192,79174,1,0,0:0:0:55:kick2.wav
475,192,79174,1,0,0:0:0:0:
475,192,79368,1,0,0:0:0:0:
402,192,79368,1,0,0:0:0:55:kick2.wav
329,192,79368,1,0,0:0:0:0:
109,192,79368,1,0,0:0:0:0:
182,192,79561,1,0,0:0:0:0:
329,192,79561,1,0,0:0:0:0:
402,192,79561,1,0,0:0:0:55:kick2.wav
475,192,79561,1,0,0:0:0:0:
256,192,79755,1,0,0:0:0:0:
329,192,79755,1,0,0:0:0:0:
402,192,79755,1,0,0:0:0:55:kick2.wav
475,192,79755,1,0,0:0:0:0:
475,192,80142,1,0,0:0:0:0:
402,192,80142,1,0,0:0:0:55:kick2.wav
329,192,80142,1,0,0:0:0:0:
182,192,80142,1,0,0:0:0:0:
109,192,80142,1,0,0:0:0:0:
36,192,80142,1,0,0:0:0:0:
109,192,80723,1,0,0:0:0:0:
182,192,81110,1,0,0:0:0:0:
329,192,81497,1,0,0:0:0:0:
256,192,81690,1,0,0:0:0:0:
475,192,82077,1,0,0:0:0:0:
402,192,82465,1,0,0:0:0:0:
329,192,82852,1,0,0:0:0:0:
182,192,83239,1,0,0:0:0:0:
256,192,83432,1,0,0:0:0:0:
109,192,83819,1,0,0:0:0:0:
182,192,84206,1,0,0:0:0:0:
329,192,84594,1,0,0:0:0:0:
256,192,84787,1,0,0:0:0:0:
256,192,85174,1,0,0:0:0:0:
475,192,85174,1,0,0:0:0:55:kick2.wav
402,192,85561,1,0,0:0:0:55:kick2.wav
182,192,85561,1,0,0:0:0:0:
329,192,85948,1,0,0:0:0:55:kick2.wav
109,192,85948,1,0,0:0:0:0:
36,192,86336,1,0,0:0:0:0:
256,192,86336,1,0,0:0:0:55:kick2.wav
109,192,86723,1,0,0:0:0:0:
402,192,86723,1,0,0:0:0:55:kick2.wav
475,192,86916,1,0,0:0:0:55:kick2.wav
36,192,86916,1,0,0:0:0:0:
256,192,86916,128,0,88465:0:0:0:0:
109,192,88465,1,0,0:0:0:0:
402,192,88465,1,0,0:0:0:0:
329,192,88465,128,0,90013:0:0:0:0:
256,192,90013,1,0,0:0:0:0:
475,192,90013,1,0,0:0:0:0:
109,192,90013,128,0,91561:0:0:0:0:
402,192,90594,128,0,91561:0:0:0:0:
256,192,91561,1,0,0:0:0:55:kick2.wav
475,192,91561,1,0,0:0:0:0:
36,192,91561,1,0,0:0:0:0:
109,192,91755,1,0,0:0:0:0:
402,192,91755,1,0,0:0:0:55:kick2.wav
109,192,92142,1,0,0:0:0:0:
402,192,92142,1,0,0:0:0:55:kick2.wav
36,192,92529,128,0,93110:0:0:0:0:
475,192,92529,128,0,93110:0:0:0:55:kick2.wav
402,192,92723,1,0,0:0:0:0:
329,192,92771,1,0,0:0:0:0:
256,192,92819,1,0,0:0:0:0:
109,192,92868,1,0,0:0:0:0:
182,192,92916,1,0,0:0:0:0:
256,192,92965,1,0,0:0:0:0:
402,192,93013,1,0,0:0:0:0:
329,192,93061,1,0,0:0:0:0:
256,192,93110,1,0,0:0:0:55:kick2.wav
182,192,93110,128,0,93497:0:0:0:0:
329,192,93303,1,0,0:0:0:0:
256,192,93497,1,0,0:0:0:55:kick2.wav
402,192,93497,1,0,0:0:0:0:
109,192,93497,128,0,93884:0:0:0:0:
329,192,93690,1,0,0:0:0:0:
256,192,93884,1,0,0:0:0:55:kick2.wav
475,192,93884,1,0,0:0:0:0:
182,192,94077,1,0,0:0:0:0:
402,192,94077,128,0,94465:0:0:0:0:
256,192,94271,1,0,0:0:0:55:kick2.wav
109,192,94271,1,0,0:0:0:0:
475,192,94465,128,0,94658:0:0:0:0:
182,192,94465,1,0,0:0:0:0:
329,192,94465,1,0,0:0:0:0:
256,192,94852,1,0,0:0:0:0:
109,192,94852,1,0,0:0:0:0:
402,192,94852,128,0,95045:0:0:0:0:
329,192,95239,128,0,95626:0:0:0:0:
109,192,95239,1,0,0:0:0:0:
36,192,95432,1,0,0:0:0:55:kick2.wav
182,192,95432,1,0,0:0:0:0:
109,192,95626,1,0,0:0:0:0:
36,192,95819,128,0,96206:0:0:0:0:
182,192,95819,128,0,96206:0:0:0:0:
329,192,95819,1,0,0:0:0:55:kick2.wav
402,192,96013,1,0,0:0:0:0:
329,192,96110,1,0,0:0:0:55:kick2.wav
256,192,96206,1,0,0:0:0:55:kick2.wav
182,192,96400,1,0,0:0:0:0:
256,192,96594,1,0,0:0:0:55:kick2.wav
402,192,96594,1,0,0:0:0:0:
109,192,96594,128,0,96981:0:0:0:0:
256,192,96981,1,0,0:0:0:55:kick2.wav
475,192,96981,1,0,0:0:0:0:
256,192,97174,128,0,97561:0:0:0:0:
402,192,97174,128,0,97561:0:0:0:0:
329,192,97561,128,0,97755:0:0:0:0:
182,192,97561,1,0,0:0:0:0:
109,192,97561,1,0,0:0:0:0:
36,192,97561,128,0,97948:0:0:0:0:
182,192,97948,1,0,0:0:0:0:
256,192,97948,1,0,0:0:0:0:
109,192,97948,128,0,98336:0:0:0:0:
402,192,97948,128,0,98142:0:0:0:0:
182,192,98336,128,0,98723:0:0:0:0:
475,192,98336,128,0,98529:0:0:0:0:
256,192,98336,1,0,0:0:0:0:
329,192,98336,1,0,0:0:0:0:
475,192,98723,1,0,0:0:0:0:
256,192,98916,1,0,0:0:0:0:
402,192,98916,1,0,0:0:0:55:kick2.wav
256,192,99110,1,0,0:0:0:0:
402,192,99110,1,0,0:0:0:55:kick2.wav
402,192,99303,1,0,0:0:0:55:kick2.wav
182,192,99303,1,0,0:0:0:0:
109,192,99303,128,0,99497:0:0:0:0:
329,192,99497,1,0,0:0:0:0:
109,192,99690,128,0,100077:0:0:0:0:
256,192,99690,1,0,0:0:0:0:
402,192,99690,1,0,0:0:0:55:kick2.wav
475,192,99884,1,0,0:0:0:0:
402,192,100077,1,0,0:0:0:55:kick2.wav
256,192,100077,1,0,0:0:0:0:
182,192,100077,128,0,100465:0:0:0:0:
402,192,100271,1,0,0:0:0:0:
329,192,100465,1,0,0:0:0:0:
475,192,100465,1,0,0:0:0:55:kick2.wav
402,192,100658,1,0,0:0:0:0:
256,192,100658,128,0,101045:0:0:0:0:
109,192,100658,128,0,101045:0:0:0:0:
402,192,101045,1,0,0:0:0:0:
329,192,101239,1,0,0:0:0:0:
182,192,101239,1,0,0:0:0:55:kick2.wav
36,192,101432,1,0,0:0:0:0:
475,192,101432,1,0,0:0:0:0:
402,192,101626,1,0,0:0:0:0:
109,192,101626,1,0,0:0:0:55:kick2.wav
256,192,101626,128,0,102013:0:0:0:0:
182,192,102013,128,0,102400:0:0:0:55:kick2.wav
329,192,102013,128,0,102400:0:0:0:0:
109,192,102400,1,0,0:0:0:55:kick2.wav
402,192,102400,1,0,0:0:0:0:
36,192,102400,128,0,102981:0:0:0:0:
475,192,102400,128,0,102981:0:0:0:0:
182,192,102981,1,0,0:0:0:0:
329,192,102981,1,0,0:0:0:0:
256,192,103174,1,0,0:0:0:55:kick2.wav
109,192,103174,128,0,103948:0:0:0:0:
402,192,103174,128,0,103948:0:0:0:0:
256,192,103561,1,0,0:0:0:55:kick2.wav
182,192,103948,1,0,0:0:0:0:
329,192,104045,1,0,0:0:0:0:
475,192,104142,1,0,0:0:0:0:
109,192,104142,1,0,0:0:0:0:
256,192,104239,1,0,0:0:0:0:
36,192,104336,1,0,0:0:0:0:
475,192,104432,1,0,0:0:0:0:
182,192,104432,1,0,0:0:0:0:
329,192,104529,1,0,0:0:0:0:
182,192,104626,1,0,0:0:0:0:
256,192,104723,1,0,0:0:0:0:
475,192,104723,1,0,0:0:0:0:
475,192,104819,1,0,0:0:0:0:
109,192,104819,1,0,0:0:0:0:
256,192,104916,1,0,0:0:0:0:
182,192,105013,1,0,0:0:0:0:
402,192,105013,1,0,0:0:0:0:
402,192,105110,1,0,0:0:0:0:
36,192,105110,1,0,0:0:0:0:
182,192,105206,1,0,0:0:0:0:
475,192,105303,1,0,0:0:0:0:
402,192,105352,1,0,0:0:0:0:
329,192,105400,1,0,0:0:0:0:
256,192,105448,1,0,0:0:0:0:
182,192,105497,1,0,0:0:0:55:kick2.wav
402,192,105594,128,0,105884:0:0:0:0:
329,192,105884,128,0,106174:0:0:0:0:
256,192,105884,1,0,0:0:0:0:
36,192,105884,1,0,0:0:0:55:kick2.wav
109,192,106077,1,0,0:0:0:0:
182,192,106174,1,0,0:0:0:0:
256,192,106271,1,0,0:0:0:0:
36,192,106271,1,0,0:0:0:55:kick2.wav
402,192,106368,1,0,0:0:0:0:
256,192,106465,1,0,0:0:0:0:
329,192,106658,1,0,0:0:0:0:
182,192,106658,1,0,0:0:0:0:
36,192,106658,1,0,0:0:0:55:kick2.wav
402,192,106852,1,0,0:0:0:0:
256,192,107045,1,0,0:0:0:0:
36,192,107045,1,0,0:0:0:55:kick2.wav
182,192,107142,1,0,0:0:0:0:
402,192,107239,1,0,0:0:0:0:
256,192,107336,1,0,0:0:0:0:
402,192,107432,1,0,0:0:0:0:
182,192,107432,1,0,0:0:0:0:
36,192,107432,1,0,0:0:0:55:kick2.wav
256,192,107529,1,0,0:0:0:0:
329,192,107626,1,0,0:0:0:0:
256,192,107723,1,0,0:0:0:0:
182,192,107819,1,0,0:0:0:0:
36,192,107819,1,0,0:0:0:55:kick2.wav
402,192,107819,1,0,0:0:0:0:
329,192,107916,1,0,0:0:0:0:
475,192,108013,1,0,0:0:0:0:
256,192,108110,1,0,0:0:0:0:
329,192,108206,1,0,0:0:0:0:
182,192,108206,1,0,0:0:0:0:
36,192,108206,1,0,0:0:0:55:kick2.wav
256,192,108303,1,0,0:0:0:0:
402,192,108400,1,0,0:0:0:0:
329,192,108497,1,0,0:0:0:0:
256,192,108594,1,0,0:0:0:0:
475,192,108594,1,0,0:0:0:55:kick2.wav
36,192,108594,1,0,0:0:0:0:
109,192,108690,128,0,108981:0:0:0:0:
182,192,108981,128,0,109271:0:0:0:0:
329,192,108981,1,0,0:0:0:0:
475,192,108981,1,0,0:0:0:55:kick2.wav
256,192,109271,1,0,0:0:0:0:
109,192,109368,1,0,0:0:0:0:
475,192,109368,1,0,0:0:0:55:kick2.wav
256,192,109465,1,0,0:0:0:0:
402,192,109561,1,0,0:0:0:0:
182,192,109755,1,0,0:0:0:0:
36,192,109755,1,0,0:0:0:0:
475,192,109755,1,0,0:0:0:55:kick2.wav
256,192,109852,1,0,0:0:0:0:
402,192,109948,1,0,0:0:0:0:
329,192,110045,1,0,0:0:0:0:
256,192,110142,1,0,0:0:0:0:
36,192,110142,1,0,0:0:0:0:
475,192,110142,1,0,0:0:0:55:kick2.wav
109,192,110239,1,0,0:0:0:0:
182,192,110336,1,0,0:0:0:0:
109,192,110432,1,0,0:0:0:0:
182,192,110529,1,0,0:0:0:0:
329,192,110529,1,0,0:0:0:0:
475,192,110529,1,0,0:0:0:55:kick2.wav
256,192,110626,1,0,0:0:0:0:
109,192,110723,1,0,0:0:0:0:
256,192,110819,1,0,0:0:0:0:
182,192,110916,1,0,0:0:0:0:
329,192,110916,1,0,0:0:0:0:
475,192,110916,1,0,0:0:0:55:kick2.wav
36,192,111013,1,0,0:0:0:0:
182,192,111110,1,0,0:0:0:0:
109,192,111206,1,0,0:0:0:0:
36,192,111303,1,0,0:0:0:0:
182,192,111303,1,0,0:0:0:0:
475,192,111303,1,0,0:0:0:55:kick2.wav
256,192,111400,1,0,0:0:0:0:
329,192,111497,1,0,0:0:0:0:
475,192,111497,1,0,0:0:0:55:kick2.wav
402,192,111594,1,0,0:0:0:0:
329,192,111690,1,0,0:0:0:0:
182,192,111690,1,0,0:0:0:0:
36,192,111690,1,0,0:0:0:55:kick2.wav
256,192,111787,128,0,112077:0:0:0:0:
329,192,112077,128,0,112368:0:0:0:0:
182,192,112077,1,0,0:0:0:0:
36,192,112077,1,0,0:0:0:55:kick2.wav
109,192,112271,1,0,0:0:0:0:
256,192,112368,1,0,0:0:0:0:
36,192,112465,1,0,0:0:0:55:kick2.wav
402,192,112465,1,0,0:0:0:0:
256,192,112561,1,0,0:0:0:0:
109,192,112658,1,0,0:0:0:0:
182,192,112852,1,0,0:0:0:0:
329,192,112852,1,0,0:0:0:0:
475,192,112852,1,0,0:0:0:55:kick2.wav
109,192,113045,1,0,0:0:0:0:
256,192,113239,1,0,0:0:0:0:
475,192,113239,1,0,0:0:0:55:kick2.wav
36,192,113239,1,0,0:0:0:0:
329,192,113336,1,0,0:0:0:0:
182,192,113432,1,0,0:0:0:0:
329,192,113529,1,0,0:0:0:0:
256,192,113626,1,0,0:0:0:0:
475,192,113626,1,0,0:0:0:55:kick2.wav
36,192,113626,1,0,0:0:0:0:
402,192,113723,1,0,0:0:0:0:
256,192,113819,1,0,0:0:0:0:
475,192,113916,1,0,0:0:0:0:
329,192,114013,1,0,0:0:0:55:kick2.wav
109,192,114013,1,0,0:0:0:0:
256,192,114110,1,0,0:0:0:0:
475,192,114110,1,0,0:0:0:0:
402,192,114206,1,0,0:0:0:0:
182,192,114206,1,0,0:0:0:0:
109,192,114303,1,0,0:0:0:0:
329,192,114303,1,0,0:0:0:0:
256,192,114400,1,0,0:0:0:0:
36,192,114400,1,0,0:0:0:55:kick2.wav
182,192,114497,1,0,0:0:0:0:
329,192,114594,1,0,0:0:0:0:
256,192,114690,1,0,0:0:0:55:kick2.wav
182,192,114787,1,0,0:0:0:55:kick2.wav
36,192,114787,1,0,0:0:0:0:
475,192,114787,1,0,0:0:0:0:
402,192,114884,128,0,115174:0:0:0:0:
109,192,114981,1,0,0:0:0:0:
329,192,115174,128,0,115465:0:0:0:0:
256,192,115174,1,0,0:0:0:0:
36,192,115174,1,0,0:0:0:55:kick2.wav
109,192,115368,1,0,0:0:0:0:
182,192,115465,1,0,0:0:0:0:
256,192,115561,1,0,0:0:0:55:kick2.wav
402,192,115561,1,0,0:0:0:0:
256,192,115755,1,0,0:0:0:55:kick2.wav
402,192,115755,1,0,0:0:0:0:
329,192,115948,1,0,0:0:0:0:
182,192,115948,1,0,0:0:0:55:kick2.wav
182,192,116142,1,0,0:0:0:55:kick2.wav
329,192,116142,1,0,0:0:0:0:
36,192,116336,128,0,116529:0:0:0:0:
256,192,116336,128,0,116529:0:0:0:55:kick2.wav
109,192,116626,128,0,116819:0:0:0:0:
329,192,116626,128,0,116819:0:0:0:55:kick2.wav
182,192,116916,128,0,117110:0:0:0:0:
402,192,116916,128,0,117110:0:0:0:55:kick2.wav
475,192,117206,128,0,117400:0:0:0:55:kick2.wav
36,192,117206,128,0,117400:0:0:0:0:
109,192,117497,128,0,117690:0:0:0:0:
402,192,117497,128,0,117690:0:0:0:55:kick2.wav
256,192,117690,128,0,117884:0:0:0:55:kick2.wav
36,192,117884,128,0,120594:0:0:0:0:
182,192,117884,128,0,120594:0:0:0:0:
329,192,117884,128,0,120594:0:0:0:0:
475,192,117884,128,0,120594:0:0:0:0:
