osu file format v12

[General]
AudioFilename: Sweet Rain.mp3
AudioLeadIn: 2004
PreviewTime: 49755
Countdown: 0
SampleSet: Soft
StackLeniency: 0.7
Mode: 3
LetterboxInBreaks: 0
SpecialStyle: 0
WidescreenStoryboard: 0

[Editor]
DistanceSpacing: 1.1
BeatDivisor: 4
GridSize: 8

[Metadata]
Title:Sweet Rain
TitleUnicode:Sweet Rain
Artist:Y&Co. feat. Karin
ArtistUnicode:Y&Co. feat. Karin
Creator:Lieselotte
Version:LV.12
Source:jubeat
Tags:knit eurobeat plus jukebeat reflec beat limelight dancedancerevolution
BeatmapID:256642
BeatmapSetID:95592

[Difficulty]
HPDrainRate:7
CircleSize:7
OverallDifficulty:7
ApproachRate:5
SliderMultiplier:1.9
SliderTickRate:1

[Events]
//Background and Video events
0,0,"BG.jpg",0,0
//Break Periods
//Storyboard Layer 0 (Background)
//Storyboard Layer 1 (Fail)
//Storyboard Layer 2 (Pass)
//Storyboard Layer 3 (Foreground)
//Storyboard Sound Samples
Sample,13368,0,"kick2.wav",55
Sample,16465,0,"kick2.wav",55
Sample,19561,0,"kick2.wav",55
Sample,22658,0,"kick2.wav",55
Sample,54400,0,"kick2.wav",55
Sample,54787,0,"kick2.wav",55
Sample,55174,0,"kick2.wav",55
Sample,59432,0,"kick2.wav",55
Sample,60206,0,"kick2.wav",55
Sample,60594,0,"kick2.wav",55
Sample,60884,0,"kick2.wav",55
Sample,60981,0,"kick2.wav",55
Sample,61755,0,"kick2.wav",55
Sample,66787,0,"kick2.wav",55
Sample,67174,0,"kick2.wav",55
Sample,67561,0,"kick2.wav",55
Sample,71819,0,"kick2.wav",55
Sample,72594,0,"kick2.wav",55
Sample,74916,0,"kick2.wav",55
Sample,75303,0,"kick2.wav",55
Sample,75690,0,"kick2.wav",55
Sample,76077,0,"kick2.wav",55
Sample,77626,0,"kick2.wav",55
Sample,78013,0,"kick2.wav",55
Sample,94271,0,"kick2.wav",55
Sample,94658,0,"kick2.wav",55
Sample,95045,0,"kick2.wav",55
Sample,95432,0,"kick2.wav",55
Sample,97368,0,"kick2.wav",55
Sample,97755,0,"kick2.wav",55
Sample,98142,0,"kick2.wav",55
Sample,98529,0,"kick2.wav",55
Sample,100852,0,"kick2.wav",55
Sample,102787,0,"kick2.wav",55
Sample,104336,0,"kick2.wav",55
Sample,106271,0,"kick2.wav",55
Sample,109368,0,"kick2.wav",55
Sample,112465,0,"kick2.wav",55
Sample,114690,0,"kick2.wav",55
Sample,115561,0,"kick2.wav",55
//Background Colour Transformations
3,100,0,0,0

[TimingPoints]
207,387.096774193548,4,2,0,30,1,0

[Colours]
Combo1 : 255,166,255
Combo2 : 155,155,255

[HitObjects]
402,192,207,1,0,0:0:0:0:
109,192,207,1,0,0:0:0:55:kick2.wav
256,192,400,1,0,0:0:0:0:
36,192,594,1,0,0:0:0:0:
475,192,787,1,0,0:0:0:0:
109,192,981,1,0,0:0:0:0:
402,192,1174,1,0,0:0:0:0:
182,192,1368,1,0,0:0:0:0:
329,192,1561,1,0,0:0:0:0:
475,192,1755,1,0,0:0:0:0:
256,192,1948,1,0,0:0:0:0:
36,192,2142,1,0,0:0:0:0:
256,192,2336,1,0,0:0:0:0:
402,192,2529,1,0,0:0:0:0:
109,192,2723,1,0,0:0:0:0:
329,192,2916,1,0,0:0:0:0:
182,192,3110,1,0,0:0:0:0:
475,192,3303,1,0,0:0:0:0:
329,192,3497,1,0,0:0:0:0:
36,192,3690,1,0,0:0:0:0:
182,192,3884,1,0,0:0:0:0:
402,192,4077,1,0,0:0:0:0:
329,192,4271,1,0,0:0:0:0:
109,192,4465,1,0,0:0:0:0:
182,192,4658,1,0,0:0:0:0:
36,192,4852,1,0,0:0:0:0:
109,192,4948,1,0,0:0:0:0:
182,192,5045,1,0,0:0:0:0:
256,192,5142,1,0,0:0:0:0:
329,192,5239,1,0,0:0:0:0:
475,192,5432,1,0,0:0:0:0:
329,192,5626,1,0,0:0:0:0:
182,192,5819,1,0,0:0:0:55:kick2.wav
256,192,6013,128,0,6400:0:0:0:0:
36,192,6400,1,0,0:0:0:0:
475,192,6400,1,0,0:0:0:55:kick2.wav
109,192,6787,1,0,0:0:0:0:
475,192,6787,1,0,0:0:0:55:kick2.wav
182,192,7174,1,0,0:0:0:0:
475,192,7174,1,0,0:0:0:55:kick2.wav
475,192,7561,1,0,0:0:0:55:kick2.wav
256,192,7561,1,0,0:0:0:0:
36,192,7948,1,0,0:0:0:55:kick2.wav
475,192,7948,1,0,0:0:0:0:
36,192,8336,1,0,0:0:0:55:kick2.wav
402,192,8336,1,0,0:0:0:0:
36,192,8723,1,0,0:0:0:55:kick2.wav
329,192,8723,1,0,0:0:0:0:
36,192,9110,1,0,0:0:0:0:
256,192,9110,1,0,0:0:0:0:
109,192,9400,1,0,0:0:0:55:kick2.wav
402,192,9497,1,0,0:0:0:55:kick2.wav
256,192,9884,1,0,0:0:0:55:kick2.wav
256,192,10271,1,0,0:0:0:55:kick2.wav
256,192,10465,1,0,0:0:0:55:kick2.wav
256,192,10658,1,0,0:0:0:55:kick2.wav
256,192,10852,1,0,0:0:0:55:kick2.wav
402,192,11045,1,0,0:0:0:0:
109,192,11142,1,0,0:0:0:0:
329,192,11239,1,0,0:0:0:0:
182,192,11336,1,0,0:0:0:0:
475,192,11432,1,0,0:0:0:0:
36,192,11529,1,0,0:0:0:0:
402,192,11626,1,0,0:0:0:0:
109,192,11723,1,0,0:0:0:0:
329,192,11819,1,0,0:0:0:0:
182,192,11916,1,0,0:0:0:0:
402,192,12013,1,0,0:0:0:0:
109,192,12110,1,0,0:0:0:0:
329,192,12206,1,0,0:0:0:0:
182,192,12303,1,0,0:0:0:0:
36,192,12400,1,0,0:0:0:0:
109,192,12594,1,0,0:0:0:0:
402,192,12594,1,0,0:0:0:55:kick2.wav
256,192,12981,1,0,0:0:0:55:kick2.wav
329,192,13271,1,0,0:0:0:0:
182,192,13465,1,0,0:0:0:0:
256,192,13561,1,0,0:0:0:0:
402,192,13755,1,0,0:0:0:55:kick2.wav
182,192,13948,1,0,0:0:0:0:
475,192,14142,1,0,0:0:0:55:kick2.wav
402,192,14239,1,0,0:0:0:0:
329,192,14336,1,0,0:0:0:0:
256,192,14432,1,0,0:0:0:0:
36,192,14529,1,0,0:0:0:55:kick2.wav
109,192,14626,1,0,0:0:0:0:
182,192,14723,1,0,0:0:0:0:
256,192,14819,1,0,0:0:0:0:
402,192,14916,1,0,0:0:0:55:kick2.wav
329,192,15013,1,0,0:0:0:0:
256,192,15110,1,0,0:0:0:0:
182,192,15206,1,0,0:0:0:0:
109,192,15303,1,0,0:0:0:55:kick2.wav
182,192,15400,1,0,0:0:0:0:
256,192,15497,1,0,0:0:0:0:
329,192,15594,1,0,0:0:0:0:
109,192,15690,1,0,0:0:0:55:kick2.wav
182,192,15787,1,0,0:0:0:0:
256,192,16077,1,0,0:0:0:55:kick2.wav
402,192,16368,1,0,0:0:0:0:
182,192,16561,1,0,0:0:0:0:
329,192,16658,1,0,0:0:0:0:
36,192,16852,1,0,0:0:0:55:kick2.wav
182,192,16948,1,0,0:0:0:0:
329,192,17045,1,0,0:0:0:0:
36,192,17239,1,0,0:0:0:55:kick2.wav
109,192,17336,1,0,0:0:0:0:
182,192,17432,1,0,0:0:0:0:
256,192,17529,1,0,0:0:0:0:
402,192,17626,1,0,0:0:0:55:kick2.wav
329,192,17723,1,0,0:0:0:0:
256,192,17819,1,0,0:0:0:0:
182,192,17916,1,0,0:0:0:0:
36,192,18013,1,0,0:0:0:55:kick2.wav
109,192,18110,1,0,0:0:0:0:
182,192,18206,1,0,0:0:0:0:
256,192,18303,1,0,0:0:0:0:
475,192,18400,1,0,0:0:0:55:kick2.wav
402,192,18497,1,0,0:0:0:0:
329,192,18594,1,0,0:0:0:55:kick2.wav
256,192,18690,1,0,0:0:0:0:
36,192,18787,1,0,0:0:0:55:kick2.wav
182,192,18884,1,0,0:0:0:0:
109,192,19174,1,0,0:0:0:55:kick2.wav
182,192,19465,1,0,0:0:0:0:
329,192,19658,1,0,0:0:0:0:
256,192,19755,1,0,0:0:0:0:
402,192,19948,1,0,0:0:0:55:kick2.wav
109,192,20142,1,0,0:0:0:0:
475,192,20336,1,0,0:0:0:55:kick2.wav
402,192,20432,1,0,0:0:0:0:
329,192,20529,1,0,0:0:0:0:
256,192,20626,1,0,0:0:0:0:
36,192,20723,1,0,0:0:0:55:kick2.wav
109,192,20819,1,0,0:0:0:0:
182,192,20916,1,0,0:0:0:0:
256,192,21013,1,0,0:0:0:0:
475,192,21110,1,0,0:0:0:55:kick2.wav
329,192,21206,1,0,0:0:0:0:
36,192,21303,1,0,0:0:0:0:
182,192,21400,1,0,0:0:0:0:
402,192,21497,1,0,0:0:0:55:kick2.wav
109,192,21690,1,0,0:0:0:0:
182,192,21884,1,0,0:0:0:55:kick2.wav
329,192,21981,1,0,0:0:0:0:
256,192,22271,1,0,0:0:0:55:kick2.wav
109,192,22561,1,0,0:0:0:0:
329,192,22755,1,0,0:0:0:0:
182,192,22852,1,0,0:0:0:0:
109,192,23045,1,0,0:0:0:55:kick2.wav
402,192,23239,1,0,0:0:0:0:
475,192,23432,1,0,0:0:0:0:
36,192,23432,1,0,0:0:0:55:kick2.wav
182,192,23723,1,0,0:0:0:55:kick2.wav
329,192,23723,1,0,0:0:0:0:
475,192,24013,1,0,0:0:0:0:
36,192,24013,1,0,0:0:0:55:kick2.wav
182,192,24303,1,0,0:0:0:55:kick2.wav
329,192,24303,1,0,0:0:0:0:
109,192,24594,1,0,0:0:0:55:kick2.wav
402,192,24787,1,0,0:0:0:0:
329,192,24981,1,0,0:0:0:55:kick2.wav
182,192,24981,1,0,0:0:0:0:
402,192,25174,1,0,0:0:0:0:
36,192,25368,1,0,0:0:0:55:kick2.wav
256,192,25561,1,0,0:0:0:0:
36,192,25755,1,0,0:0:0:55:kick2.wav
329,192,25948,1,0,0:0:0:0:
36,192,26142,1,0,0:0:0:55:kick2.wav
182,192,26336,1,0,0:0:0:0:
475,192,26529,1,0,0:0:0:55:kick2.wav
256,192,26723,1,0,0:0:0:0:
475,192,26916,1,0,0:0:0:55:kick2.wav
109,192,27110,1,0,0:0:0:0:
475,192,27303,1,0,0:0:0:55:kick2.wav
329,192,27497,1,0,0:0:0:0:
475,192,27690,1,0,0:0:0:55:kick2.wav
329,192,27884,1,0,0:0:0:0:
256,192,27981,1,0,0:0:0:55:kick2.wav
182,192,28077,1,0,0:0:0:55:kick2.wav
402,192,28271,1,0,0:0:0:0:
182,192,28465,1,0,0:0:0:55:kick2.wav
256,192,28658,1,0,0:0:0:0:
182,192,28852,1,0,0:0:0:55:kick2.wav
329,192,29045,1,0,0:0:0:0:
182,192,29239,1,0,0:0:0:55:kick2.wav
109,192,29432,1,0,0:0:0:0:
329,192,29626,1,0,0:0:0:55:kick2.wav
182,192,29819,1,0,0:0:0:0:
329,192,30013,1,0,0:0:0:55:kick2.wav
109,192,30206,1,0,0:0:0:0:
256,192,30400,1,0,0:0:0:55:kick2.wav
475,192,30400,1,0,0:0:0:0:
256,192,30787,1,0,0:0:0:55:kick2.wav
36,192,30787,1,0,0:0:0:0:
256,192,31174,1,0,0:0:0:55:kick2.wav
109,192,31368,1,0,0:0:0:0:
256,192,31561,1,0,0:0:0:55:kick2.wav
329,192,31755,1,0,0:0:0:0:
256,192,31948,1,0,0:0:0:55:kick2.wav
36,192,32142,1,0,0:0:0:0:
256,192,32336,1,0,0:0:0:55:kick2.wav
329,192,32529,1,0,0:0:0:0:
109,192,32723,1,0,0:0:0:55:kick2.wav
402,192,32916,1,0,0:0:0:0:
109,192,33110,1,0,0:0:0:55:kick2.wav
256,192,33303,1,0,0:0:0:0:
109,192,33497,1,0,0:0:0:55:kick2.wav
329,192,33690,1,0,0:0:0:0:
109,192,33884,1,0,0:0:0:55:kick2.wav
329,192,34077,1,0,0:0:0:0:
182,192,34174,1,0,0:0:0:55:kick2.wav
402,192,34271,1,0,0:0:0:55:kick2.wav
109,192,34465,1,0,0:0:0:0:
402,192,34658,1,0,0:0:0:55:kick2.wav
256,192,34852,1,0,0:0:0:0:
402,192,35045,1,0,0:0:0:55:kick2.wav
109,192,35239,1,0,0:0:0:0:
182,192,35432,1,0,0:0:0:55:kick2.wav
256,192,35626,1,0,0:0:0:0:
36,192,35819,1,0,0:0:0:55:kick2.wav
182,192,36013,1,0,0:0:0:55:kick2.wav
329,192,36013,1,0,0:0:0:0:
109,192,36400,1,0,0:0:0:55:kick2.wav
402,192,36400,1,0,0:0:0:0:
256,192,36787,1,0,0:0:0:55:kick2.wav
182,192,37368,1,0,0:0:0:55:kick2.wav
475,192,37368,1,0,0:0:0:0:
109,192,37561,1,0,0:0:0:0:
182,192,37755,1,0,0:0:0:55:kick2.wav
256,192,37948,1,0,0:0:0:0:
182,192,38142,1,0,0:0:0:55:kick2.wav
329,192,38336,128,0,38916:0:0:0:0:
475,192,38336,1,0,0:0:0:0:
182,192,38529,1,0,0:0:0:55:kick2.wav
256,192,38723,1,0,0:0:0:0:
402,192,38916,1,0,0:0:0:55:kick2.wav
36,192,39110,1,0,0:0:0:0:
402,192,39303,1,0,0:0:0:55:kick2.wav
256,192,39303,128,0,39690:0:0:0:0:
182,192,39497,1,0,0:0:0:0:
402,192,39690,1,0,0:0:0:55:kick2.wav
109,192,39884,128,0,40465:0:0:0:0:
329,192,39884,1,0,0:0:0:0:
402,192,40077,1,0,0:0:0:55:kick2.wav
182,192,40271,1,0,0:0:0:0:
256,192,40465,1,0,0:0:0:55:kick2.wav
329,192,40658,1,0,0:0:0:0:
256,192,40852,1,0,0:0:0:55:kick2.wav
182,192,41045,1,0,0:0:0:0:
256,192,41239,1,0,0:0:0:55:kick2.wav
256,192,41432,1,0,0:0:0:55:kick2.wav
256,192,41819,1,0,0:0:0:55:kick2.wav
109,192,42013,1,0,0:0:0:0:
402,192,42013,1,0,0:0:0:55:kick2.wav
109,192,42206,1,0,0:0:0:0:
402,192,42206,1,0,0:0:0:55:kick2.wav
402,192,42400,1,0,0:0:0:55:kick2.wav
109,192,42400,1,0,0:0:0:0:
109,192,42594,1,0,0:0:0:0:
402,192,42594,1,0,0:0:0:55:kick2.wav
182,192,42981,1,0,0:0:0:0:
329,192,42981,1,0,0:0:0:55:kick2.wav
256,192,43368,1,0,0:0:0:55:kick2.wav
36,192,43561,1,0,0:0:0:55:kick2.wav
402,192,43755,1,0,0:0:0:0:
36,192,43948,1,0,0:0:0:55:kick2.wav
256,192,44142,1,0,0:0:0:0:
36,192,44336,1,0,0:0:0:55:kick2.wav
256,192,44529,128,0,45110:0:0:0:0:
402,192,44529,1,0,0:0:0:0:
36,192,44723,1,0,0:0:0:55:kick2.wav
182,192,44916,1,0,0:0:0:0:
475,192,45110,1,0,0:0:0:55:kick2.wav
109,192,45303,1,0,0:0:0:0:
475,192,45497,1,0,0:0:0:55:kick2.wav
256,192,45690,1,0,0:0:0:0:
475,192,45884,1,0,0:0:0:55:kick2.wav
329,192,46077,1,0,0:0:0:0:
475,192,46271,1,0,0:0:0:55:kick2.wav
256,192,46465,1,0,0:0:0:0:
109,192,46658,1,0,0:0:0:55:kick2.wav
329,192,46852,1,0,0:0:0:0:
109,192,47045,1,0,0:0:0:55:kick2.wav
182,192,47239,1,0,0:0:0:0:
402,192,47336,1,0,0:0:0:55:kick2.wav
256,192,47432,1,0,0:0:0:55:kick2.wav
256,192,47626,1,0,0:0:0:55:kick2.wav
329,192,47916,1,0,0:0:0:0:
182,192,48013,1,0,0:0:0:55:kick2.wav
36,192,48206,1,0,0:0:0:55:kick2.wav
475,192,48206,1,0,0:0:0:0:
109,192,48400,1,0,0:0:0:55:kick2.wav
402,192,48400,1,0,0:0:0:0:
329,192,48594,1,0,0:0:0:0:
182,192,48594,1,0,0:0:0:55:kick2.wav
109,192,48787,1,0,0:0:0:55:kick2.wav
402,192,48787,1,0,0:0:0:0:
36,192,49174,1,0,0:0:0:55:kick2.wav
475,192,49174,1,0,0:0:0:0:
402,192,49755,1,0,0:0:0:0:
256,192,49755,1,0,0:0:0:0:
36,192,49755,1,0,0:0:0:55:kick2.wav
36,192,50142,1,0,0:0:0:55:kick2.wav
329,192,50142,1,0,0:0:0:0:
256,192,50529,1,0,0:0:0:0:
36,192,50529,1,0,0:0:0:55:kick2.wav
329,192,50723,1,0,0:0:0:0:
402,192,50916,1,0,0:0:0:0:
36,192,50916,1,0,0:0:0:55:kick2.wav
256,192,51110,1,0,0:0:0:0:
109,192,51303,1,0,0:0:0:55:kick2.wav
475,192,51303,1,0,0:0:0:0:
329,192,51497,1,0,0:0:0:0:
402,192,51690,1,0,0:0:0:0:
109,192,51690,1,0,0:0:0:55:kick2.wav
256,192,51884,1,0,0:0:0:0:
329,192,52077,1,0,0:0:0:0:
109,192,52077,1,0,0:0:0:55:kick2.wav
256,192,52271,1,0,0:0:0:0:
109,192,52465,1,0,0:0:0:55:kick2.wav
475,192,52465,1,0,0:0:0:0:
256,192,52755,1,0,0:0:0:55:kick2.wav
475,192,52852,1,0,0:0:0:55:kick2.wav
36,192,52852,1,0,0:0:0:0:
475,192,53239,1,0,0:0:0:55:kick2.wav
109,192,53239,1,0,0:0:0:0:
182,192,53432,1,0,0:0:0:0:
256,192,53626,1,0,0:0:0:0:
475,192,53626,1,0,0:0:0:55:kick2.wav
329,192,53819,1,0,0:0:0:0:
475,192,54013,1,0,0:0:0:55:kick2.wav
182,192,54013,1,0,0:0:0:0:
329,192,54206,1,0,0:0:0:0:
36,192,54206,1,0,0:0:0:0:
109,192,54594,1,0,0:0:0:0:
402,192,54594,1,0,0:0:0:0:
182,192,54981,1,0,0:0:0:0:
475,192,54981,1,0,0:0:0:0:
329,192,55368,1,0,0:0:0:0:
256,192,55561,128,0,55948:0:0:0:55:kick2.wav
182,192,55755,1,0,0:0:0:55:kick2.wav
36,192,55948,1,0,0:0:0:55:kick2.wav
402,192,55948,1,0,0:0:0:0:
329,192,56336,1,0,0:0:0:0:
36,192,56336,1,0,0:0:0:55:kick2.wav
256,192,56723,1,0,0:0:0:0:
36,192,56723,1,0,0:0:0:55:kick2.wav
182,192,56916,1,0,0:0:0:0:
329,192,57110,1,0,0:0:0:0:
36,192,57110,1,0,0:0:0:55:kick2.wav
256,192,57303,1,0,0:0:0:0:
36,192,57497,1,0,0:0:0:0:
475,192,57497,1,0,0:0:0:55:kick2.wav
109,192,57690,1,0,0:0:0:0:
256,192,57884,1,0,0:0:0:0:
475,192,57884,1,0,0:0:0:55:kick2.wav
475,192,58271,1,0,0:0:0:55:kick2.wav
402,192,58465,1,0,0:0:0:0:
329,192,58658,1,0,0:0:0:55:kick2.wav
256,192,58852,1,0,0:0:0:0:
109,192,59045,128,0,60787:0:0:0:55:kick2.wav
256,192,59626,1,0,0:0:0:0:
402,192,59819,128,0,60787:0:0:0:55:kick2.wav
256,192,60787,128,0,60981:0:0:0:0:
256,192,61174,128,0,61368:0:0:0:55:kick2.wav
256,192,61561,128,0,62142:0:0:0:0:
329,192,61948,1,0,0:0:0:0:
182,192,62045,1,0,0:0:0:0:
109,192,62142,1,0,0:0:0:0:
475,192,62142,1,0,0:0:0:55:kick2.wav
329,192,62529,1,0,0:0:0:0:
475,192,62529,1,0,0:0:0:55:kick2.wav
256,192,62916,1,0,0:0:0:0:
475,192,62916,1,0,0:0:0:55:kick2.wav
182,192,63110,1,0,0:0:0:0:
109,192,63303,1,0,0:0:0:0:
475,192,63303,1,0,0:0:0:55:kick2.wav
256,192,63497,1,0,0:0:0:0:
402,192,63690,1,0,0:0:0:55:kick2.wav
36,192,63690,1,0,0:0:0:0:
182,192,63884,1,0,0:0:0:0:
109,192,64077,1,0,0:0:0:0:
402,192,64077,1,0,0:0:0:55:kick2.wav
36,192,64271,1,0,0:0:0:0:
182,192,64465,1,0,0:0:0:0:
402,192,64465,1,0,0:0:0:55:kick2.wav
256,192,64658,1,0,0:0:0:0:
402,192,64852,1,0,0:0:0:55:kick2.wav
36,192,64852,1,0,0:0:0:0:
182,192,65142,1,0,0:0:0:55:kick2.wav
36,192,65239,1,0,0:0:0:55:kick2.wav
475,192,65239,1,0,0:0:0:0:
402,192,65432,1,0,0:0:0:0:
329,192,65626,1,0,0:0:0:0:
36,192,65626,1,0,0:0:0:55:kick2.wav
36,192,66013,1,0,0:0:0:55:kick2.wav
182,192,66013,1,0,0:0:0:0:
256,192,66206,1,0,0:0:0:0:
329,192,66400,1,0,0:0:0:55:kick2.wav
182,192,66594,1,0,0:0:0:0:
475,192,66594,1,0,0:0:0:0:
109,192,66981,1,0,0:0:0:0:
402,192,66981,1,0,0:0:0:0:
329,192,67368,1,0,0:0:0:0:
36,192,67368,1,0,0:0:0:0:
182,192,67755,1,0,0:0:0:0:
256,192,67948,1,0,0:0:0:55:kick2.wav
329,192,68142,1,0,0:0:0:55:kick2.wav
475,192,68336,1,0,0:0:0:55:kick2.wav
182,192,68336,1,0,0:0:0:0:
256,192,68723,1,0,0:0:0:0:
475,192,68723,1,0,0:0:0:55:kick2.wav
475,192,69110,1,0,0:0:0:55:kick2.wav
109,192,69110,1,0,0:0:0:0:
256,192,69497,1,0,0:0:0:0:
475,192,69497,1,0,0:0:0:55:kick2.wav
182,192,69690,1,0,0:0:0:0:
329,192,69884,1,0,0:0:0:0:
36,192,69884,1,0,0:0:0:55:kick2.wav
475,192,70077,1,0,0:0:0:0:
402,192,70271,1,0,0:0:0:0:
36,192,70271,1,0,0:0:0:55:kick2.wav
329,192,70465,1,0,0:0:0:0:
256,192,70658,1,0,0:0:0:0:
36,192,70658,1,0,0:0:0:55:kick2.wav
36,192,71045,1,0,0:0:0:55:kick2.wav
329,192,71045,1,0,0:0:0:0:
109,192,71432,1,0,0:0:0:55:kick2.wav
256,192,71432,128,0,72013:0:0:0:0:
402,192,72013,1,0,0:0:0:0:
475,192,72206,128,0,72981:0:0:0:55:kick2.wav
256,192,72981,1,0,0:0:0:55:kick2.wav
256,192,73174,1,0,0:0:0:55:kick2.wav
256,192,73368,1,0,0:0:0:55:kick2.wav
256,192,73561,1,0,0:0:0:55:kick2.wav
36,192,73755,1,0,0:0:0:0:
182,192,73852,1,0,0:0:0:0:
475,192,73948,1,0,0:0:0:0:
329,192,74045,1,0,0:0:0:0:
109,192,74142,1,0,0:0:0:0:
402,192,74239,1,0,0:0:0:0:
182,192,74336,1,0,0:0:0:0:
329,192,74432,1,0,0:0:0:0:
402,192,74529,1,0,0:0:0:0:
36,192,74529,1,0,0:0:0:55:kick2.wav
182,192,74626,1,0,0:0:0:0:
329,192,74819,1,0,0:0:0:0:
256,192,75013,1,0,0:0:0:0:
402,192,75110,1,0,0:0:0:0:
182,192,75206,1,0,0:0:0:0:
36,192,75497,1,0,0:0:0:0:
182,192,75787,1,0,0:0:0:0:
256,192,75981,1,0,0:0:0:0:
109,192,76174,1,0,0:0:0:0:
402,192,76368,1,0,0:0:0:0:
256,192,76465,1,0,0:0:0:55:kick2.wav
402,192,76852,1,0,0:0:0:55:kick2.wav
402,192,77045,1,0,0:0:0:0:
329,192,77239,1,0,0:0:0:55:kick2.wav
182,192,77432,1,0,0:0:0:0:
256,192,77529,1,0,0:0:0:0:
109,192,77723,1,0,0:0:0:0:
182,192,77916,1,0,0:0:0:0:
402,192,78110,1,0,0:0:0:0:
329,192,78206,1,0,0:0:0:0:
256,192,78303,1,0,0:0:0:55:kick2.wav
109,192,78400,1,0,0:0:0:55:kick2.wav
182,192,78594,1,0,0:0:0:55:kick2.wav
329,192,78787,1,0,0:0:0:0:
256,192,78884,1,0,0:0:0:0:
182,192,78981,1,0,0:0:0:0:
256,192,79174,1,0,0:0:0:0:
475,192,79174,1,0,0:0:0:55:kick2.wav
329,192,79368,1,0,0:0:0:55:kick2.wav
109,192,79368,1,0,0:0:0:0:
256,192,79561,1,0,0:0:0:55:kick2.wav
36,192,79561,1,0,0:0:0:0:
109,192,79755,1,0,0:0:0:0:
329,192,79755,1,0,0:0:0:55:kick2.wav
36,192,80142,1,0,0:0:0:0:
256,192,80142,1,0,0:0:0:55:kick2.wav
475,192,80142,1,0,0:0:0:0:
109,192,80723,1,0,0:0:0:0:
182,192,81110,1,0,0:0:0:0:
329,192,81497,1,0,0:0:0:0:
256,192,81690,1,0,0:0:0:0:
475,192,82077,1,0,0:0:0:0:
402,192,82465,1,0,0:0:0:0:
329,192,82852,1,0,0:0:0:0:
182,192,83239,1,0,0:0:0:0:
256,192,83432,1,0,0:0:0:0:
109,192,83819,1,0,0:0:0:0:
182,192,84206,1,0,0:0:0:0:
329,192,84594,1,0,0:0:0:0:
256,192,84787,1,0,0:0:0:0:
256,192,85174,1,0,0:0:0:55:kick2.wav
475,192,85174,1,0,0:0:0:0:
402,192,85561,1,0,0:0:0:0:
182,192,85561,1,0,0:0:0:55:kick2.wav
329,192,85948,1,0,0:0:0:0:
109,192,85948,1,0,0:0:0:55:kick2.wav
256,192,86336,1,0,0:0:0:0:
36,192,86336,1,0,0:0:0:0:
109,192,86723,1,0,0:0:0:55:kick2.wav
402,192,86723,1,0,0:0:0:0:
475,192,86916,1,0,0:0:0:0:
36,192,86916,1,0,0:0:0:55:kick2.wav
256,192,86916,128,0,88465:0:0:0:0:
329,192,88465,128,0,90013:0:0:0:0:
109,192,90013,128,0,90594:0:0:0:0:
402,192,90594,128,0,91561:0:0:0:0:
475,192,91561,1,0,0:0:0:0:
36,192,91561,1,0,0:0:0:55:kick2.wav
256,192,91755,1,0,0:0:0:55:kick2.wav
256,192,92142,1,0,0:0:0:55:kick2.wav
256,192,92529,128,0,93110:0:0:0:55:kick2.wav
36,192,93110,128,0,93497:0:0:0:55:kick2.wav
109,192,93497,128,0,93884:0:0:0:55:kick2.wav
329,192,93884,1,0,0:0:0:55:kick2.wav
256,192,94077,128,0,94465:0:0:0:0:
402,192,94465,128,0,94658:0:0:0:0:
329,192,94852,128,0,95045:0:0:0:0:
256,192,95239,128,0,95626:0:0:0:0:
402,192,95626,1,0,0:0:0:0:
182,192,95819,128,0,96206:0:0:0:55:kick2.wav
256,192,96110,1,0,0:0:0:55:kick2.wav
402,192,96206,1,0,0:0:0:55:kick2.wav
109,192,96400,1,0,0:0:0:0:
182,192,96594,128,0,96981:0:0:0:55:kick2.wav
329,192,96981,1,0,0:0:0:55:kick2.wav
256,192,97174,128,0,97561:0:0:0:0:
329,192,97561,1,0,0:0:0:0:
109,192,97561,128,0,97948:0:0:0:0:
402,192,97948,1,0,0:0:0:0:
182,192,97948,128,0,98336:0:0:0:0:
256,192,98336,128,0,98723:0:0:0:0:
475,192,98336,1,0,0:0:0:0:
329,192,98723,1,0,0:0:0:0:
402,192,98916,128,0,99303:0:0:0:55:kick2.wav
256,192,99110,1,0,0:0:0:55:kick2.wav
256,192,99303,1,0,0:0:0:55:kick2.wav
109,192,99303,128,0,99497:0:0:0:0:
109,192,99690,128,0,100077:0:0:0:55:kick2.wav
182,192,100077,128,0,100465:0:0:0:55:kick2.wav
329,192,100465,1,0,0:0:0:55:kick2.wav
256,192,100658,128,0,101045:0:0:0:0:
402,192,101045,1,0,0:0:0:0:
329,192,101239,1,0,0:0:0:55:kick2.wav
256,192,101432,1,0,0:0:0:0:
182,192,101626,1,0,0:0:0:55:kick2.wav
109,192,101626,128,0,102013:0:0:0:0:
329,192,102013,128,0,102400:0:0:0:55:kick2.wav
475,192,102400,128,0,102981:0:0:0:55:kick2.wav
256,192,102981,1,0,0:0:0:0:
36,192,103174,128,0,103948:0:0:0:55:kick2.wav
256,192,103561,1,0,0:0:0:55:kick2.wav
256,192,103948,1,0,0:0:0:55:kick2.wav
402,192,104142,1,0,0:0:0:55:kick2.wav
109,192,104432,1,0,0:0:0:55:kick2.wav
36,192,104723,1,0,0:0:0:55:kick2.wav
182,192,104819,1,0,0:0:0:55:kick2.wav
475,192,105013,1,0,0:0:0:55:kick2.wav
329,192,105110,1,0,0:0:0:55:kick2.wav
109,192,105303,1,0,0:0:0:0:
182,192,105400,1,0,0:0:0:0:
256,192,105497,1,0,0:0:0:0:
475,192,105497,1,0,0:0:0:55:kick2.wav
329,192,105594,1,0,0:0:0:0:
402,192,105884,1,0,0:0:0:55:kick2.wav
182,192,106174,1,0,0:0:0:0:
329,192,106368,1,0,0:0:0:0:
256,192,106465,1,0,0:0:0:0:
109,192,106658,1,0,0:0:0:55:kick2.wav
402,192,106852,1,0,0:0:0:0:
36,192,107045,1,0,0:0:0:55:kick2.wav
182,192,107142,1,0,0:0:0:0:
329,192,107239,1,0,0:0:0:0:
475,192,107336,1,0,0:0:0:0:
256,192,107432,1,0,0:0:0:55:kick2.wav
109,192,107529,1,0,0:0:0:0:
402,192,107626,1,0,0:0:0:0:
256,192,107723,1,0,0:0:0:0:
182,192,107819,1,0,0:0:0:55:kick2.wav
329,192,107916,1,0,0:0:0:0:
475,192,108013,1,0,0:0:0:0:
329,192,108110,1,0,0:0:0:0:
256,192,108206,1,0,0:0:0:55:kick2.wav
109,192,108303,1,0,0:0:0:0:
402,192,108400,1,0,0:0:0:0:
182,192,108497,1,0,0:0:0:0:
329,192,108594,1,0,0:0:0:55:kick2.wav
256,192,108690,1,0,0:0:0:0:
182,192,108981,1,0,0:0:0:55:kick2.wav
329,192,109271,1,0,0:0:0:0:
109,192,109465,1,0,0:0:0:0:
402,192,109561,1,0,0:0:0:0:
182,192,109755,1,0,0:0:0:55:kick2.wav
256,192,109852,1,0,0:0:0:0:
329,192,109948,1,0,0:0:0:0:
256,192,110142,1,0,0:0:0:55:kick2.wav
182,192,110239,1,0,0:0:0:0:
109,192,110336,1,0,0:0:0:0:
36,192,110432,1,0,0:0:0:0:
182,192,110529,1,0,0:0:0:55:kick2.wav
256,192,110626,1,0,0:0:0:0:
329,192,110723,1,0,0:0:0:0:
402,192,110819,1,0,0:0:0:0:
256,192,110916,1,0,0:0:0:55:kick2.wav
182,192,111013,1,0,0:0:0:0:
109,192,111110,1,0,0:0:0:0:
36,192,111206,1,0,0:0:0:0:
109,192,111303,1,0,0:0:0:55:kick2.wav
182,192,111400,1,0,0:0:0:0:
256,192,111497,1,0,0:0:0:55:kick2.wav
329,192,111594,1,0,0:0:0:0:
109,192,111690,1,0,0:0:0:55:kick2.wav
182,192,111787,1,0,0:0:0:0:
329,192,112077,1,0,0:0:0:55:kick2.wav
182,192,112368,1,0,0:0:0:0:
402,192,112561,1,0,0:0:0:0:
109,192,112658,1,0,0:0:0:0:
256,192,112852,1,0,0:0:0:55:kick2.wav
329,192,113045,1,0,0:0:0:0:
475,192,113239,1,0,0:0:0:55:kick2.wav
402,192,113336,1,0,0:0:0:0:
329,192,113432,1,0,0:0:0:0:
256,192,113529,1,0,0:0:0:0:
109,192,113626,1,0,0:0:0:55:kick2.wav
182,192,113723,1,0,0:0:0:0:
256,192,113819,1,0,0:0:0:0:
329,192,113916,1,0,0:0:0:0:
36,192,114013,1,0,0:0:0:55:kick2.wav
182,192,114110,1,0,0:0:0:0:
475,192,114206,1,0,0:0:0:0:
329,192,114303,1,0,0:0:0:0:
109,192,114400,1,0,0:0:0:55:kick2.wav
402,192,114594,1,0,0:0:0:0:
182,192,114787,1,0,0:0:0:55:kick2.wav
329,192,114884,1,0,0:0:0:0:
109,192,115174,1,0,0:0:0:55:kick2.wav
402,192,115465,1,0,0:0:0:0:
182,192,115658,1,0,0:0:0:0:
329,192,115755,1,0,0:0:0:55:kick2.wav
402,192,115948,1,0,0:0:0:55:kick2.wav
109,192,115948,1,0,0:0:0:0:
182,192,116142,1,0,0:0:0:0:
329,192,116142,1,0,0:0:0:55:kick2.wav
402,192,116336,1,0,0:0:0:55:kick2.wav
36,192,116336,1,0,0:0:0:0:
182,192,116626,1,0,0:0:0:0:
475,192,116626,1,0,0:0:0:55:kick2.wav
475,192,116916,1,0,0:0:0:55:kick2.wav
109,192,116916,1,0,0:0:0:0:
329,192,117206,1,0,0:0:0:55:kick2.wav
36,192,117206,1,0,0:0:0:0:
109,192,117497,1,0,0:0:0:55:kick2.wav
402,192,117690,1,0,0:0:0:55:kick2.wav
256,192,117884,128,0,120594:0:0:0:0:
