osu file format v9

[General]
AudioFilename: IN THE NAME OF LOVE.mp3
AudioLeadIn: 2096
PreviewTime: 11555
Countdown: 0
SampleSet: Normal
StackLeniency: 0.7
Mode: 0
LetterboxInBreaks: 0

[Editor]
Bookmarks: 12039,25491,46781,49491
DistanceSpacing: 0.9
BeatDivisor: 4
GridSize: 8

[Metadata]
Title:In the name of love
Artist:Y&Co. feat. Erica
Creator:Sir Minelli
Version:Free Style
Source:JUBEAT
Tags:jubeat

[Difficulty]
HPDrainRate:7
CircleSize:4
OverallDifficulty:7
ApproachRate:8
SliderMultiplier:2.2
SliderTickRate:1

[Events]
//Background and Video events
0,0,"jubeat.jpg"
//Break Periods
//Storyboard Layer 0 (Background)
//Storyboard Layer 1 (Fail)
//Storyboard Layer 2 (Pass)
//Storyboard Layer 3 (Foreground)
//Storyboard Sound Samples
//Background Colour Transformations
3,100,0,0,0

[TimingPoints]
330,387.096832666753,4,1,0,100,1,0
523,-100,4,2,0,100,0,0
3426,-100,4,1,0,75,0,0
3523,-100,4,2,0,100,0,0
4684,-100,4,1,0,75,0,0
4878,-100,4,2,0,100,0,0
5071,-100,4,1,0,75,0,0
5265,-100,4,2,0,100,0,0
5459,-100,4,1,0,75,0,0
5652,-100,4,2,0,100,0,0
5942,-100,4,1,0,75,0,0
6039,-100,4,2,0,100,0,0
9620,-100,4,1,0,60,0,1
9717,-100,4,2,0,100,0,0
9813,-100,4,2,0,100,0,1
9910,-100,4,2,0,100,0,0
10007,-100,4,2,0,100,0,1
10104,-100,4,2,0,100,0,0
10200,-100,4,2,0,100,0,1
10297,-100,4,2,0,100,0,0
10394,-100,4,2,0,100,0,1
10491,-100,4,2,0,100,0,0
10588,-100,4,2,0,100,0,1
11168,-100,4,2,0,100,0,0
46684,-100,4,1,0,69,0,0
48233,-100,4,1,0,70,0,0
48813,-100,4,1,0,62,0,0
49394,-100,4,2,0,100,0,0
51233,-100,4,1,0,60,0,0
51330,-100,4,2,0,100,0,0
55394,-100,4,1,0,65,0,0
55878,-100,4,2,0,100,0,0
57523,-100,4,1,0,44,0,0
57910,-100,4,1,0,52,0,0
58297,-100,4,1,0,59,0,0
58491,-100,4,1,0,71,0,0
58684,-100,4,1,0,89,0,0
59168,-100,4,1,0,58,0,0
59265,-100,4,1,0,61,0,0
59749,-100,4,1,0,58,0,0
59942,-100,4,1,0,71,0,0
60620,-100,4,1,0,90,0,0
61104,-100,4,1,0,94,0,0
61684,-100,4,1,0,0,0,0
61781,-100,4,1,0,65,0,0
62071,-100,4,2,0,100,0,0
62168,-100,4,2,0,100,0,0
70878,-100,4,1,0,61,0,0
71459,-100,4,1,0,80,0,0
73588,-100,4,1,0,100,0,0
74652,-100,4,2,0,100,0,0
101846,-50,4,2,0,0,0,0

[Colours]
Combo1 : 217,227,238
Combo2 : 185,252,255
Combo3 : 62,255,255
Combo4 : 23,168,255
Combo5 : 100,170,208

[HitObjects]
256,32,330,1,4
131,156,717,5,2
211,124,910,1,0
299,124,1104,1,2
379,156,1297,1,0
460,312,1684,2,2,B|408:384|304:376|256:296,1,220,0|2
226,239,2265,1,2
101,364,2652,2,2,B|48:352|39:313|40:280,1,110,2|2
118,124,3233,6,2,B|240:124,1,110,0|2
316,124,3620,5,0
316,124,3717,1,0
316,124,3813,1,0
316,124,3910,1,0
316,124,4007,1,0
316,124,4104,1,0
316,124,4200,1,2
316,124,4297,1,0
316,124,4394,1,0
316,124,4491,1,0
316,124,4588,1,0
378,187,4781,5,0
316,249,4975,1,2
254,187,5168,1,0
191,125,5362,1,8
152,208,5555,2,0,B|174:293|268:294,2,110
254,187,6136,2,2,B|342:126,1,55,8|0
400,68,6523,1,6
234,127,6910,5,2
149,104,7104,1,0
65,77,7297,1,2
65,165,7491,2,0,B|188:209,1,110,0|0
253,230,7878,2,0,B|332:248|388:185|364:105|306:97|287:94,1,220,0|2
224,125,8459,1,0
151,174,8652,1,2
106,250,8846,2,0,B|111:320|191:320,1,110,2|2
376,352,9426,5,0
288,352,9620,2,0,B|216:312|184:224|264:152|384:200|376:264|328:304|232:280|224:256|216:208|216:160|272:120|136:112,2,440,6|2|6
464,248,12039,5,0
424,264,12136,1,2
384,272,12233,1,2
336,272,12330,1,2
296,264,12426,1,2
264,232,12523,2,0,B|253:217|249:193|217:199,2,55,6|0|6
264,320,12910,1,0
224,344,13007,1,0
184,344,13104,1,8
168,256,13297,1,0
120,256,13394,1,6
72,184,13588,5,0
88,144,13684,1,2
128,120,13781,1,2
168,112,13878,1,2
216,112,13975,1,2
256,112,14071,2,0,B|288:96|288:64,4,55,2|2|2|2|2
200,184,14652,1,8
168,256,14846,1,0
168,296,14942,1,2
120,368,15136,1,2
208,368,15330,1,2
120,368,15523,1,2
208,368,15717,5,0
248,352,15813,1,4
320,304,16007,2,0,B|376:304|376:360,2,55,0|0|2
360,224,16394,2,0,B|416:224|416:280,1,55,0|6
432,328,16684,5,0
400,304,16781,1,2
360,280,16878,1,2
320,264,16975,1,2
280,248,17071,1,2
240,240,17168,1,0
200,240,17265,1,0
160,248,17362,2,0,B|112:256|104:288,2,55,2|2|2
192,168,17749,1,8
280,184,17942,1,0
320,200,18039,1,2
392,248,18233,1,2
408,160,18426,1,0
464,224,18620,1,2
432,352,18813,5,0
392,336,18910,1,4
304,352,19104,1,0
264,336,19200,1,0
224,320,19297,1,8
144,352,19491,1,0
104,336,19588,1,6
32,264,19781,5,0
56,224,19878,1,2
88,192,19975,1,2
128,168,20071,1,2
168,160,20168,1,2
216,160,20265,1,2
256,176,20362,1,2
288,208,20459,2,0,B|307:257|265:286,2,55,2|2|2
256,128,20846,1,8
344,144,21039,1,0
344,144,21136,1,2
416,192,21330,1,2
344,144,21523,1,0
256,128,21717,1,2
160,96,21910,6,0,B|104:104|96:160,1,55,0|4
112,208,22200,1,0
152,192,22297,1,0
192,176,22394,1,8
264,224,22588,1,0
224,240,22684,1,2
176,328,22878,1,0
216,312,22975,1,2
304,336,23168,1,0
344,360,23265,1,2
392,360,23362,1,2
456,296,23555,6,2,B|504:344,2,55,2|2|2
408,208,23942,1,8
352,136,24136,2,0,B|280:192,1,55,0|2
232,240,24426,1,2
232,144,24620,1,0
232,48,24813,1,2
232,48,24910,1,0
112,136,25104,5,4
40,264,25491,6,0,B|152:264,1,110,0|2
248,312,25878,2,0,B|360:312,2,110,0|2|0
147,355,26459,1,0
147,355,26555,1,0
147,355,26652,1,0
49,303,26846,1,0
25,196,27039,1,8
71,96,27233,1,0
149,174,27426,2,0,B|213:182|253:136,1,110,2|0
203,39,27813,2,0,B|326:39,1,110,8|0
432,168,28200,5,6
336,344,28588,6,0,B|256:256,1,110,0|2
192,192,28975,2,0,B|97:265,1,110,0|2
24,320,29362,1,0
18,223,29555,1,0
56,192,29652,1,0
96,160,29749,1,0
184,80,29942,1,0
96,16,30136,1,8
8,80,30330,1,0
176,120,30523,1,2
24,120,30717,1,0
232,208,30910,2,0,B|288:200|328:152|328:152,1,110,8|0
352,256,31297,6,2,B|340:305|292:305|255:302,1,110,6|2
152,296,31684,2,0,B|140:345|92:345|76:297,1,110,0|0
45,194,32071,1,0
80,88,32265,1,10
392,176,32652,6,0,B|392:304|232:304,1,220,0|10
216,160,33233,1,0
216,160,33426,1,0
424,304,33813,1,8
395,94,34200,6,0,B|332:31|272:96|180:20,2,220,8|8|12
312,360,35362,5,0
200,360,35555,1,10
48,224,35749,1,4
200,32,36136,1,0
312,32,36330,1,4
464,248,36717,1,6
344,248,36910,1,6
105,100,37297,2,2,B|81:196|161:260|241:244,1,220,4|0
240,128,37878,5,2
40,280,38265,1,0
160,352,38459,2,0,B|96:352,2,55,0|0|8
272,352,38846,1,0
384,344,39039,5,2
304,272,39233,1,0
192,264,39426,2,0,B|115:240|125:172|125:172,1,110,0|2
60,120,39813,2,0,B|12:160|7:215|66:266,2,165,2|2|2
136,80,40588,6,2,B|96:40,2,55,0|0|0
216,152,40975,1,10
328,160,41168,1,10
424,208,41362,2,2,B|464:248,2,55,0|0|0
328,160,41749,1,10
216,152,41942,1,10
120,88,42136,6,0,B|232:24|304:72|360:112,1,220,4|4
400,208,42717,2,0,B|376:225|304:273|192:209,1,220,4|4
294,141,43297,5,0
294,141,43394,1,2
294,141,43491,1,0
294,141,43588,1,0
294,141,43684,2,2,B|294:77|294:26,1,110,0|0
216,88,44071,6,0,B|208:152|144:168,1,110,2|0
82,89,44459,2,0,B|141:103|149:167,1,110,2|0
146,256,44846,2,0,B|87:242|79:178,1,110,2|0
149,54,45233,6,0,B|211:54,2,55
253,54,45620,1,8
352,80,45813,1,8
440,120,46007,1,0
456,168,46104,1,0
472,216,46200,1,0
488,264,46297,1,0
488,264,46394,1,8
272,208,46781,6,6,B|213:208|154:138|176:80|228:32,1,220,6|6
400,40,47555,1,6
496,200,47749,1,14
328,344,48136,1,2
136,298,48330,6,0,B|200:298,1,55,4|0
328,248,48620,2,0,B|264:248,1,55,0|0
112,200,48910,2,0,B|176:200,1,55,0|0
296,152,49200,2,2,B|232:152,1,55,2|4
125,103,49491,5,8
262,56,49684,1,2
386,102,49878,6,2,B|436:102|468:174|452:254|412:302|356:334|292:350,1,330,4|6
125,102,50846,2,4,B|75:102|43:174|96:248|208:240|128:304|128:312,1,220,6|8
80,360,51426,2,2,B|224:360,1,110,2|2
288,360,51813,2,2,B|352:360|352:280,2,110,0|0|10
120,248,52394,5,6
240,208,52588,1,6
448,80,52975,6,2,B|428:46|365:82|366:146|365:193|309:225,1,220,6|2
182,350,53555,2,2,B|94:350|38:278|46:158,1,220,0|8
136,168,54136,1,2
224,232,54330,1,8
320,356,54523,1,10
416,232,54717,1,2
416,336,54910,2,2,B|304:216|232:336|232:336,1,220,6|6
320,101,55684,5,12
48,40,56071,6,2,B|48:120|48:152,1,110,4|2
144,96,56459,1,0
144,152,56555,1,0
144,208,56652,1,2
240,152,56846,1,0
240,152,57039,1,2
336,208,57233,2,0,B|336:280,2,55,0|0|2
288,104,57620,5,0
384,56,57813,1,4
464,128,58007,1,4
472,240,58200,1,4
384,312,58394,1,4
288,264,58588,1,4
384,208,58781,2,0,B|340:164|288:144|233:160|186:208,1,220,4|6
256,304,59362,5,4
208,328,59459,1,0
152,320,59555,2,0,B|88:304|96:240|104:200,1,110,10|14
48,24,60136,1,0
16,128,60330,1,6
40,232,60523,1,4
128,296,60717,1,4
240,312,60910,1,4
392,152,61297,2,0,B|368:224|256:240|192:208,1,220,4|0
231,146,61878,2,0,B|297:173|348:106,1,110,2|8
264,40,62265,1,4
104,192,62652,5,10
152,280,62846,1,0
152,280,62942,1,0
152,280,63039,1,0
224,344,63233,1,0
320,352,63426,1,8
280,264,63620,1,0
384,336,63813,2,2,B|432:344|464:288|440:224,1,110
440,160,64200,2,2,B|360:240,1,110,2|2
272,232,64588,2,2,B|256:209|288:153|336:161,1,110,8|6
448,168,64975,1,4
448,168,65071,1,0
448,168,65168,1,0
408,48,65362,6,2,B|464:48|450:110|333:97,1,110,6|0
289,45,65749,1,2
190,45,65942,1,2
260,112,66136,2,2,B|124:112,1,110,8|2
76,176,66523,2,2,B|212:176,1,110,2|2
284,176,66910,1,8
236,264,67104,1,2
108,264,67297,1,4
356,263,67684,1,4
403,343,67878,1,2
355,359,67975,1,2
307,343,68071,2,2,B|232:320|176:352|176:352,1,110
80,256,68459,5,4
56,160,68652,1,0
56,64,68846,2,0,B|16:0|16:0,2,55,2|2|2
144,112,69233,1,8
216,184,69426,1,0
296,184,69620,1,2
336,152,69717,1,2
376,128,69814,1,2
456,64,70007,1,8
456,64,70200,1,0
456,160,70394,2,0,B|456:272|456:272,1,110,2|0
256,336,70781,5,0
256,64,71168,1,12
256,64,71362,1,12
256,64,71555,1,0
368,288,71942,5,8
256,240,72136,1,0
144,288,72330,1,2
256,64,72717,1,12
344,328,73104,1,0
168,328,73297,1,2
256,64,73684,1,4
256,192,73878,12,4,74652
