osu file format v14

[General]
AudioFilename: Y&Co. - Sweet Rain feat. Karin.mp3
AudioLeadIn: 0
PreviewTime: 49868
Countdown: 0
SampleSet: Soft
StackLeniency: 0.3
Mode: 0
LetterboxInBreaks: 0
EpilepsyWarning: 1
WidescreenStoryboard: 1

[Editor]
DistanceSpacing: 1.1
BeatDivisor: 4
GridSize: 4
TimelineZoom: 1.8

[Metadata]
Title:Sweet Rain feat. Karin
TitleUnicode:Sweet Rain feat. Karin
Artist:Y&Co.
ArtistUnicode:Y&Co.
Creator:Gero
Version:Sweet Heart
Source:REFLEC BEAT limelight
Tags:ユビート jubeat knit コナミスタイル Konami Style BEST HIT YCO Full Version Nhawak Natsu Kanari Hanjamon Xinely ZiRoX alienflybot Rumia- -_R_u_m_i_a_- ExUsagi ajeemaniz
BeatmapID:587953
BeatmapSetID:256625

[Difficulty]
HPDrainRate:7
CircleSize:4
OverallDifficulty:8
ApproachRate:9
SliderMultiplier:2
SliderTickRate:2

[Events]
//Background and Video events
0,0,"BG.jpg",0,0
//Break Periods
//Storyboard Layer 0 (Background)
//Storyboard Layer 1 (Fail)
//Storyboard Layer 2 (Pass)
//Storyboard Layer 3 (Foreground)
//Storyboard Sound Samples

[TimingPoints]
465,387.096774193548,4,2,1,80,1,0
12464,-100,4,2,2,80,0,0
12852,-100,4,2,1,80,0,1
25239,-100,4,2,1,80,0,0
50013,-100,4,2,1,80,0,1
62303,-100,4,2,1,80,0,0
62400,-100,4,2,1,80,0,1
74690,-100,4,2,1,80,0,0
74787,-100,4,2,1,80,0,1
87174,-100,4,2,1,80,0,0
111948,-100,4,2,1,80,0,1
124239,-100,4,2,1,80,0,0
124335,-100,4,2,1,80,0,1
136626,-100,4,2,1,80,0,0
136723,-100,4,2,1,80,0,1
149110,-100,4,2,1,80,0,0
161497,-100,4,2,1,80,0,1
173884,-100,4,2,1,80,0,0
186271,-100,4,2,1,80,0,1
198561,-100,4,2,1,80,0,0
198658,-100,4,2,1,80,0,1
211045,-100,4,2,1,80,0,0

[Colours]
Combo1 : 242,72,72
Combo2 : 116,168,199
Combo3 : 209,206,97

[HitObjects]
256,360,465,5,0,0:0:0:0:
167,291,658,2,0,P|256:252|345:291,1,200
256,360,1239,1,0,0:0:0:0:
208,160,1433,1,0,0:0:0:0:
208,160,1529,1,0,0:0:0:0:
208,160,1626,2,0,B|256:146|256:146|304:160,1,100,0|0,0:0|0:0,0:0:0:0:
352,60,2013,6,0,P|256:36|160:60,1,200,0|0,0:0|0:0,0:0:0:0:
60,108,2594,1,0,0:0:0:0:
60,108,2691,1,0,0:0:0:0:
60,108,2787,2,0,P|47:60|60:12,1,100
208,160,3175,2,0,P|220:207|207:255,1,100
32,280,3562,5,0,0:0:0:0:
32,280,3658,1,0,0:0:0:0:
32,280,3755,1,0,0:0:0:0:
116,208,3949,2,0,L|336:208,1,200
470,116,4529,1,0,0:0:0:0:
470,116,4626,1,0,0:0:0:0:
470,116,4723,2,0,B|432:116|432:116|424:112|424:112|424:120|424:120|416:116|416:116|380:116,1,100
281,27,5110,6,0,B|256:24|256:24|231:27,1,50
60,108,5303,2,0,B|85:111|85:111|110:108,1,50,0|0,0:0|0:0,0:0:0:0:
264,56,5497,6,0,B|239:53|239:53|214:56,1,50
43,137,5690,2,0,B|68:140|68:140|93:137,1,50,0|0,0:0|0:0,0:0:0:0:
248,88,5884,6,0,B|223:85|223:85|198:88,1,50
27,169,6077,2,0,B|52:172|52:172|77:169,1,50,0|0,0:0|0:0,0:0:0:0:
232,124,6271,6,0,L|272:124,8,25,0|0|0|0|0|0|0|0|0,0:0|0:0|0:0|0:0|0:0|0:0|0:0|0:0|0:0,0:0:0:0:
8,196,6852,2,0,P|-4:243|9:291,1,100
216,248,7239,2,0,P|228:201|215:153,1,100
112,276,7626,1,0,0:0:0:0:
112,276,7723,1,0,0:0:0:0:
112,276,7819,2,0,L|140:376,1,100
275,318,8206,6,0,B|252:229|252:229|251:214|251:214|232:124,1,200
320,56,8787,1,0,0:0:0:0:
320,56,8884,1,0,0:0:0:0:
320,56,8981,2,0,P|367:44|415:57,1,100
232,124,9368,2,0,P|185:136|137:123,1,100
64,52,9658,1,0,0:0:0:0:
64,52,9755,6,0,L|124:244,1,200
120,246,10239,1,0,0:0:0:0:
116,249,10335,1,0,0:0:0:0:
208,360,10529,5,0,0:0:0:0:
208,360,10626,1,0,0:0:0:0:
208,360,10723,2,0,P|256:372|304:360,1,100
396,249,11110,5,0,0:0:0:0:
392,246,11206,1,0,0:0:0:0:
388,242,11303,6,0,L|416:200,1,50,0|0,0:0|0:0,0:0:0:0:
360,48,11497,2,0,L|332:90,1,50,0|0,0:0|0:0,0:0:0:0:
360,220,11690,6,0,L|388:178,1,50,0|0,0:0|0:0,0:0:0:0:
332,26,11884,2,0,L|304:68,1,50,0|0,0:0|0:0,0:0:0:0:
328,196,12077,5,0,0:0:0:0:
340,175,12174,1,0,0:0:0:0:
354,156,12271,1,0,0:0:0:0:
369,137,12368,1,0,0:0:0:0:
382,117,12464,5,0,0:0:0:0:
352,336,12852,6,0,B|264:336|264:336|256:344|256:344|248:352|248:352|144:352,1,200,0|0,0:0|0:0,0:0:0:0:
68,288,13432,1,0,0:0:0:0:
68,288,13529,1,0,0:0:0:0:
68,288,13626,2,0,P|56:240|68:192,1,100
166,35,14013,2,0,P|178:83|166:132,1,100
66,84,14400,5,0,0:0:0:0:
66,84,14497,1,0,0:0:0:0:
66,84,14594,1,0,0:0:0:0:
166,36,14787,2,0,B|202:36|202:36|210:40|210:40|210:32|210:32|218:36|218:36|256:36,1,100
420,116,15174,2,0,B|382:116|382:116|374:112|374:112|374:120|374:120|366:116|366:116|330:116,1,100
327,120,15464,1,0,0:0:0:0:
324,124,15561,1,0,0:0:0:0:
256,212,15755,1,0,0:0:0:0:
168,344,15948,5,0,0:0:0:0:
207,373,16044,1,0,0:0:0:0:
256,383,16141,1,0,0:0:0:0:
304,373,16238,1,0,0:0:0:0:
344,343,16335,1,0,0:0:0:0:
256,212,16529,5,0,0:0:0:0:
256,212,16626,1,0,0:0:0:0:
256,212,16723,2,0,B|242:260|242:260|256:308,1,100
448,376,17110,2,0,B|462:328|462:328|448:280,1,100
256,36,17497,5,0,0:0:0:0:
226,75,17593,1,0,0:0:0:0:
216,124,17690,1,0,0:0:0:0:
226,172,17787,1,0,0:0:0:0:
256,212,17884,1,0,0:0:0:0:
448,376,18077,5,0,0:0:0:0:
477,336,18173,1,0,0:0:0:0:
487,287,18270,1,0,0:0:0:0:
477,239,18367,1,0,0:0:0:0:
447,199,18464,1,0,0:0:0:0:
256,36,18658,6,0,B|208:36|208:36|168:68,1,100
163,72,18948,1,0,0:0:0:0:
160,76,19045,1,0,0:0:0:0:
60,124,19239,1,0,0:0:0:0:
60,124,19335,1,0,0:0:0:0:
60,124,19432,6,0,P|48:76|60:28,1,100
144,172,19723,1,0,0:0:0:0:
144,172,19819,2,0,P|156:220|144:268,1,100
48,320,20206,5,0,0:0:0:0:
72,332,20303,1,0,0:0:0:0:
92,344,20400,1,0,0:0:0:0:
112,356,20497,1,0,0:0:0:0:
284,360,20594,5,0,0:0:0:0:
264,348,20691,1,0,0:0:0:0:
244,336,20788,1,0,0:0:0:0:
220,324,20885,1,0,0:0:0:0:
356,280,20981,5,0,0:0:0:0:
380,292,21078,1,0,0:0:0:0:
400,304,21175,1,0,0:0:0:0:
420,316,21272,1,0,0:0:0:0:
464,188,21368,5,0,0:0:0:0:
440,176,21465,1,0,0:0:0:0:
420,164,21562,1,0,0:0:0:0:
400,152,21659,1,0,0:0:0:0:
228,148,21756,5,0,0:0:0:0:
248,160,21853,1,0,0:0:0:0:
268,172,21948,1,0,0:0:0:0:
292,184,22045,1,0,0:0:0:0:
156,228,22143,5,0,0:0:0:0:
132,216,22240,1,0,0:0:0:0:
112,204,22335,1,0,0:0:0:0:
92,192,22432,1,0,0:0:0:0:
0,112,22529,6,0,P|32:72|84:52,1,100
156,4,22819,2,0,B|142:52|142:52|156:100,1,100
240,52,23110,6,0,L|256:4,1,50
392,88,23303,2,0,L|408:136,1,50
276,232,23497,2,0,L|292:184,1,50
432,288,23690,5,0,0:0:0:0:
256,376,23981,1,0,0:0:0:0:
80,288,24271,1,0,0:0:0:0:
152,108,24561,1,0,0:0:0:0:
360,108,24852,1,0,0:0:0:0:
432,288,25045,2,0,L|456:312,3,25,0|0|0|0,0:0|0:0|0:0|0:0,0:0:0:0:
468,324,25239,6,0,P|456:277|469:229,1,100,0|0,0:0|0:0,0:0:0:0:
360,108,25626,2,0,P|371:155|358:203,2,100,0|0|0,0:0|0:0|0:0,0:0:0:0:
304,12,26206,1,0,0:0:0:0:
304,12,26303,1,0,0:0:0:0:
304,12,26400,2,0,B|256:28|256:28|208:12,1,100
152,108,26787,6,0,P|140:155|153:203,1,100,0|0,0:0|0:0,0:0:0:0:
256,248,27174,1,0,0:0:0:0:
344,312,27368,2,0,B|288:324|256:356|256:356|224:324|168:312,1,200
256,248,27948,1,0,0:0:0:0:
396,144,28142,5,0,0:0:0:0:
396,144,28239,1,0,0:0:0:0:
396,144,28335,2,0,P|452:144|488:120,1,100
280,16,28723,2,0,P|224:16|188:40,1,100
256,248,29110,5,0,0:0:0:0:
271,214,29206,1,0,0:0:0:0:
276,178,29303,1,0,0:0:0:0:
272,141,29400,1,0,0:0:0:0:
258,107,29497,1,0,0:0:0:0:
160,200,29690,1,0,0:0:0:0:
160,200,29787,1,0,0:0:0:0:
160,200,29883,6,0,P|147:248|160:296,1,100
256,348,30271,1,0,0:0:0:0:
352,295,30464,2,0,P|364:247|352:200,1,100
384,96,30852,1,0,0:0:0:0:
384,96,30948,1,0,0:0:0:0:
384,96,31045,2,0,B|428:120|428:120|480:120,1,100
300,24,31432,6,0,L|100:48,1,200
24,192,32013,1,0,0:0:0:0:
56,188,32109,1,0,0:0:0:0:
84,184,32206,5,0,0:0:0:0:
114,181,32303,1,0,0:0:0:0:
145,177,32400,1,0,0:0:0:0:
175,173,32496,1,0,0:0:0:0:
205,170,32593,1,0,0:0:0:0:
318,284,32787,1,0,0:0:0:0:
288,288,32884,1,0,0:0:0:0:
258,291,32981,6,0,L|158:303,2,100,0|0|0,0:0|0:0|0:0,0:0:0:0:
368,276,33561,2,0,P|414:192|368:108,1,200
296,192,34142,1,0,0:0:0:0:
500,240,34335,1,0,0:0:0:0:
500,240,34432,1,0,0:0:0:0:
500,240,34529,6,0,P|512:192|500:144,1,100
368,276,34916,2,0,P|356:324|368:372,1,100
500,144,35303,1,0,0:0:0:0:
304,44,35497,5,0,0:0:0:0:
304,44,35594,1,0,0:0:0:0:
304,44,35690,2,0,B|256:29|256:29|208:44,1,100
256,144,36077,1,0,0:0:0:0:
312,240,36271,2,0,B|272:268|256:320|256:320|240:268|200:240,2,200,0|0|0,0:0|0:0|0:0,0:0:0:0:
256,92,37239,6,0,L|256:117,7,25,0|0|0|0|0|0|0|0,0:0|0:0|0:0|0:0|0:0|0:0|0:0|0:0,0:0:0:0:
256,144,37626,5,0,0:0:0:0:
312,240,37819,2,0,B|352:240|352:240|360:236|360:236|360:244|360:244|368:240|368:240|408:240,1,100
200,240,38206,2,0,B|160:240|160:240|152:236|152:236|152:244|152:244|144:240|144:240|104:240,1,100
256,340,38594,1,0,0:0:0:0:
256,340,38690,1,0,0:0:0:0:
256,340,38787,1,0,0:0:0:0:
348,132,38981,6,0,P|256:99|164:132,1,200
88,212,39561,1,0,0:0:0:0:
12,132,39755,1,0,0:0:0:0:
12,132,39852,1,0,0:0:0:0:
12,132,39948,2,0,B|-2:84|-2:84|12:36,2,100,0|0|0,0:0|0:0|0:0,0:0:0:0:
112,84,40529,2,0,B|152:44|200:44|200:44|304:44,1,200
318,61,41013,1,0,0:0:0:0:
335,78,41110,1,0,0:0:0:0:
400,164,41303,5,0,0:0:0:0:
382,181,41400,1,0,0:0:0:0:
364,198,41497,1,0,0:0:0:0:
324,376,41690,6,0,B|384:320|384:320|412:308|412:308|476:248,1,200,0|0,0:0|0:0,0:0:0:0:
280,256,42271,2,0,L|207:324,1,100
248,152,42658,1,0,0:0:0:0:
248,152,42755,1,0,0:0:0:0:
248,152,42852,2,0,L|392:296,1,200,0|0,0:0|0:0,0:0:0:0:
488,344,43432,1,0,0:0:0:0:
280,256,43626,1,0,0:0:0:0:
488,124,43819,6,0,P|501:76|489:28,1,100,0|0,0:0|0:0,0:0:0:0:
396,192,44206,2,0,P|382:239|394:287,1,100,0|0,0:0|0:0,0:0:0:0:
256,352,44594,1,0,0:0:0:0:
273,305,44690,1,0,0:0:0:0:
280,256,44787,1,0,0:0:0:0:
273,206,44884,1,0,0:0:0:0:
256,160,44981,5,0,0:0:0:0:
152,120,45174,2,0,B|240:120|240:120|264:112|264:112|352:112,1,200,0|0,0:0|0:0,0:0:0:0:
416,24,45755,1,0,0:0:0:0:
416,24,45852,1,0,0:0:0:0:
416,24,45948,6,0,P|376:112|416:200,1,200,0|0,0:0|0:0,0:0:0:0:
480,108,46529,1,0,0:0:0:0:
288,48,46723,1,0,0:0:0:0:
288,48,46819,1,0,0:0:0:0:
288,48,46916,6,0,B|236:48|236:48|196:20,1,100
60,92,47303,2,0,B|112:92|112:92|152:120,1,100,0|0,0:0|0:0,0:0:0:0:
154,123,47594,1,0,0:0:0:0:
157,126,47690,1,0,0:0:0:0:
84,320,47884,2,0,P|56:251|84:183,1,150
157,126,48271,5,0,0:0:0:0:
428,320,48464,1,0,0:0:0:0:
80,320,48658,1,0,0:0:0:0:
355,126,48852,1,0,0:0:0:0:
256,384,49045,1,0,0:0:0:0:
256,384,49432,6,0,L|256:344,11,25,0|0|0|0|0|0|0|0|0|0|0|0,0:0|0:0|0:0|0:0|0:0|0:0|0:0|0:0|0:0|0:0|0:0|0:0,0:0:0:0:
256,332,50013,5,0,0:0:0:0:
304,232,50206,1,0,0:0:0:0:
304,232,50303,1,0,0:0:0:0:
304,232,50400,2,0,P|256:219|208:232,1,100
208,360,50787,1,0,0:0:0:0:
208,360,50884,1,0,0:0:0:0:
208,360,50981,2,0,P|256:373|304:360,1,100
352,124,51368,6,0,P|256:100|160:124,1,200
72,192,51948,1,0,0:0:0:0:
8,100,52142,1,0,0:0:0:0:
8,100,52238,1,0,0:0:0:0:
8,100,52335,6,0,B|-6:52|-6:52|8:4,1,100,0|0,0:0|0:0,0:0:0:0:
160,124,52626,1,0,0:0:0:0:
160,124,52723,2,0,B|174:172|174:172|160:220,1,100,0|0,0:0|0:0,0:0:0:0:
96,56,53013,1,0,0:0:0:0:
96,56,53110,6,0,L|296:56,1,200
400,16,53690,1,0,0:0:0:0:
256,160,53884,6,0,B|253:185|253:185|256:210,1,50
384,248,54077,2,0,B|387:223|387:223|384:198,1,50,0|0,0:0|0:0,0:0:0:0:
288,320,54271,2,0,B|285:345|285:345|288:370,1,50,0|0,0:0|0:0,0:0:0:0:
472,316,54464,6,0,P|496:220|472:124,1,200
340,32,55045,1,0,0:0:0:0:
322,78,55141,1,0,0:0:0:0:
316,128,55238,1,0,0:0:0:0:
322,177,55335,1,0,0:0:0:0:
340,224,55432,5,0,0:0:0:0:
472,316,55626,1,0,0:0:0:0:
472,316,55723,1,0,0:0:0:0:
472,316,55819,2,0,P|485:268|472:220,1,100
416,128,56110,1,0,0:0:0:0:
416,128,56206,6,0,B|384:92|324:92|324:92|220:92,1,200,0|0,0:0|0:0,0:0:0:0:
140,24,56787,1,0,0:0:0:0:
72,108,56981,5,0,0:0:0:0:
72,108,57077,1,0,0:0:0:0:
72,108,57174,2,0,L|48:160,1,50
164,240,57368,2,0,L|143:194,1,50,0|0,0:0|0:0,0:0:0:0:
44,256,57561,2,0,L|23:301,1,50
120,336,57755,6,0,P|168:348|216:336,1,100
392,259,58142,1,0,0:0:0:0:
392,259,58239,1,0,0:0:0:0:
392,259,58335,2,0,P|344:247|296:260,1,100,0|0,0:0|0:0,0:0:0:0:
344,360,58723,1,0,0:0:0:0:
392,259,58916,2,0,L|356:160,1,100
448,100,59303,6,0,B|408:56|352:56|352:56|260:56,1,200
176,128,59884,1,0,0:0:0:0:
108,216,60077,1,0,0:0:0:0:
78,176,60173,1,0,0:0:0:0:
68,127,60270,1,0,0:0:0:0:
78,79,60367,1,0,0:0:0:0:
108,39,60464,1,0,0:0:0:0:
176,128,60658,1,0,0:0:0:0:
28,288,60852,5,0,0:0:0:0:
28,288,60948,1,0,0:0:0:0:
28,288,61045,2,0,B|-12:240,1,50,0|0,0:0|0:0,0:0:0:0:
108,344,61239,2,0,B|140:382,1,50,0|0,0:0|0:0,0:0:0:0:
140,254,61432,6,0,B|108:216,1,50,0|0,0:0|0:0,0:0:0:0:
219,309,61626,2,0,B|252:348,1,50,0|0,0:0|0:0,0:0:0:0:
208,166,61819,6,0,B|176:128,1,50,0|0,0:0|0:0,0:0:0:0:
286,220,62013,2,0,B|319:259,1,50,0|0,0:0|0:0,0:0:0:0:
416,316,62303,1,0,0:0:0:0:
416,316,62400,6,0,B|429:268|429:268|416:220,1,100
492,140,62787,1,0,0:0:0:0:
414,62,62981,1,0,0:0:0:0:
383,58,63077,1,0,0:0:0:0:
353,54,63174,5,0,0:0:0:0:
323,50,63271,1,0,0:0:0:0:
292,46,63368,1,0,0:0:0:0:
262,42,63464,1,0,0:0:0:0:
232,38,63561,1,0,0:0:0:0:
60,107,63755,5,0,0:0:0:0:
60,107,63852,1,0,0:0:0:0:
60,107,63948,2,0,L|160:120,1,100
232,198,64335,1,0,0:0:0:0:
232,198,64432,1,0,0:0:0:0:
232,198,64529,6,0,P|272:286|232:374,1,200,0|0,0:0|0:0,0:0:0:0:
168,284,65110,1,0,0:0:0:0:
364,228,65303,1,0,0:0:0:0:
364,228,65400,1,0,0:0:0:0:
364,228,65497,6,0,P|376:275|363:323,1,100,0|0,0:0|0:0,0:0:0:0:
232,200,65884,2,0,P|220:153|233:105,1,100,0|0,0:0|0:0,0:0:0:0:
368,36,66271,6,0,L|400:84,1,50
468,176,66464,2,0,L|495:134,1,50
364,228,66658,2,0,L|396:276,1,50
484,356,66852,6,0,P|395:317|306:356,1,200,0|0,0:0|0:0,0:0:0:0:
25,312,67432,1,0,0:0:0:0:
66,340,67528,1,0,0:0:0:0:
114,350,67625,1,0,0:0:0:0:
163,340,67722,1,0,0:0:0:0:
203,312,67819,5,0,0:0:0:0:
110,156,68013,1,0,0:0:0:0:
110,156,68110,1,0,0:0:0:0:
110,156,68206,2,0,P|98:204|112:252,1,100
204,96,68594,6,0,B|112:108|112:108|96:116|96:116|8:128,1,200,0|0,0:0|0:0,0:0:0:0:
256,20,69174,1,0,0:0:0:0:
256,20,69271,1,0,0:0:0:0:
256,20,69368,2,0,B|281:17|281:17|306:20,1,50
477,101,69561,2,0,B|452:104|452:104|427:101,1,50,0|0,0:0|0:0,0:0:0:0:
228,64,69755,6,0,B|253:61|253:61|278:64,1,50
449,145,69948,2,0,B|424:148|424:148|399:145,1,50,0|0,0:0|0:0,0:0:0:0:
204,96,70142,5,0,0:0:0:0:
100,60,70335,2,0,P|51:47|3:60,1,100
3,60,70626,1,0,0:0:0:0:
3,60,70723,1,0,0:0:0:0:
160,192,70916,2,0,P|208:204|256:191,1,100
328,108,71303,1,0,0:0:0:0:
204,260,71497,1,0,0:0:0:0:
204,260,71594,1,0,0:0:0:0:
204,260,71690,6,0,L|240:353,1,100
364,201,72077,2,0,L|328:108,1,100
256,24,72464,5,0,0:0:0:0:
220,31,72560,1,0,0:0:0:0:
192,54,72657,1,0,0:0:0:0:
179,88,72755,1,0,0:0:0:0:
182,125,72851,1,0,0:0:0:0:
202,155,72947,1,0,0:0:0:0:
235,172,73044,1,0,0:0:0:0:
271,172,73141,1,0,0:0:0:0:
303,154,73238,1,0,0:0:0:0:
324,124,73334,1,0,0:0:0:0:
333,88,73432,6,0,B|336:63|336:63|333:39,1,50
235,172,73626,2,0,B|232:197|232:197|235:221,1,50
364,250,73819,6,0,B|367:225|367:225|364:201,1,50
296,320,74013,1,0,0:0:0:0:
324,348,74110,1,0,0:0:0:0:
364,356,74206,1,0,0:0:0:0:
404,348,74303,1,0,0:0:0:0:
432,320,74400,6,0,L|452:300,6,25
468,280,74787,6,0,B|420:264|376:280|376:280|368:272|368:272|328:292|276:279,1,200
176,228,75367,1,0,0:0:0:0:
176,228,75464,1,0,0:0:0:0:
176,227,75561,2,0,P|163:276|176:324,1,100
256,152,75948,2,0,P|268:104|256:55,1,100
