osu file format v12

[General]
AudioFilename: poodle.mp3
AudioLeadIn: 0
PreviewTime: 40778
Countdown: 0
SampleSet: Soft
StackLeniency: 0.7
Mode: 3
LetterboxInBreaks: 0
SpecialStyle: 0
WidescreenStoryboard: 1

[Editor]
DistanceSpacing: 0.8
BeatDivisor: 4
GridSize: 16

[Metadata]
Title:POODLE
TitleUnicode:POODLE
Artist:Y&Co.
ArtistUnicode:Y&Co.
Creator:17VA
Version:7K HyPew
Source:beatmania IIDX
Tags:12th happy sky konami expew -_R_u_m_i_a_-
BeatmapID:326715
BeatmapSetID:125785

[Difficulty]
HPDrainRate:7
CircleSize:7
OverallDifficulty:8
ApproachRate:5
SliderMultiplier:1.4
SliderTickRate:1

[Events]
//Background and Video events
0,0,"lolbgggg.jpg",0,0
//Break Periods
//Storyboard Layer 0 (Background)
//Storyboard Layer 1 (Fail)
//Storyboard Layer 2 (Pass)
//Storyboard Layer 3 (Foreground)
//Storyboard Sound Samples
//Background Colour Transformations
3,100,163,162,255

[TimingPoints]
1778,375,4,2,1,30,1,0
13778,-117.647058823529,4,2,1,30,0,0
15090,-111.111111111111,4,2,1,30,0,0
15184,-105.263157894737,4,2,1,30,0,0
15278,-100,4,2,1,30,0,0
40778,-100,4,2,1,30,0,1
58778,-100,4,2,1,30,0,0
85778,-100,4,2,1,30,0,1
103778,-100,4,2,1,30,0,0
117090,-100,4,2,1,25,0,0

[HitObjects]
475,192,278,1,0,0:0:0:35:Snare Basic.wav
109,192,278,1,0,0:0:0:0:
36,192,465,1,0,0:0:0:50:CB_Kick.wav
256,192,465,1,0,0:0:0:0:
475,192,653,1,0,0:0:0:35:Snare Basic.wav
182,192,653,1,0,0:0:0:0:
36,192,840,1,0,0:0:0:50:CB_Kick.wav
329,192,840,1,0,0:0:0:0:
475,192,1028,1,0,0:0:0:35:Snare Basic.wav
256,192,1028,1,0,0:0:0:0:
36,192,1215,1,0,0:0:0:50:CB_Kick.wav
402,192,1215,1,0,0:0:0:0:
475,192,1403,1,0,0:0:0:35:Snare Basic.wav
256,192,1403,1,0,0:0:0:0:
109,192,1403,1,0,0:0:0:0:
182,192,1778,1,0,0:0:0:0:
36,192,1778,1,0,0:0:0:50:CB_Kick.wav
329,192,1778,1,4,0:0:0:0:
182,192,1965,1,0,0:0:0:0:
256,192,2153,1,0,0:0:0:0:
36,192,2153,1,0,0:0:0:50:CB_Kick.wav
475,192,2153,1,0,0:0:0:30:Clap Basic.wav
109,192,2340,1,0,0:0:0:0:
256,192,2434,1,0,0:0:0:0:
36,192,2528,1,0,0:0:0:50:CB_Kick.wav
109,192,2715,1,0,0:0:0:0:
182,192,2903,1,0,0:0:0:0:
36,192,2903,1,0,0:0:0:50:CB_Kick.wav
475,192,2903,1,0,0:0:0:30:Clap Basic.wav
182,192,3090,1,0,0:0:0:0:
256,192,3278,1,0,0:0:0:0:
36,192,3278,1,0,0:0:0:50:CB_Kick.wav
256,192,3465,1,0,0:0:0:0:
329,192,3653,1,0,0:0:0:0:
36,192,3653,1,0,0:0:0:50:CB_Kick.wav
475,192,3653,1,0,0:0:0:30:Clap Basic.wav
182,192,3840,1,0,0:0:0:0:
329,192,3934,1,0,0:0:0:0:
36,192,4028,1,0,0:0:0:50:CB_Kick.wav
182,192,4215,1,0,0:0:0:0:
256,192,4403,1,0,0:0:0:0:
36,192,4403,1,0,0:0:0:50:CB_Kick.wav
475,192,4403,1,0,0:0:0:30:Clap Basic.wav
256,192,4590,1,0,0:0:0:0:
329,192,4778,1,0,0:0:0:0:
36,192,4778,1,0,0:0:0:50:CB_Kick.wav
329,192,4965,1,0,0:0:0:0:
402,192,5153,1,0,0:0:0:0:
36,192,5153,1,0,0:0:0:50:CB_Kick.wav
475,192,5153,1,0,0:0:0:30:Clap Basic.wav
256,192,5340,1,0,0:0:0:0:
402,192,5434,1,0,0:0:0:0:
36,192,5528,1,0,0:0:0:50:CB_Kick.wav
256,192,5715,1,0,0:0:0:0:
329,192,5903,1,0,0:0:0:0:
36,192,5903,1,0,0:0:0:50:CB_Kick.wav
475,192,5903,1,0,0:0:0:30:Clap Basic.wav
329,192,6090,1,0,0:0:0:0:
402,192,6278,1,0,0:0:0:0:
36,192,6278,1,0,0:0:0:50:CB_Kick.wav
402,192,6465,1,0,0:0:0:0:
256,192,6653,1,0,0:0:0:0:
36,192,6653,1,0,0:0:0:50:CB_Kick.wav
475,192,6653,1,0,0:0:0:30:Clap Basic.wav
329,192,6840,1,0,0:0:0:0:
182,192,6934,1,0,0:0:0:0:
36,192,7028,1,0,0:0:0:50:CB_Kick.wav
109,192,7215,1,0,0:0:0:0:
256,192,7403,1,0,0:0:0:0:
36,192,7403,1,0,0:0:0:50:CB_Kick.wav
475,192,7403,1,0,0:0:0:30:Clap Basic.wav
402,192,7590,1,0,0:0:0:0:
329,192,7778,1,0,0:0:0:0:
475,192,7778,1,0,0:0:0:50:CB_Kick.wav
329,192,7965,1,0,0:0:0:0:
256,192,8153,1,0,0:0:0:0:
475,192,8153,1,0,0:0:0:50:CB_Kick.wav
36,192,8153,1,0,0:0:0:30:Clap Basic.wav
402,192,8340,1,0,0:0:0:0:
256,192,8434,1,0,0:0:0:0:
475,192,8528,1,0,0:0:0:50:CB_Kick.wav
402,192,8715,1,0,0:0:0:0:
36,192,8903,1,0,0:0:0:30:Clap Basic.wav
475,192,8903,1,0,0:0:0:50:CB_Kick.wav
329,192,8903,1,0,0:0:0:0:
329,192,9090,1,0,0:0:0:0:
475,192,9278,1,0,0:0:0:50:CB_Kick.wav
256,192,9278,1,0,0:0:0:0:
256,192,9465,1,0,0:0:0:0:
475,192,9653,1,0,0:0:0:50:CB_Kick.wav
36,192,9653,1,0,0:0:0:30:Clap Basic.wav
182,192,9653,1,0,0:0:0:0:
329,192,9840,1,0,0:0:0:0:
182,192,9934,1,0,0:0:0:0:
475,192,10028,1,0,0:0:0:50:CB_Kick.wav
329,192,10215,1,0,0:0:0:0:
475,192,10403,1,0,0:0:0:50:CB_Kick.wav
36,192,10403,1,0,0:0:0:30:Clap Basic.wav
256,192,10403,1,0,0:0:0:0:
256,192,10590,1,0,0:0:0:0:
475,192,10778,1,0,0:0:0:50:CB_Kick.wav
182,192,10778,1,0,0:0:0:0:
182,192,10965,1,0,0:0:0:0:
475,192,11153,1,0,0:0:0:50:CB_Kick.wav
36,192,11153,1,0,0:0:0:30:Clap Basic.wav
109,192,11153,1,0,0:0:0:0:
256,192,11340,1,0,0:0:0:0:
109,192,11434,1,0,0:0:0:0:
475,192,11528,1,0,0:0:0:50:CB_Kick.wav
256,192,11715,1,0,0:0:0:0:
36,192,11903,1,0,0:0:0:30:Clap Basic.wav
182,192,11903,1,0,0:0:0:0:
475,192,11903,1,0,0:0:0:50:CB_Kick.wav
182,192,12090,1,0,0:0:0:0:
109,192,12278,1,0,0:0:0:0:
475,192,12278,1,0,0:0:0:50:CB_Kick.wav
109,192,12465,1,0,0:0:0:0:
475,192,12653,1,0,0:0:0:50:CB_Kick.wav
256,192,12653,1,0,0:0:0:0:
36,192,12653,1,0,0:0:0:30:Clap Basic.wav
182,192,12840,1,0,0:0:0:0:
329,192,12934,1,0,0:0:0:0:
475,192,13028,1,0,0:0:0:50:CB_Kick.wav
402,192,13215,1,0,0:0:0:0:
475,192,13403,1,0,0:0:0:50:CB_Kick.wav
256,192,13403,1,0,0:0:0:0:
36,192,13403,1,0,0:0:0:30:Clap Basic.wav
109,192,13590,1,0,0:0:0:0:
36,192,13778,1,4,0:0:0:0:
475,192,13778,1,0,0:0:0:50:CB_Kick.wav
182,192,14153,1,0,0:0:0:35:CB_Hat.wav
182,192,14528,1,0,0:0:0:35:CB_Hat.wav
182,192,14903,1,0,0:0:0:35:CB_Hat.wav
182,192,15278,1,0,0:0:0:35:CB_Hat.wav
475,192,15278,1,0,0:0:0:35:Snare Basic.wav
329,192,15465,1,0,0:0:0:50:CB_Kick.wav
182,192,15653,1,0,0:0:0:35:CB_Hat.wav
475,192,15653,1,0,0:0:0:35:Snare Basic.wav
329,192,15840,1,0,0:0:0:50:CB_Kick.wav
182,192,16028,1,0,0:0:0:35:CB_Hat.wav
475,192,16028,1,0,0:0:0:35:Snare Basic.wav
329,192,16215,1,0,0:0:0:50:CB_Kick.wav
182,192,16403,1,0,0:0:0:35:CB_Hat.wav
475,192,16403,1,0,0:0:0:35:Snare Basic.wav
329,192,16590,1,0,0:0:0:50:CB_Kick.wav
402,192,16778,1,4,0:0:0:0:
36,192,16778,1,0,0:0:0:50:CB_Kick.wav
256,192,16965,1,0,0:0:0:20:CB_Hat.wav
109,192,17153,1,0,0:0:0:50:CB_Kick.wav
475,192,17153,1,0,0:0:0:30:Clap Basic.wav
329,192,17340,1,0,0:0:0:20:CB_Hat.wav
36,192,17528,1,0,0:0:0:50:CB_Kick.wav
182,192,17715,1,0,0:0:0:20:CB_Hat.wav
109,192,17903,1,0,0:0:0:50:CB_Kick.wav
402,192,17903,1,0,0:0:0:30:Clap Basic.wav
329,192,18090,1,0,0:0:0:20:CB_Hat.wav
36,192,18278,1,0,0:0:0:50:CB_Kick.wav
182,192,18465,1,0,0:0:0:20:CB_Hat.wav
109,192,18653,1,0,0:0:0:50:CB_Kick.wav
475,192,18653,1,0,0:0:0:30:Clap Basic.wav
256,192,18840,1,0,0:0:0:20:CB_Hat.wav
36,192,19028,1,0,0:0:0:50:CB_Kick.wav
182,192,19215,1,0,0:0:0:20:CB_Hat.wav
402,192,19403,1,0,0:0:0:30:Clap Basic.wav
109,192,19403,1,0,0:0:0:50:CB_Kick.wav
329,192,19590,1,0,0:0:0:20:CB_Hat.wav
475,192,19778,1,0,0:0:0:50:CB_Kick.wav
256,192,19965,1,0,0:0:0:20:CB_Hat.wav
402,192,20153,1,0,0:0:0:50:CB_Kick.wav
36,192,20153,1,0,0:0:0:30:Clap Basic.wav
182,192,20340,1,0,0:0:0:20:CB_Hat.wav
475,192,20528,1,0,0:0:0:50:CB_Kick.wav
329,192,20715,1,0,0:0:0:20:CB_Hat.wav
402,192,20903,1,0,0:0:0:50:CB_Kick.wav
109,192,20903,1,0,0:0:0:30:Clap Basic.wav
182,192,21090,1,0,0:0:0:20:CB_Hat.wav
475,192,21278,1,0,0:0:0:50:CB_Kick.wav
329,192,21465,1,0,0:0:0:20:CB_Hat.wav
402,192,21653,1,0,0:0:0:50:CB_Kick.wav
36,192,21653,1,0,0:0:0:30:Clap Basic.wav
256,192,21840,1,0,0:0:0:20:CB_Hat.wav
475,192,22028,1,0,0:0:0:50:CB_Kick.wav
182,192,22215,1,0,0:0:0:20:CB_Hat.wav
36,192,22215,1,0,0:0:0:0:
402,192,22403,1,0,0:0:0:50:CB_Kick.wav
109,192,22403,1,0,0:0:0:30:Clap Basic.wav
329,192,22590,1,0,0:0:0:20:CB_Hat.wav
475,192,22590,1,0,0:0:0:0:
182,192,22778,1,0,0:0:0:50:CB_Kick.wav
36,192,22965,1,0,0:0:0:20:CB_Hat.wav
329,192,23153,1,0,0:0:0:50:CB_Kick.wav
475,192,23153,1,0,0:0:0:30:Clap Basic.wav
402,192,23340,1,0,0:0:0:20:CB_Hat.wav
182,192,23528,1,0,0:0:0:50:CB_Kick.wav
36,192,23715,1,0,0:0:0:20:CB_Hat.wav
329,192,23903,1,0,0:0:0:50:CB_Kick.wav
475,192,23903,1,0,0:0:0:30:Clap Basic.wav
402,192,24090,1,0,0:0:0:20:CB_Hat.wav
182,192,24278,1,0,0:0:0:50:CB_Kick.wav
109,192,24465,1,0,0:0:0:20:CB_Hat.wav
329,192,24653,1,0,0:0:0:50:CB_Kick.wav
36,192,24653,1,0,0:0:0:30:Clap Basic.wav
475,192,24840,1,0,0:0:0:20:CB_Hat.wav
182,192,25028,1,0,0:0:0:50:CB_Kick.wav
109,192,25215,1,0,0:0:0:20:CB_Hat.wav
36,192,25403,1,0,0:0:0:30:Clap Basic.wav
329,192,25403,1,0,0:0:0:50:CB_Kick.wav
475,192,25590,1,0,0:0:0:20:CB_Hat.wav
109,192,25778,1,0,0:0:0:50:CB_Kick.wav
36,192,25965,1,0,0:0:0:20:CB_Hat.wav
402,192,26153,1,0,0:0:0:50:CB_Kick.wav
256,192,26153,1,0,0:0:0:30:Clap Basic.wav
329,192,26340,1,0,0:0:0:20:CB_Hat.wav
109,192,26528,1,0,0:0:0:50:CB_Kick.wav
36,192,26715,1,0,0:0:0:20:CB_Hat.wav
402,192,26903,1,0,0:0:0:50:CB_Kick.wav
256,192,26903,1,0,0:0:0:30:Clap Basic.wav
329,192,27090,1,0,0:0:0:20:CB_Hat.wav
109,192,27278,1,0,0:0:0:50:CB_Kick.wav
256,192,27465,1,0,0:0:0:20:CB_Hat.wav
402,192,27653,1,0,0:0:0:50:CB_Kick.wav
182,192,27653,1,0,0:0:0:30:Clap Basic.wav
329,192,27840,1,0,0:0:0:20:CB_Hat.wav
109,192,28028,1,0,0:0:0:50:CB_Kick.wav
36,192,28215,1,0,0:0:0:20:CB_Hat.wav
402,192,28403,1,0,0:0:0:50:CB_Kick.wav
182,192,28403,1,0,0:0:0:30:Clap Basic.wav
329,192,28590,1,0,0:0:0:20:CB_Hat.wav
109,192,28590,1,0,0:0:0:50:CB_Kick.wav
182,192,28778,128,0,29153:0:0:0:0:
402,192,28778,128,0,29153:0:0:0:0:
36,192,28778,1,4,0:0:0:0:
256,192,29340,128,0,29715:0:0:0:0:
402,192,29340,128,0,29715:0:0:0:0:
256,192,29903,128,0,30278:0:0:0:0:
475,192,29903,128,0,30278:0:0:0:0:
182,192,30278,1,0,0:0:0:0:
36,192,30278,1,0,0:0:0:50:CB_Kick.wav
329,192,30465,1,0,0:0:0:20:CB_Hat.wav
109,192,30653,1,0,0:0:0:50:CB_Kick.wav
402,192,30840,1,0,0:0:0:20:CB_Hat.wav
182,192,31028,1,0,0:0:0:50:CB_Kick.wav
475,192,31215,1,0,0:0:0:20:CB_Hat.wav
256,192,31403,1,0,0:0:0:50:CB_Kick.wav
402,192,31590,1,0,0:0:0:20:CB_Hat.wav
109,192,31778,128,0,32153:0:0:0:0:
329,192,31778,128,0,32153:0:0:0:0:
36,192,31778,1,4,0:0:0:0:
182,192,32340,128,0,32715:0:0:0:0:
329,192,32340,128,0,32715:0:0:0:0:
182,192,32903,128,0,33278:0:0:0:0:
402,192,32903,128,0,33278:0:0:0:0:
256,192,33278,1,0,0:0:0:0:
36,192,33278,1,0,0:0:0:50:CB_Kick.wav
329,192,33465,1,0,0:0:0:20:CB_Hat.wav
109,192,33653,1,0,0:0:0:50:CB_Kick.wav
402,192,33840,1,0,0:0:0:20:CB_Hat.wav
36,192,34028,1,0,0:0:0:50:CB_Kick.wav
475,192,34215,1,0,0:0:0:20:CB_Hat.wav
109,192,34403,1,0,0:0:0:50:CB_Kick.wav
402,192,34590,1,0,0:0:0:20:CB_Hat.wav
182,192,34778,128,0,35153:0:0:0:0:
36,192,34778,128,0,35153:0:0:0:0:
475,192,34778,1,4,0:0:0:0:
109,192,35340,128,0,35715:0:0:0:0:
402,192,35340,128,0,35715:0:0:0:0:
329,192,35903,128,0,36278:0:0:0:0:
475,192,35903,128,0,36278:0:0:0:0:
36,192,36278,1,0,0:0:0:50:CB_Kick.wav
256,192,36278,1,4,0:0:0:0:
402,192,36278,1,0,0:0:0:0:
182,192,36465,1,0,0:0:0:20:CB_Hat.wav
109,192,36653,1,0,0:0:0:50:CB_Kick.wav
256,192,36840,1,0,0:0:0:20:CB_Hat.wav
182,192,37028,1,0,0:0:0:50:CB_Kick.wav
329,192,37215,1,0,0:0:0:20:CB_Hat.wav
256,192,37403,1,0,0:0:0:50:CB_Kick.wav
402,192,37590,1,0,0:0:0:20:CB_Hat.wav
475,192,37778,1,0,0:0:0:50:CB_Kick.wav
182,192,37778,1,4,0:0:0:0:
329,192,38153,1,0,0:0:0:50:CB_Kick.wav
475,192,38528,1,0,0:0:0:50:CB_Kick.wav
109,192,38528,1,4,0:0:0:0:
329,192,38903,1,0,0:0:0:50:CB_Kick.wav
256,192,39278,1,4,0:0:0:0:
402,192,39278,1,0,0:0:0:50:CB_Kick.wav
475,192,39465,1,0,0:0:0:20:CB_Hat.wav
182,192,39653,1,4,0:0:0:0:
329,192,39653,1,0,0:0:0:50:CB_Kick.wav
402,192,39840,1,0,0:0:0:20:CB_Hat.wav
109,192,40028,1,4,0:0:0:0:
256,192,40028,1,0,0:0:0:50:CB_Kick.wav
329,192,40215,1,0,0:0:0:20:CB_Hat.wav
36,192,40403,1,4,0:0:0:0:
182,192,40403,1,0,0:0:0:50:CB_Kick.wav
256,192,40590,1,0,0:0:0:20:CB_Hat.wav
36,192,40778,1,0,0:0:0:50:CB_Kick.wav
329,192,40778,1,0,0:0:0:0:
475,192,40778,1,4,0:0:0:0:
182,192,40965,1,0,0:0:0:20:CB_Hat.wav
109,192,41153,1,0,0:0:0:50:CB_Kick.wav
402,192,41153,1,0,0:0:0:30:Clap Basic.wav
329,192,41340,1,0,0:0:0:20:CB_Hat.wav
36,192,41528,1,0,0:0:0:50:CB_Kick.wav
182,192,41715,1,0,0:0:0:20:CB_Hat.wav
109,192,41903,1,0,0:0:0:50:CB_Kick.wav
475,192,41903,1,0,0:0:0:30:Clap Basic.wav
329,192,42090,1,0,0:0:0:20:CB_Hat.wav
36,192,42278,1,0,0:0:0:50:CB_Kick.wav
182,192,42465,1,0,0:0:0:20:CB_Hat.wav
109,192,42653,1,0,0:0:0:50:CB_Kick.wav
402,192,42653,1,0,0:0:0:30:Clap Basic.wav
329,192,42840,1,0,0:0:0:20:CB_Hat.wav
36,192,43028,1,0,0:0:0:50:CB_Kick.wav
182,192,43215,1,0,0:0:0:20:CB_Hat.wav
109,192,43403,1,0,0:0:0:50:CB_Kick.wav
475,192,43403,1,0,0:0:0:30:Clap Basic.wav
329,192,43590,1,0,0:0:0:20:CB_Hat.wav
475,192,43778,1,0,0:0:0:50:CB_Kick.wav
256,192,43965,1,0,0:0:0:20:CB_Hat.wav
402,192,44153,1,0,0:0:0:50:CB_Kick.wav
182,192,44153,1,0,0:0:0:30:Clap Basic.wav
36,192,44153,1,0,0:0:0:0:
109,192,44340,1,0,0:0:0:20:CB_Hat.wav
475,192,44528,1,0,0:0:0:50:CB_Kick.wav
329,192,44715,1,0,0:0:0:20:CB_Hat.wav
402,192,44903,1,0,0:0:0:50:CB_Kick.wav
36,192,44903,1,0,0:0:0:30:Clap Basic.wav
109,192,45090,1,0,0:0:0:20:CB_Hat.wav
475,192,45278,1,0,0:0:0:50:CB_Kick.wav
329,192,45465,1,0,0:0:0:20:CB_Hat.wav
402,192,45653,1,0,0:0:0:50:CB_Kick.wav
109,192,45653,1,0,0:0:0:30:Clap Basic.wav
182,192,45840,1,0,0:0:0:20:CB_Hat.wav
475,192,46028,1,0,0:0:0:50:CB_Kick.wav
329,192,46215,1,0,0:0:0:20:CB_Hat.wav
402,192,46403,1,0,0:0:0:50:CB_Kick.wav
182,192,46403,1,0,0:0:0:30:Clap Basic.wav
256,192,46590,1,0,0:0:0:20:CB_Hat.wav
475,192,46778,1,0,0:0:0:50:CB_Kick.wav
109,192,46778,1,0,0:0:0:0:
329,192,46965,1,0,0:0:0:20:CB_Hat.wav
182,192,47153,1,0,0:0:0:50:CB_Kick.wav
36,192,47153,1,0,0:0:0:30:Clap Basic.wav
329,192,47340,1,0,0:0:0:20:CB_Hat.wav
475,192,47528,1,0,0:0:0:50:CB_Kick.wav
329,192,47715,1,0,0:0:0:20:CB_Hat.wav
182,192,47903,1,0,0:0:0:50:CB_Kick.wav
36,192,47903,1,0,0:0:0:30:Clap Basic.wav
329,192,48090,1,0,0:0:0:20:CB_Hat.wav
475,192,48278,1,0,0:0:0:50:CB_Kick.wav
402,192,48465,1,0,0:0:0:20:CB_Hat.wav
475,192,48653,1,0,0:0:0:50:CB_Kick.wav
182,192,48653,1,0,0:0:0:30:Clap Basic.wav
329,192,48840,1,0,0:0:0:20:CB_Hat.wav
475,192,49028,1,0,0:0:0:50:CB_Kick.wav
256,192,49215,1,0,0:0:0:20:CB_Hat.wav
475,192,49403,1,0,0:0:0:50:CB_Kick.wav
109,192,49403,1,0,0:0:0:30:Clap Basic.wav
329,192,49590,1,0,0:0:0:20:CB_Hat.wav
36,192,49778,1,0,0:0:0:50:CB_Kick.wav
182,192,49965,1,0,0:0:0:20:CB_Hat.wav
329,192,50153,1,0,0:0:0:50:CB_Kick.wav
475,192,50153,1,0,0:0:0:30:Clap Basic.wav
256,192,50153,1,0,0:0:0:0:
182,192,50340,1,0,0:0:0:20:CB_Hat.wav
36,192,50528,1,0,0:0:0:50:CB_Kick.wav
182,192,50715,1,0,0:0:0:20:CB_Hat.wav
329,192,50903,1,0,0:0:0:50:CB_Kick.wav
475,192,50903,1,0,0:0:0:30:Clap Basic.wav
182,192,51090,1,0,0:0:0:20:CB_Hat.wav
36,192,51278,1,0,0:0:0:50:CB_Kick.wav
109,192,51465,1,0,0:0:0:20:CB_Hat.wav
36,192,51653,1,0,0:0:0:50:CB_Kick.wav
329,192,51653,1,0,0:0:0:30:Clap Basic.wav
182,192,51840,1,0,0:0:0:20:CB_Hat.wav
36,192,52028,1,0,0:0:0:50:CB_Kick.wav
256,192,52215,1,0,0:0:0:20:CB_Hat.wav
36,192,52403,1,0,0:0:0:50:CB_Kick.wav
402,192,52403,1,0,0:0:0:30:Clap Basic.wav
182,192,52590,1,0,0:0:0:20:CB_Hat.wav
475,192,52778,1,4,0:0:0:0:
329,192,52778,1,0,0:0:0:0:
109,192,52778,1,0,0:0:0:50:CB_Kick.wav
402,192,53059,1,0,0:0:0:0:
36,192,53153,1,0,0:0:0:50:CB_Kick.wav
329,192,53340,1,0,0:0:0:0:
329,192,53528,128,0,54278:0:0:0:0:
182,192,53528,1,0,0:0:0:50:CB_Kick.wav
36,192,53903,1,0,0:0:0:50:CB_Kick.wav
475,192,53903,1,0,0:0:0:30:Clap Basic.wav
109,192,54278,1,0,0:0:0:50:CB_Kick.wav
402,192,54278,1,0,0:0:0:0:
329,192,54559,1,0,0:0:0:0:
182,192,54653,1,0,0:0:0:50:CB_Kick.wav
256,192,54840,1,0,0:0:0:0:
256,192,55028,128,0,55778:0:0:0:0:
36,192,55028,1,0,0:0:0:50:CB_Kick.wav
109,192,55403,1,0,0:0:0:50:CB_Kick.wav
402,192,55403,1,0,0:0:0:30:Clap Basic.wav
182,192,55778,1,0,0:0:0:50:CB_Kick.wav
329,192,55778,1,0,0:0:0:0:
109,192,56059,1,0,0:0:0:50:CB_Kick.wav
402,192,56059,1,0,0:0:0:0:
182,192,56340,1,0,0:0:0:50:CB_Kick.wav
329,192,56340,1,0,0:0:0:0:
36,192,56528,1,0,0:0:0:50:CB_Kick.wav
475,192,56528,1,0,0:0:0:0:
109,192,56809,1,0,0:0:0:50:CB_Kick.wav
402,192,56809,1,0,0:0:0:0:
329,192,57090,1,0,0:0:0:0:
182,192,57090,1,0,0:0:0:50:CB_Kick.wav
109,192,57278,1,0,0:0:0:50:CB_Kick.wav
402,192,57278,1,0,0:0:0:0:
256,192,57653,1,0,0:0:0:0:
256,192,58403,1,0,0:0:0:0:
329,192,58778,1,0,0:0:0:0:
182,192,58871,1,0,0:0:0:0:
402,192,58965,1,0,0:0:0:0:
109,192,59059,1,0,0:0:0:0:
475,192,59153,1,0,0:0:0:0:
36,192,59246,1,0,0:0:0:0:
402,192,59340,1,0,0:0:0:0:
109,192,59434,1,0,0:0:0:0:
329,192,59528,1,0,0:0:0:0:
182,192,59621,1,0,0:0:0:0:
329,192,59715,1,0,0:0:0:0:
182,192,59809,1,0,0:0:0:0:
402,192,59903,1,0,0:0:0:0:
109,192,59996,1,0,0:0:0:0:
402,192,60090,1,0,0:0:0:0:
109,192,60184,1,0,0:0:0:0:
182,192,60278,1,0,0:0:0:0:
329,192,60371,1,0,0:0:0:0:
109,192,60465,1,0,0:0:0:0:
402,192,60559,1,0,0:0:0:0:
36,192,60653,1,0,0:0:0:0:
475,192,60746,1,0,0:0:0:0:
109,192,60840,1,0,0:0:0:0:
402,192,60934,1,0,0:0:0:0:
182,192,61028,1,0,0:0:0:0:
329,192,61121,1,0,0:0:0:0:
182,192,61215,1,0,0:0:0:0:
329,192,61309,1,0,0:0:0:0:
109,192,61403,1,0,0:0:0:0:
402,192,61496,1,0,0:0:0:0:
109,192,61590,1,0,0:0:0:0:
402,192,61684,1,0,0:0:0:0:
36,192,61778,1,0,0:0:0:0:
182,192,61871,1,0,0:0:0:0:
329,192,61965,1,0,0:0:0:0:
475,192,62059,1,0,0:0:0:0:
36,192,62153,1,0,0:0:0:0:
182,192,62246,1,0,0:0:0:0:
329,192,62340,1,0,0:0:0:0:
475,192,62434,1,0,0:0:0:0:
109,192,62528,1,0,0:0:0:0:
256,192,62621,1,0,0:0:0:0:
402,192,62715,1,0,0:0:0:0:
182,192,62809,1,0,0:0:0:0:
329,192,62903,1,0,0:0:0:0:
109,192,62996,1,0,0:0:0:0:
402,192,63090,1,0,0:0:0:0:
256,192,63184,1,0,0:0:0:0:
475,192,63278,1,0,0:0:0:0:
329,192,63371,1,0,0:0:0:0:
182,192,63465,1,0,0:0:0:0:
36,192,63559,1,0,0:0:0:0:
475,192,63653,1,0,0:0:0:0:
329,192,63746,1,0,0:0:0:0:
182,192,63840,1,0,0:0:0:0:
36,192,63934,1,0,0:0:0:0:
402,192,64028,1,0,0:0:0:0:
256,192,64121,1,0,0:0:0:0:
109,192,64215,1,0,0:0:0:0:
329,192,64309,1,0,0:0:0:0:
182,192,64403,1,0,0:0:0:0:
402,192,64496,1,0,0:0:0:0:
109,192,64590,1,0,0:0:0:0:
256,192,64684,1,0,0:0:0:0:
36,192,64778,1,0,0:0:0:0:
182,192,64871,1,0,0:0:0:0:
109,192,64965,1,0,0:0:0:0:
256,192,65059,1,0,0:0:0:0:
182,192,65153,1,0,0:0:0:0:
329,192,65246,1,0,0:0:0:0:
256,192,65340,1,0,0:0:0:0:
402,192,65434,1,0,0:0:0:0:
475,192,65528,1,0,0:0:0:0:
329,192,65621,1,0,0:0:0:0:
182,192,65715,1,0,0:0:0:0:
402,192,65809,1,0,0:0:0:0:
256,192,65903,1,0,0:0:0:0:
109,192,65996,1,0,0:0:0:0:
329,192,66090,1,0,0:0:0:0:
182,192,66184,1,0,0:0:0:0:
475,192,66278,1,0,0:0:0:0:
329,192,66371,1,0,0:0:0:0:
402,192,66465,1,0,0:0:0:0:
256,192,66559,1,0,0:0:0:0:
329,192,66653,1,0,0:0:0:0:
182,192,66746,1,0,0:0:0:0:
256,192,66840,1,0,0:0:0:0:
109,192,66934,1,0,0:0:0:0:
36,192,67028,1,0,0:0:0:0:
182,192,67121,1,0,0:0:0:0:
329,192,67215,1,0,0:0:0:0:
109,192,67309,1,0,0:0:0:0:
256,192,67403,1,0,0:0:0:0:
402,192,67496,1,0,0:0:0:0:
182,192,67590,1,0,0:0:0:0:
329,192,67684,1,0,0:0:0:0:
475,192,67778,1,0,0:0:0:0:
36,192,67871,1,0,0:0:0:0:
329,192,67965,1,0,0:0:0:0:
182,192,68059,1,0,0:0:0:0:
475,192,68153,1,0,0:0:0:0:
36,192,68246,1,0,0:0:0:0:
329,192,68340,1,0,0:0:0:0:
182,192,68434,1,0,0:0:0:0:
402,192,68528,1,0,0:0:0:0:
109,192,68621,1,0,0:0:0:0:
329,192,68715,1,0,0:0:0:0:
182,192,68809,1,0,0:0:0:0:
402,192,68903,1,0,0:0:0:0:
109,192,68996,1,0,0:0:0:0:
329,192,69090,1,0,0:0:0:0:
182,192,69184,1,0,0:0:0:0:
36,192,69278,1,0,0:0:0:0:
475,192,69371,1,0,0:0:0:0:
182,192,69465,1,0,0:0:0:0:
329,192,69559,1,0,0:0:0:0:
36,192,69653,1,0,0:0:0:0:
475,192,69746,1,0,0:0:0:0:
182,192,69840,1,0,0:0:0:0:
329,192,69934,1,0,0:0:0:0:
109,192,70028,1,0,0:0:0:0:
402,192,70121,1,0,0:0:0:0:
182,192,70215,1,0,0:0:0:0:
329,192,70309,1,0,0:0:0:0:
109,192,70403,1,0,0:0:0:0:
402,192,70496,1,0,0:0:0:0:
182,192,70590,1,0,0:0:0:0:
329,192,70684,1,0,0:0:0:0:
36,192,70778,1,0,0:0:0:0:
475,192,70778,1,0,0:0:0:50:CB_Kick.wav
109,192,70871,1,0,0:0:0:0:
182,192,70965,1,0,0:0:0:0:
256,192,71059,1,0,0:0:0:0:
109,192,71153,1,0,0:0:0:0:
182,192,71246,1,0,0:0:0:0:
256,192,71340,1,0,0:0:0:0:
329,192,71434,1,0,0:0:0:0:
36,192,71528,1,0,0:0:0:35:Snare Basic.wav
475,192,71528,1,0,0:0:0:0:
402,192,71621,1,0,0:0:0:0:
329,192,71715,1,0,0:0:0:0:
256,192,71809,1,0,0:0:0:0:
402,192,71903,1,0,0:0:0:0:
329,192,71996,1,0,0:0:0:0:
256,192,72090,1,0,0:0:0:0:
182,192,72184,1,0,0:0:0:0:
402,192,72278,1,0,0:0:0:0:
329,192,72371,1,0,0:0:0:0:
109,192,72465,1,0,0:0:0:0:
182,192,72559,1,0,0:0:0:0:
402,192,72653,1,0,0:0:0:0:
329,192,72746,1,0,0:0:0:0:
109,192,72840,1,0,0:0:0:0:
182,192,72934,1,0,0:0:0:0:
475,192,73028,1,0,0:0:0:35:Snare Basic.wav
329,192,73028,1,0,0:0:0:0:
256,192,73121,1,0,0:0:0:0:
109,192,73215,1,0,0:0:0:25:Clap Basic.wav
402,192,73215,1,0,0:0:0:0:
329,192,73309,1,0,0:0:0:0:
182,192,73403,1,0,0:0:0:25:Clap Basic.wav
475,192,73403,1,0,0:0:0:0:
256,192,73496,1,0,0:0:0:0:
109,192,73590,1,0,0:0:0:0:
36,192,73684,1,0,0:0:0:0:
402,192,73778,1,0,0:0:0:30:CB_Kick.wav
182,192,73778,1,0,0:0:0:30:CB_Kick.wav
256,192,74028,1,0,0:0:0:20:CB_Hat.wav
256,192,74278,1,0,0:0:0:20:CB_Hat.wav
109,192,74528,1,0,0:0:0:30:CB_Kick.wav
329,192,74528,1,0,0:0:0:30:CB_Kick.wav
256,192,74778,1,0,0:0:0:20:CB_Hat.wav
256,192,75028,1,0,0:0:0:20:CB_Hat.wav
182,192,75278,1,0,0:0:0:30:CB_Kick.wav
402,192,75278,1,0,0:0:0:30:CB_Kick.wav
256,192,75528,1,0,0:0:0:20:CB_Hat.wav
256,192,75778,1,0,0:0:0:20:CB_Hat.wav
329,192,76028,1,0,0:0:0:20:CB_Hat.wav
109,192,76028,1,0,0:0:0:35:Snare Basic.wav
182,192,76403,1,0,0:0:0:20:CB_Hat.wav
36,192,76778,1,4,0:0:0:0:
109,192,76778,128,0,77153:0:0:0:0:
256,192,76778,128,0,77153:0:0:0:0:
182,192,77340,128,0,77715:0:0:0:0:
329,192,77340,128,0,77715:0:0:0:0:
256,192,77903,128,0,78278:0:0:0:0:
402,192,77903,128,0,78278:0:0:0:0:
475,192,78278,1,4,0:0:0:0:
36,192,78278,1,0,0:0:0:50:CB_Kick.wav
182,192,78278,1,0,0:0:0:0:
256,192,78465,1,0,0:0:0:20:CB_Hat.wav
182,192,78653,1,0,0:0:0:50:CB_Kick.wav
402,192,78653,1,0,0:0:0:30:Clap Basic.wav
256,192,78840,1,0,0:0:0:20:CB_Hat.wav
475,192,79028,1,0,0:0:0:50:CB_Kick.wav
256,192,79215,1,0,0:0:0:20:CB_Hat.wav
109,192,79403,1,0,0:0:0:30:Clap Basic.wav
329,192,79403,1,0,0:0:0:50:CB_Kick.wav
256,192,79590,1,0,0:0:0:20:CB_Hat.wav
36,192,79778,1,0,0:0:0:50:CB_Kick.wav
182,192,79778,1,0,0:0:0:0:
329,192,79778,1,4,0:0:0:0:
256,192,79965,1,0,0:0:0:20:CB_Hat.wav
109,192,80153,1,0,0:0:0:50:CB_Kick.wav
402,192,80153,1,0,0:0:0:30:Clap Basic.wav
256,192,80340,1,0,0:0:0:20:CB_Hat.wav
182,192,80528,1,4,0:0:0:0:
475,192,80528,1,0,0:0:0:50:CB_Kick.wav
329,192,80528,1,0,0:0:0:0:
256,192,80715,1,0,0:0:0:20:CB_Hat.wav
109,192,80903,1,0,0:0:0:30:Clap Basic.wav
402,192,80903,1,0,0:0:0:50:CB_Kick.wav
256,192,81090,1,0,0:0:0:20:CB_Hat.wav
36,192,81278,1,0,0:0:0:50:CB_Kick.wav
182,192,81278,1,4,0:0:0:0:
475,192,81278,1,0,0:0:0:0:
329,192,81465,1,0,0:0:0:20:CB_Hat.wav
109,192,81653,1,0,0:0:0:50:CB_Kick.wav
402,192,81653,1,0,0:0:0:30:Clap Basic.wav
256,192,81840,1,0,0:0:0:20:CB_Hat.wav
475,192,82028,1,0,0:0:0:50:CB_Kick.wav
329,192,82028,1,4,0:0:0:0:
36,192,82028,1,0,0:0:0:0:
182,192,82215,1,0,0:0:0:20:CB_Hat.wav
402,192,82403,1,0,0:0:0:50:CB_Kick.wav
109,192,82403,1,0,0:0:0:30:Clap Basic.wav
256,192,82590,1,0,0:0:0:20:CB_Hat.wav
182,192,82778,1,0,0:0:0:30:CB_Kick.wav
36,192,82778,1,4,0:0:0:0:
329,192,82965,1,0,0:0:0:30:CB_Kick.wav
182,192,83153,1,0,0:0:0:30:CB_Kick.wav
36,192,83153,1,4,0:0:0:0:
256,192,83153,1,0,0:0:0:30:Clap Basic.wav
329,192,83340,1,0,0:0:0:30:CB_Kick.wav
182,192,83528,1,0,0:0:0:30:CB_Kick.wav
475,192,83528,1,4,0:0:0:0:
329,192,83715,1,0,0:0:0:30:CB_Kick.wav
475,192,83903,1,4,0:0:0:0:
182,192,83903,1,0,0:0:0:30:CB_Kick.wav
109,192,83903,1,0,0:0:0:30:Clap Basic.wav
329,192,84090,1,0,0:0:0:30:CB_Kick.wav
36,192,84278,1,0,0:0:0:40:CB_Kick.wav
182,192,84278,1,4,0:0:0:0:
475,192,84465,1,0,0:0:0:40:CB_Kick.wav
109,192,84653,1,0,0:0:0:40:CB_Kick.wav
329,192,84653,1,4,0:0:0:0:
182,192,84653,1,0,0:0:0:30:Clap Basic.wav
402,192,84840,1,0,0:0:0:40:CB_Kick.wav
36,192,85028,1,0,0:0:0:40:CB_Kick.wav
182,192,85028,1,4,0:0:0:0:
475,192,85215,1,0,0:0:0:40:CB_Kick.wav
109,192,85403,1,0,0:0:0:40:CB_Kick.wav
329,192,85403,1,4,0:0:0:0:
256,192,85403,1,0,0:0:0:30:Clap Basic.wav
402,192,85590,1,0,0:0:0:40:CB_Kick.wav
36,192,85778,1,0,0:0:0:50:CB_Kick.wav
329,192,85778,1,0,0:0:0:0:
475,192,85778,1,4,0:0:0:0:
256,192,85965,1,0,0:0:0:20:CB_Hat.wav
182,192,86153,1,0,0:0:0:50:CB_Kick.wav
402,192,86153,1,0,0:0:0:30:Clap Basic.wav
256,192,86340,1,0,0:0:0:20:CB_Hat.wav
329,192,86528,1,0,0:0:0:50:CB_Kick.wav
256,192,86715,1,0,0:0:0:20:CB_Hat.wav
109,192,86903,1,0,0:0:0:30:Clap Basic.wav
475,192,86903,1,0,0:0:0:50:CB_Kick.wav
256,192,87090,1,0,0:0:0:20:CB_Hat.wav
475,192,87278,1,0,0:0:0:50:CB_Kick.wav
256,192,87465,1,0,0:0:0:20:CB_Hat.wav
329,192,87653,1,0,0:0:0:50:CB_Kick.wav
109,192,87653,1,0,0:0:0:30:Clap Basic.wav
256,192,87840,1,0,0:0:0:20:CB_Hat.wav
182,192,88028,1,0,0:0:0:50:CB_Kick.wav
256,192,88215,1,0,0:0:0:20:CB_Hat.wav
402,192,88403,1,0,0:0:0:30:Clap Basic.wav
36,192,88403,1,0,0:0:0:50:CB_Kick.wav
256,192,88590,1,0,0:0:0:20:CB_Hat.wav
475,192,88778,1,0,0:0:0:50:CB_Kick.wav
256,192,88965,1,0,0:0:0:20:CB_Hat.wav
109,192,89153,1,0,0:0:0:50:CB_Kick.wav
402,192,89153,1,0,0:0:0:30:Clap Basic.wav
36,192,89153,1,0,0:0:0:0:
329,192,89340,1,0,0:0:0:20:CB_Hat.wav
182,192,89528,1,0,0:0:0:50:CB_Kick.wav
256,192,89715,1,0,0:0:0:20:CB_Hat.wav
402,192,89903,1,0,0:0:0:30:Clap Basic.wav
36,192,89903,1,0,0:0:0:50:CB_Kick.wav
256,192,90090,1,0,0:0:0:20:CB_Hat.wav
36,192,90278,1,0,0:0:0:50:CB_Kick.wav
256,192,90465,1,0,0:0:0:20:CB_Hat.wav
109,192,90653,1,0,0:0:0:30:Clap Basic.wav
402,192,90653,1,0,0:0:0:50:CB_Kick.wav
182,192,90840,1,0,0:0:0:20:CB_Hat.wav
329,192,91028,1,0,0:0:0:50:CB_Kick.wav
256,192,91215,1,0,0:0:0:20:CB_Hat.wav
475,192,91403,1,0,0:0:0:50:CB_Kick.wav
109,192,91403,1,0,0:0:0:30:Clap Basic.wav
256,192,91590,1,0,0:0:0:20:CB_Hat.wav
475,192,91778,1,0,0:0:0:50:CB_Kick.wav
182,192,91778,1,0,0:0:0:0:
329,192,91965,1,0,0:0:0:20:CB_Hat.wav
475,192,92153,1,0,0:0:0:50:CB_Kick.wav
109,192,92153,1,0,0:0:0:30:Clap Basic.wav
256,192,92340,1,0,0:0:0:20:CB_Hat.wav
475,192,92528,1,0,0:0:0:50:CB_Kick.wav
182,192,92715,1,0,0:0:0:20:CB_Hat.wav
329,192,92903,1,0,0:0:0:30:Clap Basic.wav
475,192,92903,1,0,0:0:0:50:CB_Kick.wav
109,192,93090,1,0,0:0:0:20:CB_Hat.wav
36,192,93278,1,0,0:0:0:50:CB_Kick.wav
182,192,93465,1,0,0:0:0:20:CB_Hat.wav
402,192,93653,1,0,0:0:0:30:Clap Basic.wav
36,192,93653,1,0,0:0:0:50:CB_Kick.wav
256,192,93840,1,0,0:0:0:20:CB_Hat.wav
36,192,94028,1,0,0:0:0:50:CB_Kick.wav
329,192,94215,1,0,0:0:0:20:CB_Hat.wav
182,192,94403,1,0,0:0:0:30:Clap Basic.wav
36,192,94403,1,0,0:0:0:50:CB_Kick.wav
329,192,94590,1,0,0:0:0:20:CB_Hat.wav
475,192,94778,1,0,0:0:0:50:CB_Kick.wav
256,192,94965,1,0,0:0:0:20:CB_Hat.wav
402,192,95153,1,0,0:0:0:50:CB_Kick.wav
109,192,95153,1,0,0:0:0:30:Clap Basic.wav
329,192,95153,1,0,0:0:0:0:
182,192,95340,1,0,0:0:0:20:CB_Hat.wav
475,192,95528,1,0,0:0:0:50:CB_Kick.wav
256,192,95715,1,0,0:0:0:20:CB_Hat.wav
36,192,95903,1,0,0:0:0:30:Clap Basic.wav
402,192,95903,1,0,0:0:0:50:CB_Kick.wav
109,192,96090,1,0,0:0:0:20:CB_Hat.wav
256,192,96278,1,0,0:0:0:50:CB_Kick.wav
329,192,96465,1,0,0:0:0:20:CB_Hat.wav
402,192,96653,1,0,0:0:0:50:CB_Kick.wav
36,192,96653,1,0,0:0:0:30:Clap Basic.wav
182,192,96840,1,0,0:0:0:20:CB_Hat.wav
109,192,97028,1,0,0:0:0:50:CB_Kick.wav
329,192,97215,1,0,0:0:0:20:CB_Hat.wav
256,192,97403,1,0,0:0:0:50:CB_Kick.wav
475,192,97403,1,0,0:0:0:30:Clap Basic.wav
182,192,97590,1,0,0:0:0:20:CB_Hat.wav
109,192,97778,1,0,0:0:0:50:CB_Kick.wav
475,192,97778,1,4,0:0:0:0:
329,192,97778,1,0,0:0:0:0:
402,192,98059,1,0,0:0:0:0:
36,192,98153,1,0,0:0:0:50:CB_Kick.wav
329,192,98340,1,0,0:0:0:0:
329,192,98528,128,0,99278:0:0:0:0:
182,192,98528,1,0,0:0:0:50:CB_Kick.wav
475,192,98903,1,0,0:0:0:30:Clap Basic.wav
109,192,98903,1,0,0:0:0:50:CB_Kick.wav
109,192,99278,1,0,0:0:0:50:CB_Kick.wav
402,192,99278,1,0,0:0:0:0:
329,192,99559,1,0,0:0:0:0:
182,192,99653,1,0,0:0:0:50:CB_Kick.wav
256,192,99840,1,0,0:0:0:0:
36,192,100028,1,0,0:0:0:50:CB_Kick.wav
256,192,100028,128,0,100778:0:0:0:0:
402,192,100403,1,0,0:0:0:30:Clap Basic.wav
109,192,100403,1,0,0:0:0:50:CB_Kick.wav
182,192,100778,1,0,0:0:0:50:CB_Kick.wav
329,192,100778,1,0,0:0:0:0:
109,192,101059,1,0,0:0:0:50:CB_Kick.wav
402,192,101059,1,0,0:0:0:0:
329,192,101340,1,0,0:0:0:0:
182,192,101340,1,0,0:0:0:50:CB_Kick.wav
36,192,101528,1,0,0:0:0:50:CB_Kick.wav
475,192,101528,1,0,0:0:0:0:
182,192,101809,1,0,0:0:0:50:CB_Kick.wav
329,192,101809,1,0,0:0:0:0:
109,192,102090,1,0,0:0:0:50:CB_Kick.wav
402,192,102090,1,0,0:0:0:0:
36,192,102278,1,0,0:0:0:50:CB_Kick.wav
475,192,102278,1,0,0:0:0:0:
256,192,102653,1,0,0:0:0:0:
256,192,103403,1,0,0:0:0:0:
182,192,103778,1,0,0:0:0:0:
36,192,103778,1,0,0:0:0:50:CB_Kick.wav
329,192,103778,1,4,0:0:0:0:
182,192,103965,1,0,0:0:0:0:
475,192,104153,1,0,0:0:0:30:Clap Basic.wav
36,192,104153,1,0,0:0:0:50:CB_Kick.wav
256,192,104153,1,0,0:0:0:0:
109,192,104340,1,0,0:0:0:0:
256,192,104434,1,0,0:0:0:0:
36,192,104528,1,0,0:0:0:50:CB_Kick.wav
109,192,104715,1,0,0:0:0:0:
36,192,104903,1,0,0:0:0:50:CB_Kick.wav
182,192,104903,1,0,0:0:0:0:
475,192,104903,1,0,0:0:0:30:Clap Basic.wav
182,192,105090,1,0,0:0:0:0:
256,192,105278,1,0,0:0:0:0:
36,192,105278,1,0,0:0:0:50:CB_Kick.wav
256,192,105465,1,0,0:0:0:0:
475,192,105653,1,0,0:0:0:30:Clap Basic.wav
329,192,105653,1,0,0:0:0:0:
36,192,105653,1,0,0:0:0:50:CB_Kick.wav
182,192,105840,1,0,0:0:0:0:
329,192,105934,1,0,0:0:0:0:
36,192,106028,1,0,0:0:0:50:CB_Kick.wav
182,192,106215,1,0,0:0:0:0:
475,192,106403,1,0,0:0:0:30:Clap Basic.wav
36,192,106403,1,0,0:0:0:50:CB_Kick.wav
256,192,106403,1,0,0:0:0:0:
256,192,106590,1,0,0:0:0:0:
36,192,106778,1,0,0:0:0:50:CB_Kick.wav
329,192,106778,1,0,0:0:0:0:
329,192,106965,1,0,0:0:0:0:
36,192,107153,1,0,0:0:0:50:CB_Kick.wav
475,192,107153,1,0,0:0:0:30:Clap Basic.wav
402,192,107153,1,0,0:0:0:0:
256,192,107340,1,0,0:0:0:0:
402,192,107434,1,0,0:0:0:0:
36,192,107528,1,0,0:0:0:50:CB_Kick.wav
256,192,107715,1,0,0:0:0:0:
475,192,107903,1,0,0:0:0:30:Clap Basic.wav
36,192,107903,1,0,0:0:0:50:CB_Kick.wav
329,192,107903,1,0,0:0:0:0:
329,192,108090,1,0,0:0:0:0:
402,192,108278,1,0,0:0:0:0:
36,192,108278,1,0,0:0:0:50:CB_Kick.wav
402,192,108465,1,0,0:0:0:0:
36,192,108653,1,0,0:0:0:50:CB_Kick.wav
256,192,108653,1,0,0:0:0:0:
475,192,108653,1,0,0:0:0:30:Clap Basic.wav
329,192,108840,1,0,0:0:0:0:
182,192,108934,1,0,0:0:0:0:
36,192,109028,1,0,0:0:0:50:CB_Kick.wav
109,192,109215,1,0,0:0:0:0:
475,192,109403,1,0,0:0:0:30:Clap Basic.wav
256,192,109403,1,0,0:0:0:0:
36,192,109403,1,0,0:0:0:50:CB_Kick.wav
402,192,109590,1,0,0:0:0:0:
329,192,109778,1,0,0:0:0:0:
475,192,109778,1,0,0:0:0:50:CB_Kick.wav
329,192,109965,1,0,0:0:0:0:
256,192,110153,1,0,0:0:0:0:
36,192,110153,1,0,0:0:0:30:Clap Basic.wav
475,192,110153,1,0,0:0:0:50:CB_Kick.wav
402,192,110340,1,0,0:0:0:0:
256,192,110434,1,0,0:0:0:0:
475,192,110528,1,0,0:0:0:50:CB_Kick.wav
402,192,110715,1,0,0:0:0:0:
475,192,110903,1,0,0:0:0:50:CB_Kick.wav
36,192,110903,1,0,0:0:0:30:Clap Basic.wav
329,192,110903,1,0,0:0:0:0:
329,192,111090,1,0,0:0:0:0:
256,192,111278,1,0,0:0:0:0:
475,192,111278,1,0,0:0:0:50:CB_Kick.wav
256,192,111465,1,0,0:0:0:0:
182,192,111653,1,0,0:0:0:0:
475,192,111653,1,0,0:0:0:50:CB_Kick.wav
36,192,111653,1,0,0:0:0:30:Clap Basic.wav
329,192,111840,1,0,0:0:0:0:
182,192,111934,1,0,0:0:0:0:
475,192,112028,1,0,0:0:0:50:CB_Kick.wav
329,192,112215,1,0,0:0:0:0:
36,192,112403,1,0,0:0:0:30:Clap Basic.wav
256,192,112403,1,0,0:0:0:0:
475,192,112403,1,0,0:0:0:50:CB_Kick.wav
256,192,112590,1,0,0:0:0:0:
182,192,112778,1,0,0:0:0:0:
475,192,112778,1,0,0:0:0:50:CB_Kick.wav
182,192,112965,1,0,0:0:0:0:
475,192,113153,1,0,0:0:0:50:CB_Kick.wav
109,192,113153,1,0,0:0:0:0:
36,192,113153,1,0,0:0:0:30:Clap Basic.wav
256,192,113340,1,0,0:0:0:0:
109,192,113434,1,0,0:0:0:0:
475,192,113528,1,0,0:0:0:50:CB_Kick.wav
256,192,113715,1,0,0:0:0:0:
36,192,113903,1,0,0:0:0:30:Clap Basic.wav
475,192,113903,1,0,0:0:0:50:CB_Kick.wav
182,192,113903,1,0,0:0:0:0:
182,192,114090,1,0,0:0:0:0:
109,192,114278,1,0,0:0:0:0:
475,192,114278,1,0,0:0:0:50:CB_Kick.wav
109,192,114465,1,0,0:0:0:0:
402,192,114465,1,0,0:0:0:50:CB_Kick.wav
36,192,114653,1,0,0:0:0:30:Clap Basic.wav
475,192,114653,1,0,0:0:0:50:CB_Kick.wav
256,192,114653,1,0,0:0:0:0:
182,192,114840,1,0,0:0:0:0:
402,192,114840,1,0,0:0:0:50:CB_Kick.wav
329,192,114934,1,0,0:0:0:0:
475,192,115028,1,0,0:0:0:50:CB_Kick.wav
402,192,115215,1,0,0:0:0:0:
182,192,115215,1,0,0:0:0:50:CB_Kick.wav
256,192,115403,1,0,0:0:0:0:
475,192,115403,1,0,0:0:0:50:CB_Kick.wav
36,192,115403,1,0,0:0:0:30:Clap Basic.wav
109,192,115590,1,0,0:0:0:0:
329,192,115590,1,0,0:0:0:50:CB_Kick.wav
36,192,115778,1,0,0:0:0:25:CB_Kick.wav
475,192,115778,1,0,0:0:0:25:CB_Kick.wav
329,192,115965,1,0,0:0:0:25:CB_Kick.wav
182,192,115965,1,0,0:0:0:25:CB_Kick.wav
475,192,116153,1,0,0:0:0:25:CB_Kick.wav
36,192,116153,1,0,0:0:0:25:CB_Kick.wav
329,192,116340,1,0,0:0:0:25:CB_Kick.wav
182,192,116340,1,0,0:0:0:25:CB_Kick.wav
475,192,116434,1,0,0:0:0:25:CB_Kick.wav
36,192,116434,1,0,0:0:0:25:CB_Kick.wav
402,192,116715,1,0,0:0:0:25:CB_Kick.wav
109,192,116715,1,0,0:0:0:25:CB_Kick.wav
256,192,116903,1,4,0:0:0:0:
36,192,117090,1,0,0:0:0:25:CB_Kick.wav
182,192,117090,1,4,0:0:0:0:
329,192,117090,1,4,0:0:0:0:
475,192,117090,1,0,0:0:0:25:CB_Kick.wav
