osu file format v12

[General]
AudioFilename: Y&Co. - DDR 2nd Mix NONSTOP MEGAMIX.mp3
AudioLeadIn: 0
PreviewTime: -1
Countdown: 1
SampleSet: None
StackLeniency: 0.7
Mode: 0
LetterboxInBreaks: 1
WidescreenStoryboard: 0

[Editor]
DistanceSpacing: 1.5
BeatDivisor: 4
GridSize: 8
TimelineZoom: 1

[Metadata]
Title:DDR 2nd Mix NONSTOP MEGAMIX
TitleUnicode:DDR 2nd Mix NONSTOP MEGAMIX
Artist:Y&Co.
ArtistUnicode:Y&Co.
Creator:BuBBLe1q
Version:Insane
Source:
Tags:Eurobeat Maraphon
BeatmapID:401207
BeatmapSetID:164856

[Difficulty]
HPDrainRate:7
CircleSize:5
OverallDifficulty:8
ApproachRate:7
SliderMultiplier:1.6
SliderTickRate:2

[Events]
//Background and Video events
//Break Periods
//Storyboard Layer 0 (Background)
//Storyboard Layer 1 (Fail)
//Storyboard Layer 2 (Pass)
//Storyboard Layer 3 (Foreground)
//Storyboard Sound Samples
//Background Colour Transformations
3,100,163,162,255

[TimingPoints]
13773.2925476783,444.744444444445,4,1,0,100,1,0
113365,441.164444444444,4,1,0,100,1,0
279226,434.784444444445,4,1,0,100,1,0

[HitObjects]
181,313,7102,6,0,P|256:337|341:305,2,160
256,192,8436,1,0,0:0:0:0:
331,71,8881,2,0,P|256:47|171:79,2,160
256,192,10215,1,0,0:0:0:0:
176,192,10660,2,0,L|360:192,2,160
256,192,11994,12,0,13773,0:0:0:0:
256,192,13995,5,0,0:0:0:0:
213,149,14106,1,0,0:0:0:0:
161,118,14218,1,0,0:0:0:0:
41,118,14440,2,0,P|46:161|72:192,1,80
68,189,14773,1,0,0:0:0:0:
153,274,14996,5,0,0:0:0:0:
205,305,15108,1,0,0:0:0:0:
324,305,15329,2,0,L|360:328,3,40
272,241,15885,1,0,0:0:0:0:
272,241,15996,1,0,0:0:0:0:
272,120,16219,6,0,L|236:97,3,40
117,98,16775,1,0,0:0:0:0:
117,98,16886,1,0,0:0:0:0:
117,217,17108,6,0,L|153:240,3,40
271,238,17664,2,0,L|272:288,1,40
336,176,17998,6,0,L|372:153,3,40
272,80,18554,2,0,L|271:35,1,40
159,80,18887,2,0,L|159:24,10,40
159,140,20110,1,0,0:0:0:0:
73,225,20333,1,0,0:0:0:0:
30,267,20445,1,0,0:0:0:0:
148,326,20666,1,0,0:0:0:0:
148,326,20778,1,0,0:0:0:0:
148,326,20889,1,0,0:0:0:0:
232,241,21111,6,0,P|256:208|368:160,1,160
361,160,21778,1,0,0:0:0:0:
446,245,22001,1,0,0:0:0:0:
403,287,22112,1,0,0:0:0:0:
344,297,22223,1,0,0:0:0:0:
293,265,22334,1,0,0:0:0:0:
277,207,22445,1,0,0:0:0:0:
160,248,22668,6,0,P|124:289|20:297,1,160
61,184,23335,1,0,0:0:0:0:
176,136,23557,1,0,0:0:0:0:
293,146,23780,1,0,0:0:0:0:
336,104,23891,1,0,0:0:0:0:
395,95,24002,1,0,0:0:0:0:
446,126,24113,1,0,0:0:0:0:
462,184,24224,1,0,0:0:0:0:
360,248,24447,6,0,L|384:144,1,80
377,50,24891,2,0,L|277:50,1,80
297,170,25336,6,0,L|344:336,1,160
220,323,26003,1,0,0:0:0:0:
220,323,26114,1,0,0:0:0:0:
220,323,26226,1,0,0:0:0:0:
136,240,26448,1,0,0:0:0:0:
115,183,26559,1,0,0:0:0:0:
130,125,26670,1,0,0:0:0:0:
180,91,26782,1,0,0:0:0:0:
239,91,26893,1,0,0:0:0:0:
239,210,27115,5,0,0:0:0:0:
432,56,27337,1,0,0:0:0:0:
432,360,27560,1,0,0:0:0:0:
239,210,27782,1,0,0:0:0:0:
168,304,28005,6,0,P|207:329|263:321,1,80
324,245,28449,6,0,P|285:270|229:262,1,80
167,185,28894,6,0,P|206:210|262:202,1,80
219,153,29228,1,0,0:0:0:0:
242,97,29339,1,0,0:0:0:0:
216,42,29450,1,0,0:0:0:0:
160,24,29561,1,0,0:0:0:0:
160,144,29784,6,0,P|199:119|255:127,1,80
316,203,30228,6,0,P|277:178|221:186,1,80
159,263,30673,6,0,P|198:238|254:246,1,80
230,358,31118,1,0,0:0:0:0:
256,192,31563,5,0,0:0:0:0:
456,64,32007,2,0,P|456:120|440:144,1,80
359,224,32452,1,0,0:0:0:0:
189,54,32897,1,0,0:0:0:0:
88,272,33342,1,0,0:0:0:0:
172,187,33564,1,0,0:0:0:0:
256,271,33786,1,0,0:0:0:0:
341,185,34009,1,0,0:0:0:0:
425,269,34231,1,0,0:0:0:0:
256,104,34676,2,0,L|256:192,1,80
256,271,35121,5,0,0:0:0:0:
160,336,35343,1,0,0:0:0:0:
139,279,35454,1,0,0:0:0:0:
153,220,35565,1,0,0:0:0:0:
256,160,35788,2,0,L|256:80,1,80
361,215,36232,1,0,0:0:0:0:
382,272,36343,1,0,0:0:0:0:
368,331,36454,1,0,0:0:0:0:
256,271,36677,5,0,0:0:0:0:
256,152,36900,1,0,0:0:0:0:
256,272,37122,1,0,0:0:0:0:
308,242,37233,1,0,0:0:0:0:
361,215,37344,1,0,0:0:0:0:
256,272,37567,1,0,0:0:0:0:
368,331,37789,1,0,0:0:0:0:
256,272,38011,1,0,0:0:0:0:
256,272,38123,1,0,0:0:0:0:
256,272,38234,1,0,0:0:0:0:
256,32,38678,6,0,L|256:144,1,80
170,197,39123,1,0,0:0:0:0:
290,197,39346,1,0,0:0:0:0:
409,197,39568,1,0,0:0:0:0:
170,197,40013,5,0,0:0:0:0:
170,197,40235,1,0,0:0:0:0:
56,224,40457,2,0,P|88:280|120:296,1,80
160,336,40791,1,0,0:0:0:0:
219,287,40902,2,0,L|256:192,1,80
308,183,41236,1,0,0:0:0:0:
368,212,41347,2,0,L|405:307,1,80
397,286,41792,1,0,0:0:0:0:
256,112,42014,1,0,0:0:0:0:
