osu file format v13

[General]
AudioFilename: SbswXzOQow1F.128 (2).mp3
AudioLeadIn: 0
PreviewTime: 70
Countdown: 0
SampleSet: None
StackLeniency: 0.7
Mode: 0
LetterboxInBreaks: 0
WidescreenStoryboard: 1

[Editor]
DistanceSpacing: 1.3
BeatDivisor: 4
GridSize: 4
TimelineZoom: 1

[Metadata]
Title:Joke
TitleUnicode:ジョーク
Artist:Xyloe!
ArtistUnicode:Xyloe!
Creator:Maeglwn
Version:Hard
Source:
Tags:vaporwave BrosephStalin Irreversible Lust soundclown soundcloud dubstep zoopals
BeatmapID:492319
BeatmapSetID:209191

[Difficulty]
HPDrainRate:5
CircleSize:4
OverallDifficulty:6
ApproachRate:7
SliderMultiplier:2
SliderTickRate:1

[Events]
//Background and Video events
0,0,"1501700.jpg",0,0
//Break Periods
//Storyboard Layer 0 (Background)
//Storyboard Layer 1 (Fail)
//Storyboard Layer 2 (Pass)
//Storyboard Layer 3 (Foreground)
//Storyboard Sound Samples
//Background Colour Transformations
3,100,163,162,255

[TimingPoints]
70,468.75,4,2,0,20,1,0
1007,-100,4,2,0,30,0,0
1476,-100,4,2,0,40,0,0
1945,-100,4,2,0,50,0,0
2413,-100,4,2,0,60,0,0
15070,-100,4,2,0,60,0,1
22570,-100,4,2,0,60,0,0
30070,-100,4,2,0,60,0,1
37335,-100,4,2,0,60,0,0
37570,-100,4,2,0,50,0,0
38038,-100,4,2,0,40,0,0
38507,-100,4,2,0,25,0,0
38976,-100,4,2,0,15,0,0
39445,-100,4,2,0,5,0,0

[Colours]
Combo1 : 0,128,192
Combo2 : 251,203,60
Combo3 : 245,88,128

[HitObjects]
64,248,70,6,0,P|52:192|68:132,2,100,0|0|8,0:0|0:0|0:0,0:0:0:0:
256,192,1007,1,8,0:0:0:0:
256,192,1476,1,8,0:0:0:0:
128,40,1945,5,8,0:0:0:0:
128,40,2413,1,8,0:0:0:0:
372,148,2882,1,8,0:0:0:0:
372,148,3350,1,8,0:0:0:0:
380,248,3585,2,0,P|328:272|304:276,1,50,0|0,0:0|0:0,0:0:0:0:
284,276,3820,6,0,L|172:276,1,100,8|0,0:0|0:0,0:0:0:0:
224,184,4288,2,0,L|336:184,1,100,8|0,0:0|0:0,0:0:0:0:
416,140,4757,2,0,P|456:84|448:36,1,100,8|0,0:0|0:0,0:0:0:0:
356,64,5226,2,0,L|236:64,1,100,8|0,0:0|0:0,0:0:0:0:
56,72,5695,6,0,P|32:132|52:188,1,100,8|0,0:0|0:0,0:0:0:0:
116,228,6163,2,0,P|140:168|120:112,1,100,8|0,0:0|0:0,0:0:0:0:
314,46,6632,2,0,P|291:89|296:139,1,100,8|0,0:0|0:0,0:0:0:0:
376,204,7100,2,0,P|398:160|393:110,1,100,8|0,0:0|0:0,0:0:0:0:
188,72,7570,5,8,0:0:0:0:
108,132,7804,1,8,0:0:0:0:
176,208,8038,1,8,0:0:0:0:
256,148,8272,1,8,0:0:0:0:
174,88,8507,5,8,0:0:0:0:
108,163,8741,1,8,0:0:0:0:
190,223,8975,1,8,0:0:0:0:
256,148,9209,1,8,0:0:0:0:
424,64,9445,6,0,L|424:128,1,50,8|0,0:0|0:0,0:0:0:0:
464,140,9679,2,0,L|418:186,1,50,8|0,0:0|0:0,0:0:0:0:
444,224,9913,2,0,L|380:224,1,50,8|0,0:0|0:0,0:0:0:0:
376,272,10148,2,0,L|330:227,1,50,8|0,0:0|0:0,0:0:0:0:
292,232,10382,2,0,L|292:168,1,50,8|0,0:0|0:0,0:0:0:0:
252,156,10616,2,0,L|297:111,1,50,8|0,0:0|0:0,0:0:0:0:
272,72,10850,2,0,L|336:72,1,50,8|0,0:0|0:0,0:0:0:0:
340,24,11085,2,0,L|385:70,1,50,8|0,0:0|0:0,0:0:0:0:
448,116,11320,6,0,L|448:168,3,50,8|8|8|8,0:0|0:0|0:0|0:0,0:0:0:0:
380,192,11788,2,0,L|380:140,3,50,8|8|8|8,0:0|0:0|0:0|0:0,0:0:0:0:
308,160,12257,6,0,L|308:108,3,50,8|8|8|8,0:0|0:0|0:0|0:0,0:0:0:0:
236,132,12725,2,0,L|236:184,3,50,8|8|8|8,0:0|0:0|0:0|0:0,0:0:0:0:
256,192,13195,12,4,14601,0:0:0:0:
404,132,15070,6,0,P|360:76|300:68,1,100,6|0,1:0|0:0,0:0:0:0:
312,164,15538,2,0,L|228:248,1,100,2|0,1:0|0:0,0:0:0:0:
216,332,16007,2,0,P|171:309|146:267,1,100,2|2,1:0|0:0,0:0:0:0:
140,168,16476,1,0,1:0:0:0:
308,36,16710,5,0,0:0:0:0:
308,36,16827,1,0,0:0:0:0:
308,36,16945,2,0,P|392:44|424:84,1,100,2|0,1:0|0:0,0:0:0:0:
432,148,17413,2,0,P|348:140|316:100,1,100,2|0,1:0|0:0,0:0:0:0:
244,96,17882,2,0,L|168:184,1,100,2|2,1:0|0:0,0:0:0:0:
144,268,18351,1,0,1:0:0:0:
244,248,18585,1,0,0:0:0:0:
432,148,18820,6,0,L|432:44,1,100,2|0,1:0|0:0,0:0:0:0:
356,112,19288,2,0,L|356:216,1,100,2|0,1:0|0:0,0:0:0:0:
444,260,19757,2,0,P|404:304|348:312,1,100,2|0,1:0|0:0,0:0:0:0:
284,260,20226,1,0,1:0:0:0:
228,336,20460,1,0,0:0:0:0:
104,192,20695,6,0,B|72:148|72:148|72:80,2,100,2|0|2,1:0|0:0|1:0,0:0:0:0:
168,112,21398,1,2,0:1:0:0:
168,112,21515,1,0,0:0:0:0:
168,112,21632,2,0,L|264:48,1,100,2|0,1:0|1:0,0:0:0:0:
352,60,22101,2,0,P|400:88|436:176,1,150,0|0,1:0|0:0,0:0:0:0:
432,224,22570,6,0,P|424:288|356:344,1,150,2|0,1:0|0:0,0:0:0:0:
320,312,23038,1,2,1:0:0:0:
224,284,23273,1,0,0:0:0:0:
296,216,23507,2,0,P|336:176|336:124,1,100,2|0,1:0|0:0,0:0:0:0:
240,136,23976,2,0,P|188:164|136:156,1,100,0|0,1:0|0:0,0:0:0:0:
100,144,24327,5,0,0:0:0:0:
60,172,24445,2,0,P|24:224|20:272,1,100,0|0,1:0|0:0,0:0:0:0:
120,252,24913,2,0,P|172:288|220:292,1,100,0|0,1:0|0:0,0:0:0:0:
256,276,25265,1,0,0:0:0:0:
304,293,25382,2,0,P|353:282|392:252,1,100,0|0,1:0|0:0,0:0:0:0:
408,152,25851,2,0,P|397:103|366:64,1,100,0|0,1:0|0:0,0:0:0:0:
145,64,26320,6,0,B|114:103|114:103|104:152,1,100,2|2,1:0|0:0,0:0:0:0:
164,232,26788,2,0,B|194:193|194:193|205:144,1,100,2|2,1:0|0:0,0:0:0:0:
216,96,27140,1,0,0:0:0:0:
260,72,27257,2,0,B|298:41|298:41|347:30,1,100,2|0,1:0|0:0,0:0:0:0:
436,76,27726,2,0,B|397:106|397:106|348:117,1,100,0|0,1:0|0:0,0:0:0:0:
172,208,28195,6,0,P|139:263|142:352,1,150,2|0,1:2|0:0,0:0:0:0:
192,364,28663,1,0,0:0:0:0:
192,364,28780,1,0,0:0:0:0:
244,360,28898,2,0,P|312:340|372:256,1,150,2|0,1:2|0:0,0:0:0:0:
380,236,29366,1,0,0:0:0:0:
380,236,29484,1,0,0:0:0:0:
388,188,29601,2,0,P|368:120|284:60,1,150,2|0,1:2|0:0,0:0:0:0:
208,72,30070,6,0,P|152:116|144:176,1,100,6|0,1:0|0:0,0:0:0:0:
240,164,30538,2,0,L|324:248,1,100,2|0,1:0|0:0,0:0:0:0:
408,260,31007,2,0,P|385:304|343:329,1,100,2|2,1:0|0:0,0:0:0:0:
311,234,31476,1,0,1:0:0:0:
136,340,31710,5,0,0:0:0:0:
136,340,31827,1,0,0:0:0:0:
136,340,31945,2,0,P|52:332|20:292,1,100,2|0,1:0|0:0,0:0:0:0:
104,248,32413,2,0,P|188:256|220:296,1,100,2|0,1:0|0:0,0:0:0:0:
288,308,32882,2,0,L|364:220,1,100,2|2,1:0|0:0,0:0:0:0:
340,132,33351,1,0,0:0:0:0:
248,168,33585,1,0,0:0:0:0:
28,228,33820,6,0,L|28:332,1,100,2|0,1:0|0:0,0:0:0:0:
104,248,34288,2,0,L|104:144,1,100,2|0,1:0|0:0,0:0:0:0:
16,100,34757,2,0,P|56:56|112:48,1,100,2|0,1:0|0:0,0:0:0:0:
176,104,35226,1,0,1:0:0:0:
252,48,35460,1,0,0:0:0:0:
408,192,35695,6,0,B|440:236|440:236|440:304,2,100,2|0|2,1:0|0:0|1:0,0:0:0:0:
344,272,36398,1,2,0:1:0:0:
344,272,36515,1,0,1:0:0:0:
344,272,36632,2,0,L|248:336,1,100,2|0,1:0|1:0,0:0:0:0:
256,192,37101,1,6,1:2:0:0:
256,192,37335,12,0,40148,0:0:0:0:
