osu file format v12

[General]
AudioFilename: Xuanji Technology - Magic sound box.mp3
AudioLeadIn: 0
PreviewTime: 54266
Countdown: 1
SampleSet: Soft
StackLeniency: 0.5
Mode: 0
LetterboxInBreaks: 1

[Editor]
DistanceSpacing: 1.5
BeatDivisor: 4
GridSize: 4

[Metadata]
Title:Magic sound box
TitleUnicode:幻音宝盒
Artist:Xuanji Technology
ArtistUnicode:玄机科技
Creator:Kissflying
Version:Normal
Source:Qin's moon night dawn
Tags:
BeatmapID:269248
BeatmapSetID:101685

[Difficulty]
HPDrainRate:6
CircleSize:3
OverallDifficulty:3
ApproachRate:6
SliderMultiplier:1.5
SliderTickRate:2

[Events]
//Background and Video events
Video,0,"Video.flv"
0,0,"BG2.jpg",0,0
//Break Periods
//Storyboard Layer 0 (Background)
//Storyboard Layer 1 (Fail)
//Storyboard Layer 2 (Pass)
//Storyboard Layer 3 (Foreground)
//Storyboard Sound Samples
//Background Colour Transformations
3,100,163,162,255

[TimingPoints]
7822,483.792936623125,4,2,1,30,1,0
8305,-100,4,2,1,60,0,0
11692,-100,4,2,1,20,0,0
12176,-100,4,2,1,40,0,0
12659,-100,4,2,1,60,0,0
15562,-100,4,2,1,30,0,0
16046,-100,4,2,1,60,0,0
19433,-100,4,2,1,30,0,0
20400,-100,4,2,1,60,0,0
22335,-100,4,2,1,30,0,0
23303,-100,4,2,1,20,0,0
23787,-100,4,2,1,40,0,0
38784,-100,4,2,1,30,0,0
42655,-100,4,2,1,50,0,0
46525,-100,4,2,1,70,0,0
50395,-100,4,2,1,90,0,0
52330,-100,4,2,1,100,0,0
54266,-100,4,2,1,80,0,1
81358,-200,4,2,1,80,0,1
85228,-200,4,2,1,80,0,0

[Colours]
Combo1 : 255,192,0
Combo2 : 0,202,0
Combo3 : 18,124,255
Combo4 : 242,24,57

[HitObjects]
40,72,7822,1,8,0:0:0:0:
128,140,8063,1,0,0:0:0:0:
220,72,8305,1,4,0:0:0:0:
440,120,8789,2,0,P|456:192|436:272,1,150,2|0,0:0|0:0,0:0:0:0:
44,348,10240,5,8,0:0:0:0:
132,276,10482,1,0,0:0:0:0:
220,348,10724,1,4,0:0:0:0:
444,348,11208,1,2,0:0:0:0:
356,140,11692,5,8,0:0:0:0:
256,92,11934,1,0,0:0:0:0:
156,148,12176,1,4,0:0:0:0:
332,284,12659,2,0,P|256:304|160:268,1,150,2|0,0:0|0:0,0:0:0:0:
44,116,13627,2,0,P|132:100|208:112,1,150,2|0,0:0|0:0,0:0:0:0:
328,288,14595,2,0,P|408:300|480:276,1,150,2|0,0:0|0:0,0:0:0:0:
472,52,15562,5,8,0:0:0:0:
372,104,15804,1,0,0:0:0:0:
260,120,16046,1,4,0:0:0:0:
36,116,16530,2,0,P|20:192|44:280,1,150,2|0,0:0|0:0,0:0:0:0:
256,308,17497,1,2,0:0:0:0:
448,192,17981,5,8,0:0:0:0:
364,116,18223,1,0,0:0:0:0:
256,140,18465,1,4,0:0:0:0:
112,312,18949,1,2,0:0:0:0:
40,100,19433,5,8,0:0:0:0:
140,152,19674,1,0,0:0:0:0:
256,140,19916,1,4,0:0:0:0:
472,76,20400,2,0,P|480:144|476:180,1,75,2|0,0:0|0:0,0:0:0:0:
472,264,20884,1,0,0:0:0:0:
256,324,21368,6,0,P|208:328|172:324,1,75,2|0,0:0|0:0,0:0:0:0:
68,324,21851,1,0,0:0:0:0:
68,100,22335,5,2,0:0:0:0:
164,44,22577,1,0,0:0:0:0:
260,100,22819,1,0,0:0:0:0:
152,300,23303,5,8,0:0:0:0:
376,284,23787,2,0,P|392:248|396:196,1,75,4|0,0:0|0:0,0:0:0:0:
400,100,24270,1,2,0:0:0:0:
48,56,25480,5,0,0:0:0:0:
148,108,25722,2,0,P|188:112|232:112,1,75,8|0,0:0|0:0,0:0:0:0:
320,56,26206,2,0,P|400:56|496:72,1,150,4|2,0:0|0:0,0:0:0:0:
460,292,27173,5,4,0:0:0:0:
240,344,27657,1,8,0:0:0:0:
84,180,28141,2,0,P|56:80|72:8,1,150,2|0,0:0|0:0,0:0:0:0:
288,44,29108,6,0,L|392:44,1,75,2|0,0:0|0:0,0:0:0:0:
288,128,29592,2,0,L|184:128,1,75
288,212,30076,5,4,0:0:0:0:
64,212,30560,1,8,0:0:0:0:
288,212,31044,6,0,L|288:288,1,75,4|0,0:0|0:0,0:0:0:0:
400,288,31527,2,0,L|400:208,1,75,8|0,0:0|0:0,0:0:0:0:
356,108,32011,2,0,P|256:100|172:116,1,150,2|0,0:0|0:0,0:0:0:0:
256,328,32979,2,0,P|168:340|80:320,1,150,2|0,0:0|0:0,0:0:0:0:
44,116,33946,5,4,0:0:0:0:
256,44,34430,1,8,0:0:0:0:
256,268,34914,6,0,L|180:268,1,75,2|0,0:0|0:0,0:0:0:0:
256,184,35398,2,0,L|256:100,1,75
340,184,35881,2,0,L|424:184,1,75,2|0,0:0|0:0,0:0:0:0:
340,268,36365,2,0,L|340:344,1,75
256,268,36849,5,0,0:0:0:0:
156,68,37333,1,4,0:0:0:0:
380,92,37817,1,2,0:0:0:0:
16,356,38784,5,4,0:0:0:0:
220,260,39268,2,0,L|300:260,1,75,8|0,0:0|0:0,0:0:0:0:
220,176,39752,2,0,P|80:160|-16:180,1,225,8|0,0:0|0:0,0:0:0:0:
40,280,40719,5,2,0:0:0:0:
256,344,41203,1,0,0:0:0:0:
256,232,41445,1,8,0:0:0:0:
252,120,41687,2,0,P|384:112|496:124,1,225,8|0,0:0|0:0,0:0:0:0:
484,232,42655,5,4,0:0:0:0:
260,236,43138,2,0,L|260:312,1,75,8|0,0:0|0:0,0:0:0:0:
176,236,43622,2,0,P|168:144|184:56,1,150,8|0,0:0|0:0,0:0:0:0:
256,8,44348,1,8,0:0:0:0:
348,72,44590,5,2,0:0:0:0:
256,280,45074,1,0,0:0:0:0:
348,348,45315,1,8,0:0:0:0:
436,280,45557,2,0,P|448:192|432:108,1,150,8|0,0:0|0:0,0:0:0:0:
388,32,46283,1,8,0:0:0:0:
276,32,46525,5,4,0:0:0:0:
276,256,47009,2,0,L|276:344,1,75,8|0,0:0|0:0,0:0:0:0:
192,256,47493,2,0,L|104:256,1,75,8|0,0:0|0:0,0:0:0:0:
192,172,47976,2,0,L|192:96,1,75,8|0,0:0|0:0,0:0:0:0:
276,172,48460,5,2,0:0:0:0:
464,48,48944,1,0,0:0:0:0:
372,120,49186,1,8,0:0:0:0:
288,48,49428,1,0,0:0:0:0:
204,120,49670,1,8,0:0:0:0:
120,48,49911,1,0,0:0:0:0:
36,120,50153,1,8,0:0:0:0:
120,196,50395,5,4,0:0:0:0:
408,196,52330,5,2,0:0:0:0:
368,80,54266,5,4,0:0:0:0:
368,304,54749,1,8,0:0:0:0:
144,304,55233,1,2,0:0:0:0:
144,80,55717,1,0,0:0:0:0:
144,304,56201,5,8,0:0:0:0:
340,192,56685,2,0,L|340:104,1,75,4|0,0:0|0:0,0:0:0:0:
424,192,57168,2,0,P|432:292|416:368,1,150,2|0,0:0|0:0,0:0:0:0:
200,340,58136,5,4,0:0:0:0:
112,268,58378,1,0,0:0:0:0:
188,184,58620,1,2,0:0:0:0:
412,220,59104,1,8,0:0:0:0:
472,124,59345,1,0,0:0:0:0:
368,76,59587,1,2,0:0:0:0:
256,272,60071,5,8,0:0:0:0:
32,248,60555,1,4,0:0:0:0:
32,136,60797,1,0,0:0:0:0:
104,52,61039,2,0,L|272:52,1,150,2|0,0:0|0:0,0:0:0:0:
480,48,62006,6,0,P|428:48|380:56,1,75,4|0,0:0|0:0,0:0:0:0:
380,160,62490,1,2,0:0:0:0:
228,324,62974,2,0,P|176:324|144:316,1,75,8|0,0:0|0:0,0:0:0:0:
116,212,63458,1,2,0:0:0:0:
256,36,63941,5,8,0:0:0:0:
420,192,64425,1,4,0:0:0:0:
256,348,64909,1,8,0:0:0:0:
96,192,65393,1,2,0:0:0:0:
256,36,65877,5,8,0:0:0:0:
420,192,66360,2,0,P|332:200|240:184,1,150,0|4,0:0|0:0,0:0:0:0:
52,136,67328,2,0,L|0:192,1,75,0|4,0:0|0:0,0:0:0:0:
196,304,68054,5,8,0:0:0:0:
296,356,68296,1,4,0:0:0:0:
396,304,68538,1,4,0:0:0:0:
396,192,68779,5,4,0:0:0:0:
296,144,69021,1,0,0:0:0:0:
196,192,69263,1,8,0:0:0:0:
32,40,69747,6,0,P|136:40|208:56,1,150,4|8,0:0|0:0,0:0:0:0:
180,272,70715,2,0,P|280:272|360:256,1,150,2|0,0:0|0:0,0:0:0:0:
440,68,71682,5,8,0:0:0:0:
444,292,72166,2,0,P|376:304|352:304,1,75,4|0,0:0|0:0,0:0:0:0:
256,312,72650,1,2,0:0:0:0:
144,100,73617,5,4,0:0:0:0:
256,84,73859,1,0,0:0:0:0:
368,100,74101,1,2,0:0:0:0:
368,324,74585,1,8,0:0:0:0:
256,344,74827,1,0,0:0:0:0:
144,324,75069,1,2,0:0:0:0:
256,128,75553,5,8,0:0:0:0:
480,128,76036,2,0,L|480:40,1,75,2|0,0:0|0:0,0:0:0:0:
396,128,76520,2,0,P|384:228|412:304,1,150,2|0,0:0|0:0,0:0:0:0:
184,192,77488,6,0,L|104:192,1,75,4|0,0:0|0:0,0:0:0:0:
184,108,77971,1,2,0:0:0:0:
392,192,78455,1,8,0:0:0:0:
288,232,78697,2,0,L|288:316,1,75,0|2,0:0|0:0,0:0:0:0:
64,192,79423,6,0,P|24:192|-16:180,1,75,0|4,0:0|0:0,0:0:0:0:
64,272,79907,2,0,P|64:324|56:356,1,75,0|8,0:0|0:0,0:0:0:0:
144,272,80390,2,0,P|188:272|228:280,1,75,0|2,0:0|0:0,0:0:0:0:
144,192,80874,1,0,0:0:0:0:
256,192,81358,5,4,0:0:0:0:
256,192,83293,1,2,0:0:0:0:
