osu file format v14

[General]
AudioFilename: Xu Weizhou () - Toward The Bright Side ().mp3
AudioLeadIn: 0
PreviewTime: 67991
Countdown: 0
SampleSet: Soft
StackLeniency: 0.6
Mode: 0
LetterboxInBreaks: 1
WidescreenStoryboard: 0

[Editor]
DistanceSpacing: 1.4
BeatDivisor: 4
GridSize: 4
TimelineZoom: 1

[Metadata]
Title:Toward The Bright Side
TitleUnicode:向着光亮那方
Artist:Xu Wei Zhou
ArtistUnicode:许魏洲
Creator:OscaR CUBE
Version:Hard
Source:Yesterday Once More
Tags:Timmy ZhouZhou Addicted Heroin Webseries Asian
BeatmapID:998536
BeatmapSetID:466590

[Difficulty]
HPDrainRate:6
CircleSize:3
OverallDifficulty:5.5
ApproachRate:7
SliderMultiplier:1.6
SliderTickRate:1

[Events]
//Background and Video events
Video,0,"[MV] Toward The Bright Side (向着光亮那方).avi"
0,0,"maxresdefault (1).jpg",0,0
//Break Periods
2,109480,117432
//Storyboard Layer 0 (Background)
//Storyboard Layer 1 (Fail)
//Storyboard Layer 2 (Pass)
//Storyboard Layer 3 (Foreground)
//Storyboard Sound Samples

[TimingPoints]
375,620.47569803516,4,2,1,40,1,0
10302,-133.333333333333,4,2,1,40,0,0
28916,-133.333333333333,4,2,1,20,0,0
29227,-133.333333333333,4,2,2,40,0,0
30105,618.556701030928,4,2,2,40,1,0
30105,-133.333333333333,4,2,2,40,0,0
48661,-133.333333333333,4,2,1,40,0,0
49898,-133.333333333333,4,2,2,50,0,0
64744,-133.333333333333,4,2,2,5,0,0
67218,-100,4,2,1,50,0,0
69692,-100,4,1,1,60,0,1
89331,-100,4,1,1,60,0,0
89486,-100,4,1,1,60,0,1
109280,-133.333333333333,4,2,1,10,0,0
117405,618.556701030928,4,2,1,50,1,0
119879,-100,4,1,1,60,0,1
139518,-100,4,1,1,60,0,0
139673,-100,4,1,1,60,0,1
159466,-133.333333333333,4,2,1,30,0,0
159776,-133.333333333333,4,2,2,30,0,0
168126,-133.333333333333,4,2,1,30,0,0

[Colours]
Combo1 : 0,163,240
Combo2 : 158,62,255
Combo3 : 255,151,47

[HitObjects]
428,320,10302,6,0,P|443:265|422:199,1,120.000004577637
482,112,11233,2,0,P|427:97|361:118,1,120.000004577637
272,164,12164,1,8,0:0:0:0:
176,113,12474,1,0,0:0:0:0:
76,72,12784,6,0,P|70:129|105:194,1,120.000004577637
32,272,13715,2,0,P|95:294|158:273,1,120.000004577637
252,260,14645,1,0,0:0:0:0:
340,324,14956,1,0,0:0:0:0:
444,292,15266,6,0,P|457:237|439:168,1,120.000004577637
368,100,16197,2,0,P|310:113|252:100,1,120.000004577637
156,52,17127,1,8,0:0:0:0:
68,116,17438,1,0,0:0:0:0:
68,116,17748,6,0,L|88:244,1,120.000004577637
168,304,18679,2,0,P|224:288|301:315,1,120.000004577637
376,356,19609,1,0,0:0:0:0:
412,332,20230,6,0,P|444:296|436:216,1,120.000004577637
376,144,21160,2,0,P|316:158|256:139,1,120.000004577637
320,52,22091,1,8,0:0:0:0:
428,52,22401,1,0,0:0:0:0:
428,52,22712,6,0,P|474:102|477:171,1,120.000004577637
376,144,23642,2,0,P|316:158|256:139,1,120.000004577637
180,72,24573,1,0,0:0:0:0:
180,72,24883,1,0,0:0:0:0:
80,120,25194,6,0,P|72:204|88:255,1,120.000004577637
36,336,26124,2,0,P|94:325|153:335,1,120.000004577637
260,360,27055,1,8,0:0:0:0:
340,284,27365,1,0,0:0:0:0:
420,212,27675,6,0,P|378:183|296:185,1,120.000004577637
208,208,28606,1,0,0:0:0:0:
100,192,28916,1,2,0:0:0:0:
72,180,30105,6,0,P|60:140|68:96,1,60.0000022888184,0|0,3:0|0:0,0:0:0:0:
140,48,30723,2,0,P|178:52|212:41,1,60.0000022888184
252,64,31187,2,0,P|295:57|353:68,1,90.0000034332277
448,40,31960,1,2,0:0:0:0:
448,40,32269,1,0,0:0:0:0:
432,148,32579,5,0,3:0:0:0:
432,148,32888,1,0,0:0:0:0:
457,254,33197,2,0,P|428:260|400:252,1,60.0000022888184
352,232,33661,2,0,L|248:240,1,90.0000034332277
200,328,34434,1,2,0:0:0:0:
156,228,34744,1,0,0:0:0:0:
108,132,35053,6,0,P|136:122|189:128,1,60.0000022888184,0|0,3:0|0:0,0:0:0:0:
264,76,35672,2,0,L|348:68,1,60.0000022888184
432,60,36290,1,0,0:0:0:0:
432,60,36599,1,0,0:0:0:0:
428,168,36909,2,0,P|424:212|434:240,1,60.0000022888184,2|0,0:0|0:0,0:0:0:0:
488,316,37527,6,0,P|433:304|363:320,1,120.000004577637,0|0,3:0|0:0,0:0:0:0:
268,352,38455,1,0,0:0:0:0:
168,316,38764,2,0,P|138:321|109:316,1,60.0000022888184
139,212,39383,1,2,0:0:0:0:
160,184,40001,6,0,L|220:180,1,60.0000022888184,0|0,3:0|0:0,0:0:0:0:
136,264,40620,2,0,P|98:241|84:216,1,60.0000022888184
78,175,41084,2,0,P|92:134|136:105,1,90.0000034332277
228,68,41857,2,0,P|268:72|298:64,1,60.0000022888184,2|0,0:0|0:0,0:0:0:0:
392,44,42476,5,0,3:0:0:0:
400,152,42785,1,0,0:0:0:0:
400,152,43094,2,0,L|328:168,1,60.0000022888184
292,188,43558,2,0,P|278:246|298:291,1,90.0000034332277
368,344,44331,1,2,0:0:0:0:
368,236,44641,1,0,0:0:0:0:
432,148,44950,5,0,3:0:0:0:
432,148,45259,1,0,0:0:0:0:
344,84,45568,1,0,0:0:0:0:
344,84,45878,1,0,0:0:0:0:
236,100,46187,1,0,0:0:0:0:
132,72,46496,1,0,0:0:0:0:
132,72,46806,2,0,P|128:110|137:141,1,60.0000022888184,2|0,0:0|0:0,0:0:0:0:
72,220,47424,6,0,P|126:240|199:214,1,120.000004577637,0|0,3:0|0:0,0:0:0:0:
284,184,48352,1,0,0:0:0:0:
392,204,48661,1,2,0:0:0:0:
412,172,49280,2,0,P|416:132|404:95,1,60.0000022888184
324,52,49898,6,0,P|294:56|264:52,1,60.0000022888184,0|0,3:0|0:0,0:0:0:0:
156,52,50517,1,0,0:0:0:0:
156,52,50826,2,0,P|141:131|160:180,1,120.000004577637
252,112,51754,1,2,0:0:0:0:
252,112,52063,1,0,0:0:0:0:
352,156,52373,6,0,P|388:160|433:145,1,60.0000022888184,0|0,3:0|0:0,0:0:0:0:
500,216,52991,2,0,L|484:284,1,60.0000022888184
400,340,53610,2,0,P|344:324|276:347,1,120.000004577637,0|2,0:0|0:0,0:0:0:0:
180,356,54537,1,0,0:0:0:0:
76,332,54847,6,0,P|64:304|60:268,1,60.0000022888184,0|0,3:0|0:0,0:0:0:0:
128,192,55465,2,0,P|131:161|146:128,1,60.0000022888184,0|0,2:0|2:0,2:0:0:0:
228,72,56084,2,0,P|264:76|292:70,1,60.0000022888184
384,120,56702,2,0,P|413:115|443:119,1,60.0000022888184,2|0,0:0|0:0,0:0:0:0:
415,224,57321,6,0,L|412:352,1,120.000004577637,0|0,3:0|0:0,0:0:0:0:
84,104,58558,2,0,P|139:87|202:107,1,120.000004577637,0|2,0:0|0:0,0:0:0:0:
141,194,59486,1,0,0:0:0:0:
84,286,59795,6,0,P|128:301|150:301,1,60.0000022888184,0|0,3:0|0:0,0:0:0:0:
235,247,60414,1,0,0:0:0:0:
235,247,60723,2,0,B|278:262|315:246|315:246|352:284,1,120.000004577637
416,352,61651,1,2,0:0:0:0:
447,248,61960,1,0,0:0:0:0:
412,144,62269,6,0,P|416:104|408:77,1,60.0000022888184,0|0,3:0|0:0,0:0:0:0:
308,116,62888,2,0,P|278:111|249:116,1,60.0000022888184
156,168,63507,1,0,0:0:0:0:
156,168,63816,1,0,0:0:0:0:
52,136,64125,1,2,0:0:0:0:
52,136,64434,1,0,0:0:0:0:
256,192,64744,12,8,67218,0:0:0:0:
60,184,68146,6,0,P|97:191|145:182,1,80
236,128,68764,1,0,0:0:0:0:
340,168,69074,2,0,P|379:161|418:168,1,80,2|0,0:0|0:0,0:0:0:0:
380,272,69692,6,0,L|376:368,1,80,4|0,0:0|0:0,0:0:0:0:
340,168,70311,2,0,L|344:72,1,80,8|0,0:0|0:0,0:0:0:0:
280,252,70929,2,0,P|265:300|226:328,1,80
136,344,71548,1,8,0:0:0:0:
168,236,71857,1,0,0:0:0:0:
260,172,72166,6,0,P|310:173|337:191,1,80
196,120,72785,2,0,P|172:79|175:46,1,80,8|0,0:0|0:0,0:0:0:0:
180,204,73403,2,0,P|156:244|126:258,1,80
79,157,74022,1,8,0:0:0:0:
79,157,74331,1,0,0:0:0:0:
168,92,74641,5,0,0:0:0:0:
280,112,74950,1,0,0:0:0:0:
372,48,75259,1,8,0:0:0:0:
372,48,75568,2,0,P|392:104|336:209,1,160
280,112,76496,2,0,P|248:153|246:187,1,80,8|0,0:0|0:0,0:0:0:0:
292,280,77115,5,0,0:0:0:0:
292,280,77424,1,0,0:0:0:0:
356,193,77733,1,8,0:0:0:0:
356,193,78043,1,0,0:0:0:0:
468,204,78352,2,0,P|472:228|476:264,3,40
456,296,78970,2,0,P|453:315|451:335,3,40,8|0|0|0,0:0|0:0|0:0|0:0,0:0:0:0:
396,340,79589,6,0,P|323:358|228:331,1,160,4|8,0:0|0:0,0:0:0:0:
140,292,80517,1,0,0:0:0:0:
140,292,80826,2,0,P|99:284|53:296,1,80
220,208,81445,2,0,P|261:216|307:204,1,80,8|0,0:0|0:0,0:0:0:0:
181,121,82063,6,0,P|131:173|139:258,1,160,0|8,0:0|0:0,0:0:0:0:
220,208,82991,1,0,0:0:0:0:
220,208,83300,1,0,0:0:0:0:
316,268,83610,1,0,0:0:0:0:
424,240,83919,1,8,0:0:0:0:
332,156,84228,1,0,0:0:0:0:
316,268,84537,5,0,0:0:0:0:
412,120,84847,2,0,P|370:78|265:100,1,160
172,52,85775,1,0,0:0:0:0:
80,156,86084,1,0,0:0:0:0:
52,48,86393,1,8,0:0:0:0:
176,172,86702,1,0,0:0:0:0:
116,268,87012,5,0,0:0:0:0:
40,348,87321,1,0,0:0:0:0:
80,156,87630,1,0,0:0:0:0:
4,244,87940,1,8,0:0:0:0:
116,268,88249,2,0,L|168:276,3,40
208,260,88867,2,0,L|247:266,3,40,8|0|0|0,0:0|0:0|0:0|0:0,0:0:0:0:
296,296,89486,6,0,P|334:304|379:294,1,80,4|0,0:0|0:0,0:0:0:0:
336,188,90105,1,8,0:0:0:0:
360,80,90414,1,0,0:0:0:0:
360,80,90723,2,0,P|307:79|269:104,1,80
200,168,91342,2,0,L|88:156,1,80,8|0,0:0|0:0,0:0:0:0:
247,266,91960,6,0,L|359:278,1,80
408,348,92579,1,8,0:0:0:0:
432,240,92888,1,0,0:0:0:0:
396,136,93197,2,0,P|444:129|497:156,1,80
316,88,93816,2,0,P|277:78|238:85,1,80,8|0,0:0|0:0,0:0:0:0:
143,152,94434,5,0,0:0:0:0:
52,76,94744,1,0,0:0:0:0:
156,32,95053,1,8,0:0:0:0:
156,32,95362,2,0,L|136:208,1,160
80,288,96290,2,0,P|124:305|173:297,1,80,8|0,0:0|0:0,0:0:0:0:
260,264,96909,5,0,0:0:0:0:
260,264,97218,1,0,0:0:0:0:
364,308,97527,1,8,0:0:0:0:
465,261,97836,1,0,0:0:0:0:
465,148,98146,2,0,P|434:146|404:151,3,40
372,160,98764,2,0,P|352:160|332:158,3,40,8|0|0|0,0:0|0:0|0:0|0:0,0:0:0:0:
284,132,99383,6,0,B|268:112|272:76|272:76|232:100|160:84,1,160,4|8,0:0|0:0,0:0:0:0:
72,44,100311,1,0,0:0:0:0:
72,44,100620,2,0,P|63:98|84:147,1,80
144,204,101239,2,0,P|150:243|141:281,1,80,8|0,0:0|0:0,0:0:0:0:
60,240,101857,6,0,L|239:245,1,160,0|8,0:0|0:0,0:0:0:0:
332,252,102785,1,0,0:0:0:0:
332,252,103094,1,0,0:0:0:0:
376,88,103403,1,0,0:0:0:0:
448,240,103713,1,8,0:0:0:0:
296,156,104022,1,0,0:0:0:0:
464,140,104331,5,0,0:0:0:0:
256,192,104641,12,2,109280,0:0:0:0:
108,56,118332,5,0,0:0:0:0:
108,56,118642,2,0,P|100:112|121:156,1,80
72,240,119260,2,0,P|110:232|149:241,1,80,2|0,0:0|0:0,0:0:0:0:
236,316,119879,6,0,P|274:325|313:317,1,80,4|0,0:0|0:0,0:0:0:0:
420,344,120497,2,0,L|400:248,1,80,8|0,0:0|0:0,0:0:0:0:
380,156,121116,1,0,0:0:0:0:
356,48,121425,1,0,0:0:0:0:
380,156,121734,2,0,P|331:158|284:125,1,80,8|0,0:0|0:0,0:0:0:0:
228,60,122353,6,0,P|189:50|151:59,1,80
80,144,122972,2,0,P|70:182|79:220,1,80,8|0,0:0|0:0,0:0:0:0:
152,308,123590,2,0,P|190:317|228:307,1,80
300,220,124209,1,8,0:0:0:0:
340,324,124518,1,0,0:0:0:0:
300,220,124827,5,0,0:0:0:0:
208,156,125136,2,0,P|192:120|200:72,1,80,0|8,0:0|0:0,0:0:0:0:
308,100,125755,2,0,P|321:171|260:259,1,160
400,128,126683,2,0,L|488:108,1,80,8|0,0:0|0:0,0:0:0:0:
280,245,127301,6,0,L|192:265,1,80
376,152,127920,2,0,L|464:132,1,80,8|0,0:0|0:0,0:0:0:0:
284,128,128539,2,0,L|235:140,3,40
192,124,129157,2,0,L|153:114,3,40,8|0|0|0,0:0|0:0|0:0|0:0,0:0:0:0:
101,137,129776,6,0,P|72:210|121:294,1,160,4|8,0:0|0:0,0:0:0:0:
196,340,130703,1,0,0:0:0:0:
304,304,131013,2,0,L|396:292,1,80
168,208,131631,2,0,L|79:220,1,80,8|0,0:0|0:0,0:0:0:0:
260,128,132250,6,0,B|301:144|341:120|341:120|368:144|356:212,1,160,0|8,0:0|0:0,0:0:0:0:
292,44,133178,1,0,0:0:0:0:
404,56,133487,1,0,0:0:0:0:
449,158,133796,1,0,0:0:0:0:
449,158,134106,1,8,0:0:0:0:
412,264,134415,1,0,0:0:0:0:
412,264,134724,5,0,0:0:0:0:
300,276,135033,2,0,P|228:248|147:282,1,160
72,352,135961,1,0,0:0:0:0:
52,240,136270,1,0,0:0:0:0:
108,144,136580,1,8,0:0:0:0:
80,36,136889,1,0,0:0:0:0:
188,60,137198,6,0,L|272:64,1,80
408,148,137817,2,0,L|324:144,1,80,8|0,0:0|0:0,0:0:0:0:
228,192,138435,2,0,P|200:191|176:196,3,40
152,236,139054,2,0,P|151:264|156:288,3,40,8|0|0|0,0:0|0:0|0:0|0:0,0:0:0:0:
188,320,139673,6,0,P|226:328|268:318,1,80,4|0,0:0|0:0,0:0:0:0:
348,244,140291,2,0,P|386:235|425:243,1,80,8|0,0:0|0:0,0:0:0:0:
389,349,140910,1,0,0:0:0:0:
252,224,141219,1,0,0:0:0:0:
425,243,141528,1,8,0:0:0:0:
436,104,141837,1,0,0:0:0:0:
336,52,142147,6,0,P|297:60|258:52,1,80
168,116,142765,2,0,P|129:108|90:116,1,80,8|0,0:0|0:0,0:0:0:0:
130,221,143384,1,0,0:0:0:0:
92,328,143693,1,0,0:0:0:0:
240,200,144002,1,8,0:0:0:0:
348,240,144311,1,0,0:0:0:0:
260,312,144621,5,0,0:0:0:0:
240,200,144930,1,0,0:0:0:0:
348,240,145240,1,8,0:0:0:0:
348,240,145549,2,0,P|354:185|272:89,1,160
188,96,146477,2,0,L|100:80,1,80,8|0,0:0|0:0,0:0:0:0:
240,200,147095,6,0,L|328:216,1,80
168,60,147714,2,0,L|80:44,1,80,8|0,0:0|0:0,0:0:0:0:
328,152,148332,2,0,L|380:161,3,40
408,196,148951,2,0,P|412:224|412:252,3,40,8|0|0|0,0:0|0:0|0:0|0:0,0:0:0:0:
432,288,149569,6,0,B|380:292|380:292|336:324|336:324|264:336,1,160,4|8,0:0|0:0,0:0:0:0:
171,332,150497,1,0,0:0:0:0:
91,252,150807,1,0,0:0:0:0:
91,140,151116,1,0,0:0:0:0:
170,60,151425,2,0,P|212:69|254:55,1,80,8|0,0:0|0:0,0:0:0:0:
356,92,152044,6,0,P|387:158|360:262,1,160,0|8,0:0|0:0,0:0:0:0:
256,180,152972,1,0,0:0:0:0:
256,180,153281,1,0,0:0:0:0:
116,308,153590,1,0,0:0:0:0:
116,196,153899,1,8,0:0:0:0:
212,344,154209,1,0,0:0:0:0:
308,288,154518,5,0,0:0:0:0:
308,288,154827,2,0,B|352:288|377:318|377:318|400:288|452:288,1,160
376,204,155755,2,0,P|352:154|357:117,1,80
477,77,156374,2,0,P|459:125|431:150,1,80,8|0,0:0|0:0,0:0:0:0:
268,123,156992,6,0,P|228:125|193:145,1,80
144,248,157611,2,0,P|146:287|166:322,1,80,8|0,0:0|0:3,0:0:0:0:
256,256,158229,1,0,0:0:0:0:
80,156,158539,1,0,0:0:0:0:
256,256,158848,2,0,P|268:277|276:302,3,40,8|0|0|0,0:0|0:0|0:0|0:0,0:0:0:0:
276,332,159466,6,0,P|307:344|358:335,2,60.0000022888184,2|0|0,0:0|0:0|0:0,0:0:0:0:
165,321,160394,2,0,P|105:306|36:331,1,120.000004577637
12,220,161322,2,0,P|12:184|16:152,1,60.0000022888184
84,76,161941,5,2,0:0:0:0:
116,88,162559,1,0,0:0:0:0:
148,100,163178,1,0,0:0:0:0:
184,112,163796,1,0,0:0:0:0:
220,128,164415,6,0,P|252:132|300:120,2,60.0000022888184,2|0|0,0:0|0:0|0:0,0:0:0:0:
364,64,165343,2,0,P|410:49|487:73,1,120.000004577637
420,156,166270,1,0,0:0:0:0:
279,127,166580,1,0,0:0:0:0:
279,127,166889,5,2,0:0:0:0:
248,228,167508,1,0,0:0:0:0:
212,328,168126,1,10,0:0:0:0:
