osu file format v5

[General]
AudioFilename: Xpress2 ft. David Byrne - Lazy.mp3
AudioLeadIn: 500
PreviewTime: -1
Countdown: 1
SampleSet: Soft
StackLeniency: 0.3
Mode: 0
LetterboxInBreaks: 1

[Editor]
Bookmarks: 76313,79647,114408,116313,118218,119170,137027,148456,175361,228456,261908,265361,266075,268575,274170,304408,304885,311789,312504,320123
DistanceSpacing: 1
BeatDivisor: 2
GridSize: 8

[Metadata]
Title:Lazy
Artist:Xpress2 ft. David Byrne
Creator:Ephemeral
Version:Wicked
Source:
Tags:xpress2 david byrne classics chillout top hits

[Difficulty]
HPDrainRate:6
CircleSize:4
OverallDifficulty:8
SliderMultiplier:1.4
SliderTickRate:1

[Events]
//Background and Video events
0,0,"xpress2epheditlazy.jpg"
//Break Periods
2,106513,113508
2,120800,136127
2,181751,182080
2,190561,197318
2,221275,227706
2,273418,273420
2,289847,303658
2,319132,319373
2,325323,326992
//Storyboard Layer 0 (Background)
//Storyboard Layer 1 (Fail)
//Storyboard Layer 2 (Pass)
//Storyboard Layer 3 (Foreground)
//Storyboard Sound Samples
//Background Colour Transformations
3,100,163,162,255

[TimingPoints]
2028,476.190476190476,4,2,0,71,1,0
105837,-200,4,2,0,71,0,0
106313,-100,4,2,0,71,0,0
118218,-100,4,2,0,0,0,0
120599,-100,4,2,0,71,0,0
167742,-50,4,1,0,71,0,1
179170,-50,4,1,0,0,0,1
181670,-50,4,1,0,70,0,0
182980,-100,4,2,0,70,0,0
198218,-200,4,2,0,70,0,0
213456,-100,4,2,0,70,0,0
259170,-50,4,1,0,70,0,1
263932,-200,4,1,0,70,0,1
264885,-50,4,1,0,70,0,1
266075,-50,4,2,0,70,0,0
266194,-50,4,1,0,70,0,0
266789,-50,4,1,0,0,0,1
269766,-50,4,1,0,70,0,1
270599,-50,4,1,0,0,0,1
273218,-50,4,1,0,71,0,1
304170,-50,4,2,0,71,0,0
304885,-50,4,1,0,71,0,1
312504,-50,4,1,0,0,0,1
315123,-50,4,1,0,71,0,1
327742,-50,4,1,0,0,0,1
330599,-50,4,1,0,71,0,1
335123,-100,4,1,0,71,0,0
335361,-100,4,1,0,71,0,1

[Colours]
Combo1 : 192,192,192
Combo2 : 128,128,128

[HitObjects]
80,88,76075,1,2
152,88,76313,2,2,B|208:40|288:120|360:72,1,210
354,75,77266,1,0
354,75,77504,1,0
354,75,77742,1,0
354,75,77980,2,2,B|320:136|392:160|352:216,1,140
356,208,78694,1,0
356,208,78932,1,8
356,208,79170,1,6
216,208,79647,5,6
216,136,79885,1,0
216,64,80123,2,2,B|176:32|128:104|80:64,1,140
83,66,80837,1,8
83,66,81075,2,2,B|84:171,2,70
83,66,81789,2,2,B|152:80|112:136|184:160,2,140
80,136,82980,1,0
80,208,83218,1,4
80,280,83456,1,4
152,280,83694,6,4,B|200:240|224:312|288:280,1,140,4|2
284,281,84408,1,0
352,280,84647,2,0,B|464:280,1,70
424,208,85123,1,4
424,64,85599,5,8
352,64,85837,1,0
280,64,86075,2,2,B|280:144,2,70
208,64,86789,2,0,B|112:64,1,70,2|8
64,64,87266,1,4
64,200,87742,6,2,B|224:200,1,140
208,272,88456,1,8
208,344,88694,2,2,B|348:344,1,140
416,344,89408,1,8
416,272,89647,2,2,B|248:272,2,140
416,272,90837,1,8
416,272,91075,1,8
416,128,91313,5,4
272,128,91789,2,2,B|184:128,1,70
272,128,92266,1,8
344,128,92504,1,4
344,264,92980,1,4
272,264,93218,2,2,B|272:224|224:224,1,70
152,224,93694,1,0
152,152,93932,2,0,B|152:112|200:112,1,70,8|0
264,112,94408,1,4
264,248,94885,6,2,B|264:104,1,140
264,248,95837,1,0
264,248,96075,1,2
264,320,96313,2,0,B|136:320,1,70,8|8
200,248,96789,2,0,B|200:144,1,70,8|8
272,176,97266,1,2
200,176,97504,1,0
272,176,97742,1,2
200,176,97980,1,8
272,176,98218,1,4
272,32,98694,5,4
272,104,98932,2,2,B|232:136|320:192|248:240,1,140,6|2
256,232,99647,1,0
256,232,99885,1,2
256,296,100123,2,6,B|208:256|160:328|120:288,1,140,6|2
256,296,100837,2,6,B|304:256|352:328|392:288,1,140,6|2
392,224,101551,1,0
320,224,101789,1,2
392,224,102027,2,0,B|352:176|432:144|392:88,1,140,6|4
256,72,102980,5,2
256,144,103218,1,2
256,216,103456,2,0,B|256:312,1,70
256,352,103932,1,2
256,352,104170,1,2
256,352,104408,2,0,B|256:224,1,70
256,208,104885,2,2,B|256:88,1,70
256,64,105361,1,8
256,64,105599,1,8
256,64,105837,2,4,B|256:176,1,70
232,24,114408,6,10,B|104:32|128:288|376:288|408:32|264:24,1,490,2|10
256,88,116313,6,0,B|208:144|312:312|248:360,1,280,6|0
200,304,117504,1,2
200,232,117742,1,8
168,168,117980,1,8
256,192,118218,12,0,119408
256,192,119647,12,4,120600
400,304,137027,5,2
328,304,137266,2,0,B|240:304,1,70
184,304,137742,1,2
184,232,137980,1,2
256,232,138218,2,0,B|344:232,2,70
256,160,138932,1,2
328,160,139170,2,2,B|328:72,1,70
400,88,139647,1,8
400,160,139885,2,0,B|464:224,1,70
400,336,140599,1,4
328,336,140837,5,2
256,336,141075,2,0,B|256:248,1,70
184,264,141551,1,2
184,192,141789,2,2,B|280:192,2,70
184,120,142504,1,0
256,120,142742,1,2
328,120,142980,2,2,B|328:192,1,70
400,192,143456,2,8,B|336:248,1,70
392,288,143932,1,2
320,288,144170,1,4
176,288,144647,6,2,B|72:288,2,70
176,216,145361,1,0
104,216,145599,1,2
104,144,145837,2,0,B|216:144,1,70,0|8
312,144,146551,1,2
384,144,146789,1,2
456,144,147027,1,10
456,216,147266,2,8,B|456:256|424:280,1,70
360,272,147742,2,8,B|360:312|392:336,1,70,8|2
388,333,148218,1,4
248,336,148694,5,2
176,336,148932,1,0
136,280,149170,1,2
104,216,149408,1,2
168,200,149647,2,2,B|208:264,2,70
240,192,150361,2,0,B|280:152|320:224|376:192,1,140
372,194,151075,1,2
372,194,151313,1,8
371,194,151551,2,2,B|342:142|414:102|374:62,1,140,0|4
320,104,152266,5,0
248,104,152504,2,2,B|200:104|200:152,1,70
200,144,152980,2,2,B|201:185|153:185,1,70,0|0
152,184,153456,2,2,B|104:184|104:232,2,70
256,192,154170,12,4,155837
256,192,156075,5,2
256,192,156313,2,0,B|208:136,1,70
256,192,156789,2,2,B|304:136,1,70
256,192,157266,2,2,B|256:304,2,70
256,192,157980,12,0,159408
256,192,159647,5,4
184,192,159885,2,0,B|136:192|136:240,1,70
200,256,160361,1,8
272,256,160599,2,2,B|272:304|320:304,1,70
384,304,161075,1,8
384,304,161313,1,8
384,304,161551,1,2
384,232,161789,2,2,B|424:192|352:144|392:96,3,140
389,99,163456,1,4
256,48,163932,5,2
256,120,164170,1,8
256,192,164408,2,0,B|256:296,3,70,0|8|8|0
256,262,165361,1,8
256,192,165599,12,4,167266
120,104,167742,6,0,B|256:16|384:112,4,280
176,144,169885,1,0
248,144,170123,1,0
320,144,170361,1,0
320,280,170599,2,2,B|320:184,1,70
248,208,170837,2,2,B|248:296,1,70
176,280,171075,2,2,B|176:184,2,70
256,328,171551,2,2,B|208:256|320:112|256:56,2,280
256,192,172623,12,0,173694
256,192,173932,5,0
256,48,174170,1,0
256,328,174647,1,2
256,328,174885,1,8
256,328,175123,1,2
264,72,175361,6,0,B|136:32|103:135|113:240|256:240|295:211|296:128|384:72|456:368|384:336|152:336|256:264,1,560
256,310,176551,5,0
264,312,176789,6,0,B|136:352|103:249|113:144|256:144|295:173|296:256|384:312|456:16|384:48|152:48|256:120,1,560
256,73,177980,1,0
184,192,178218,1,0
320,192,178456,1,2
256,320,178694,1,8
256,176,178932,1,8
256,192,179170,12,0,180361
256,192,180480,12,0,181551
112,56,182980,5,0
112,56,183218,1,2
112,56,183456,1,8
184,56,183694,1,0
256,56,183932,1,2
328,56,184170,1,8
328,56,184408,1,8
256,192,184647,5,4
336,320,184885,1,0
336,320,185123,1,2
336,320,185361,1,8
264,320,185599,1,0
192,320,185837,1,2
120,320,186075,1,8
120,320,186313,1,8
256,192,186551,5,4
416,104,186789,1,0
416,104,187027,1,2
416,104,187265,1,8
416,176,187503,1,0
416,248,187741,1,2
416,320,187979,1,8
416,320,188217,1,8
256,192,188456,5,4
64,280,188694,1,0
64,280,188932,1,2
64,280,189170,1,8
64,208,189408,1,0
64,136,189646,1,2
64,64,189884,1,8
64,64,190122,1,8
256,192,190361,5,4
368,304,198218,6,0,B|80:304,1,280
88,232,200599,1,0
88,160,201075,2,0,B|208:160,1,70
160,232,202027,2,0,B|272:232,2,70
96,232,203456,1,4
96,304,203932,5,0
168,304,204408,1,2
240,304,204885,1,8
312,304,205361,1,4
384,304,205837,6,0,B|480:176|384:40,1,280
344,96,208218,1,2
344,168,208694,1,8
344,240,209170,1,4
272,168,209647,6,0,B|80:168,2,140
344,168,212027,1,0
344,168,212266,1,2
344,168,212504,1,8
416,168,212980,1,4
272,168,213456,6,2,B|272:32,1,70
272,168,213932,2,2,B|272:296,1,70
200,168,214408,1,8
200,168,214647,1,8
200,168,214885,1,8
200,304,215361,6,2,B|304:304,1,70
200,304,215837,2,2,B|96:304,1,70
200,240,216313,1,8
200,240,216551,1,8
200,240,216789,1,4
272,240,217266,2,0,B|352:240|352:144,2,140,0|0|2
272,240,218456,1,2
272,240,218694,1,2
128,240,219170,6,2,B|40:240,1,70
128,240,219647,2,2,B|128:128,1,70
128,240,220123,1,8
128,240,220361,1,8
200,240,220599,2,0,B|240:208|288:272|336:248,1,140,0|4
376,304,228456,5,2
304,304,228694,2,0,B|264:272|216:344|168:304,1,140
171,306,229408,1,2
171,306,229647,1,2
171,306,229885,1,0
168,168,230361,5,2
240,168,230599,2,2,B|344:168,1,70
376,168,231075,1,8
328,216,231313,2,0,B|400:216|320:328|400:328,1,140
456,328,232027,1,4
384,328,232266,5,2
312,328,232504,2,0,B|264:296|232:368|168:328,1,140
120,288,233218,1,0
167,232,233456,2,2,B|231:235|151:123|223:123,1,140
88,192,234408,5,8
256,192,234647,1,2
416,192,234885,1,8
256,192,235123,12,4,235837
88,312,236313,5,0
160,312,236551,1,2
88,312,236789,1,8
88,240,237027,1,0
160,240,237266,2,0,B|160:112,1,70
160,96,237742,1,4
296,96,238218,6,0,B|384:96,1,70
368,168,238694,1,8
296,168,238932,2,0,B|296:256,1,70
368,232,239408,1,0
368,232,239527,1,8
368,232,239647,1,8
368,304,239885,1,8
296,304,240123,6,2,B|224:304,1,70
224,232,240599,2,2,B|320:232,1,70
296,160,241075,2,2,B|216:160,2,70
296,88,241789,2,0,B|192:88,1,70
256,152,242266,1,0
256,224,242504,1,8
256,296,242742,1,8
256,224,242980,1,2
256,152,243456,5,4
336,264,243932,6,0,B|248:144,1,140
253,151,244647,1,2
253,151,244885,1,8
253,151,245361,1,8
253,151,245837,2,2,B|152:304,2,140
256,152,247266,1,4
256,288,247742,5,2
224,224,247980,1,0
296,224,248218,1,2
256,168,248456,1,0
224,104,248694,1,2
296,104,248932,1,0
256,192,249408,12,0,250599
256,192,251075,5,4
256,264,251313,6,2,B|144:264,1,70
256,264,251789,2,0,B|368:264,1,70
256,264,252266,2,0,B|256:112,2,140
256,336,253456,1,2
216,272,253694,1,0
296,272,253932,1,2
256,208,254170,1,0
256,136,254408,1,0
256,136,254527,1,8
256,136,254647,1,8
256,64,254885,1,8
256,64,255123,1,4
192,200,255361,6,2,B|336:200,1,140
256,136,256075,1,0
256,136,256313,2,0,B|256:280,1,140
256,192,257027,12,0,258694
256,192,259170,6,0,B|112:232|192:56|408:56|376:216|384:360|80:360|88:72|248:72,1,560
256,40,260361,1,0
256,192,260599,2,0,B|400:232|320:56|104:56|136:216|128:360|432:360|424:72|264:72,1,560
256,40,262027,5,2
256,176,262266,1,2
256,312,262504,1,8
256,312,262742,1,8
144,224,262980,2,2,B|88:160|144:96,1,140,2|2
256,176,263456,1,8
368,224,263694,2,2,B|424:160|368:96,1,140
256,176,264170,2,2,B|256:288,1,70
256,64,265361,6,2,B|256:208,1,140
256,336,266075,2,0,B|256:192,1,140,2|8
256,196,266551,1,2
256,192,266789,12,0,268456
256,192,268694,12,0,269647
256,64,269885,5,2
256,200,270123,1,8
256,336,270361,1,8
256,192,270599,12,0,271551
256,192,271789,12,4,273218
392,80,274170,6,2,B|192:80,2,140
392,216,274885,1,8
248,216,275123,1,0
320,96,275361,2,2,B|320:256,2,140,2|0|2
176,96,276075,1,8
176,232,276313,1,0
304,168,276551,2,2,B|160:168,2,140,2|0|2
312,304,277266,1,8
256,32,277742,5,4
256,168,277980,2,2,B|256:336,2,140,2|0|2
112,168,278694,2,0,B|112:16,2,140,8|8|8
384,168,279647,1,2
384,304,279885,1,8
240,304,280123,1,2
240,160,280361,2,2,B|240:8,1,140
96,16,280837,2,2,B|96:160,1,140
96,296,281313,6,0,B|264:296,1,140,4|0
240,152,281789,2,0,B|240:0,2,140,4|2|2
376,152,282504,1,8
376,288,282742,1,8
376,152,282980,2,2,B|376:312,1,140
112,192,283456,5,4
248,192,283694,2,2,B|248:48,2,140,2|0|2
248,328,284408,2,2,B|424:328,2,140,2|0|2
496,192,285361,5,4
216,192,285837,2,2,B|72:192,1,140
76,192,286313,2,2,B|152:72,1,140
150,73,286789,2,2,B|304:72,1,140
288,72,287266,2,2,B|208:200,1,140
213,190,287742,2,2,B|312:296,3,140,2|0|0|2
216,192,288694,2,0,B|360:192,1,140
356,192,289170,1,8
352,48,289647,1,4
256,192,304408,5,2
256,192,304885,12,0,307504
256,48,307742,5,2
256,184,307980,1,2
256,320,308218,1,8
256,320,308456,1,8
112,320,308694,2,2,B|40:192|104:48,1,280
256,192,309408,1,8
409,50,309647,2,2,B|472:192|400:320,1,280
256,40,311075,5,8
256,192,311313,1,0
256,336,311789,1,8
256,192,312504,12,0,314051
256,192,314289,12,0,315123
256,56,315361,6,0,B|432:56,1,140
256,120,315837,2,8,B|112:120,1,140
256,184,316313,2,2,B|256:336,3,140,2|0|0|2
256,192,317504,12,0,318932
256,192,320123,6,0,B|112:152|192:328|408:328|376:168|384:24|80:24|88:312|248:312,1,560
328,296,321313,5,0
256,192,321551,2,0,B|400:232|320:56|104:56|136:216|128:360|432:360|424:72|264:72,1,560
88,136,322980,1,2
88,272,323218,1,2
208,344,323456,1,8
328,344,323694,1,8
424,240,323932,2,2,B|456:176|448:104|392:48|296:48,1,280
88,240,324647,2,2,B|56:176|64:104|120:48|216:48,1,280
256,192,327742,12,0,329408
256,192,329647,12,2,330599
256,192,330837,5,2
256,192,331075,1,8
256,328,331313,1,8
128,264,331551,2,2,B|384:128,1,280
256,56,332266,1,8
128,104,332504,2,2,B|368:256,1,280
256,192,333694,5,8
256,192,333813,1,8
256,192,333932,1,8
256,48,334170,1,0
256,184,334647,1,2
256,328,335361,1,4
