osu file format v6

[General]
AudioFilename: ximbication.mp3
AudioLeadIn: 0
PreviewTime: -1
Countdown: 1
SampleSet: Soft
StackLeniency: 0.7
Mode: 0
LetterboxInBreaks: 1

[Editor]
DistanceSpacing: 0.800000011920929
BeatDivisor: 1
GridSize: 32

[Metadata]
Title:Ximbication (The Diva Mix)
Artist:Ximbica
Creator:xboingx
Version:Normal
Source:
Tags:

[Difficulty]
HPDrainRate:5
CircleSize:5
OverallDifficulty:5
SliderMultiplier:1.6
SliderTickRate:1

[Events]
//Background and Video events
//Break Periods
2,89722,109935
2,199270,204451
//Storyboard Layer 0 (Background)
//Storyboard Layer 1 (Fail)
//Storyboard Layer 2 (Pass)
//Storyboard Layer 3 (Foreground)
//Storyboard Sound Samples
//Background Colour Transformations
3,100,163,162,255

[TimingPoints]
5135,387.096774193548,4,2,0,100,1,0

[HitObjects]
96,64,60135,1,0
256,192,62135,1,0
160,128,63135,1,0
192,224,64135,1,0
224,128,65135,1,0
160,224,66135,1,0
256,256,67135,1,0
256,256,68135,1,0
256,256,69135,1,0
256,256,70135,1,0
256,256,71135,1,0
160,128,72135,1,0
128,224,74135,1,0
416,256,75135,1,0
192,256,76135,1,0
192,128,77135,2,0,B|320:256|96:96|160:256|352:288|448:224|448:96|384:32|224:64|160:288|352:320|352:320|128:256|-32:288|-32:96|-32:160|128:96|128:96|128:160|544:256|544:128|160:64|352:32|448:-32|128:192|128:192|448:256|544:320|-32:64|-32:128|-32:128|-32:224|32:192|32:192|-32:192|-32:192|64:192,2,2560
160,128,111135,5,0
352,192,112135,1,0
160,160,114135,5,0
352,128,116135,1,0
256,256,117135,1,0
288,128,118135,1,0
192,224,119135,1,0
64,160,120135,1,0
160,192,121135,1,0
224,192,122135,1,0
288,192,123135,1,0
224,192,124135,1,0
320,192,125135,1,0
160,192,126135,1,0
288,160,127135,1,0
128,160,128135,1,0
384,128,129135,1,0
160,160,130135,1,0
352,160,131135,1,0
160,160,132135,1,0
320,160,133135,1,0
224,160,134135,1,0
256,96,136135,1,0
256,96,137135,1,0
256,208,138135,12,10,142135
352,128,145135,5,0
320,256,146135,1,0
256,192,147135,1,0
320,128,148135,1,0
384,224,149135,1,0
192,160,153005,1,0
288,96,153393,1,0
256,192,153780,1,0
256,192,154167,1,0
256,192,154554,1,0
256,192,154941,1,0
256,192,155328,1,0
256,192,155715,1,0
256,192,156102,1,0
256,192,156489,1,0
256,192,156876,1,0
160,96,157651,1,0
384,96,158038,1,0
160,256,158425,1,0
352,256,158812,1,0
256,160,159586,1,0
128,128,159973,1,0
128,256,160360,1,0
416,96,160747,1,0
256,64,161522,1,0
384,192,161909,1,0
192,192,162296,1,0
256,208,165005,12,0,166554
128,192,167715,5,0
192,256,168102,1,0
256,128,168489,1,0
96,128,168876,1,0
64,192,169264,1,0
288,224,169651,1,0
160,192,170038,1,0
224,192,170425,1,0
224,256,170812,1,0
160,96,171199,1,0
352,160,171586,1,0
160,192,171973,1,0
160,224,172360,1,0
256,128,172747,1,0
224,224,173135,1,0
320,96,173909,1,0
160,96,174296,1,0
160,224,174683,1,0
288,224,175070,1,0
224,160,175844,1,0
288,128,176231,1,0
192,96,176618,1,0
192,192,177005,1,0
288,192,177393,1,0
192,256,178167,1,0
256,128,178941,5,0
160,128,179715,1,0
224,224,180102,1,0
288,160,180876,1,8
192,160,181651,1,8
224,224,182812,1,8
96,96,183586,2,8,B|448:96|384:96|384:96,10,160
96,128,190941,2,0,B|416:128|416:128|384:128|384:128,5,320
128,160,196747,1,0
320,128,197135,1,0
192,224,197522,1,0
352,224,197909,1,0
192,64,198683,1,0
96,160,199070,1,0
224,192,205651,5,0
