osu file format v12

[General]
AudioFilename: Xiao Ya Xuan - Xiang Nian Sheng Dan Jie.mp3
AudioLeadIn: 0
PreviewTime: 78624
Countdown: 0
SampleSet: Soft
StackLeniency: 0.6
Mode: 0
LetterboxInBreaks: 0
WidescreenStoryboard: 0

[Editor]
DistanceSpacing: 1
BeatDivisor: 4
GridSize: 4

[Metadata]
Title:Xiang Nian Sheng Dan Jie
TitleUnicode:想念圣诞节
Artist:Xiao Ya Xuan
ArtistUnicode:萧亚轩
Creator:CET 6
Version:Normal
Source:
Tags:Elva Hsiao Missing Christmas 爱的主打歌·吻
BeatmapID:355982
BeatmapSetID:143047

[Difficulty]
HPDrainRate:3
CircleSize:3
OverallDifficulty:3
ApproachRate:4
SliderMultiplier:1.2
SliderTickRate:1

[Events]
//Background and Video events
0,0,"BG.jpg",0,0
//Break Periods
//Storyboard Layer 0 (Background)
//Storyboard Layer 1 (Fail)
//Storyboard Layer 2 (Pass)
//Storyboard Layer 3 (Foreground)
//Storyboard Sound Samples
//Background Colour Transformations
3,100,163,162,255

[TimingPoints]
9079,545.454545454546,3,2,1,50,1,0
10169,-100,3,2,2,50,0,0
10715,-100,3,2,2,40,0,0
11260,-100,3,2,2,50,0,0
12897,-100,3,2,2,40,0,0
13442,-100,3,2,2,50,0,0
13988,-100,3,2,2,40,0,0
14533,-100,3,2,2,50,0,0
16169,-100,3,2,2,40,0,0
16715,-100,3,2,2,50,0,0
17260,-100,3,2,2,40,0,0
18079,-100,3,2,2,50,0,0
19442,-100,3,2,2,40,0,0
19988,-100,3,2,2,50,0,0
21079,-100,3,2,2,40,0,0
21624,-100,3,2,2,50,0,0
22169,-100,3,2,2,40,0,0
24351,-100,3,2,1,5,0,0
26533,-100,3,2,1,50,0,0
27079,545.454545454546,4,2,1,50,1,0
70715,-100,4,2,1,60,0,0
79442,-100,4,2,1,60,0,1
79579,-100,4,2,1,60,0,0
79988,-100,4,2,1,70,0,0
96897,-100,4,2,1,70,0,1
114351,-100,4,2,1,60,0,0
118169,-100,4,2,1,50,0,0

[Colours]
Combo1 : 255,0,0
Combo2 : 255,255,128
Combo3 : 149,255,149
Combo4 : 149,255,255
Combo5 : 255,128,128

[HitObjects]
5,63,10169,1,0,0:0:0:0:
89,147,10715,1,2,0:0:0:0:
204,173,11260,2,0,P|252:204|286:254,1,120
198,345,12351,2,0,P|148:312|115:262,2,120,0|8|0,0:0|0:0|0:0,0:0:0:0:
286,257,13988,5,2,0:0:0:0:
401,231,14533,2,0,P|449:199|483:149,1,120
395,59,15624,2,0,P|345:91|312:141,2,120,0|8|0,0:0|0:0|0:0,0:0:0:0:
483,148,17260,21,2,0:0:0:0:
482,270,17806,2,0,L|408:250,1,60,2|0,0:0|0:0,0:0:0:0:
366,274,18351,2,0,L|292:254,1,60
270,214,18897,2,0,B|281:171|281:171|300:147|300:147|312:101,2,120,0|2|0,0:0|0:0|0:0,0:0:0:0:
164,160,20533,2,0,L|195:44,1,120,0|2,0:0|0:0,0:0:0:0:
64,36,21624,2,0,B|52:79|52:79|56:110|56:110|45:153,1,120,0|8,0:0|0:0,0:0:0:0:
256,192,24351,12,2,26533,0:0:0:0:
236,172,27079,37,0,3:0:0:0:
136,104,27624,1,2,0:0:0:0:
32,164,28169,2,0,P|28:224|56:280,1,120,0|2,3:0|0:0,0:0:0:0:
168,312,29260,1,0,3:0:0:0:
184,192,29806,2,0,L|320:208,2,120,2|0|2,0:0|3:0|0:0,0:0:0:0:
216,72,31442,6,0,L|284:64,2,60,0|0|2,3:0|0:0|0:0,0:0:0:0:
320,130,32533,2,0,L|388:122,2,60,0|0|2,3:0|0:0|0:0,0:0:0:0:
416,200,33624,2,0,P|440:272|429:320,1,120,0|2,3:0|0:0,0:0:0:0:
312,272,34715,2,0,B|264:232|200:256|200:256|136:296|72:264,1,240,0|0,3:0|3:0,0:0:0:0:
128,152,36351,37,2,0:0:0:0:
184,40,36897,2,0,P|232:88|254:151,1,120,0|2,3:0|0:0,0:0:0:0:
280,248,37988,2,0,P|304:302|347:343,1,120,0|2,3:0|0:0,0:0:0:0:
464,328,39079,1,0,3:0:0:0:
464,328,39624,1,2,0:0:0:0:
452,208,40169,6,0,L|444:128,2,60,0|0|2,3:0|0:0|0:0,0:0:0:0:
352,136,41260,2,0,L|344:56,2,60,0|0|2,3:0|0:0|0:0,0:0:0:0:
264,48,42351,2,0,P|204:48|128:84,1,120,0|2,3:0|0:0,0:0:0:0:
224,164,43442,2,0,B|248:228|184:268|184:268|208:324|264:356,1,240,0|4,3:0|0:0,0:0:0:0:
344,264,45079,5,2,0:0:0:0:
440,192,45624,2,0,P|417:137|369:102,1,120,0|2,3:0|0:0,0:0:0:0:
248,80,46715,1,0,3:0:0:0:
129,102,47260,2,0,P|81:137|58:191,2,120,2|0|2,0:0|3:0|0:0,0:0:0:0:
176,216,48897,38,0,L|205:268,2,60,0|0|2,3:0|0:0|0:0,0:0:0:0:
288,248,49988,2,0,L|258:195,2,60,0|0|2,3:0|0:0|0:0,0:0:0:0:
335,362,51079,2,0,P|382:326|405:272,2,120,0|2|0,3:0|0:0|3:0,0:0:0:0:
288,248,52715,1,2,0:0:0:0:
288,248,53260,2,0,P|311:193|358:157,1,120,0|2,3:0|0:0,0:0:0:0:
436,68,54351,6,0,L|302:54,1,120,0|2,3:0|0:0,0:0:0:0:
203,94,55442,1,0,3:0:0:0:
102,27,55988,1,2,0:0:0:0:
16,112,56533,2,0,P|48:208|48:240,1,120,0|2,3:0|0:0,0:0:0:0:
144,152,57624,6,0,L|232:144,2,60,0|0|2,3:0|0:0|0:0,0:0:0:0:
186,264,58715,2,0,L|194:352,2,60,0|0|2,3:0|0:0|0:0,0:0:0:0:
304,248,59806,1,0,3:0:0:0:
416,280,60351,2,0,P|448:184|448:152,1,120,0|0,0:0|3:0,0:0:0:0:
352,96,61442,1,2,0:0:0:0:
255,166,61988,38,0,P|263:225|288:280,2,120,4|2|0,3:2|0:0|3:0,0:0:0:0:
172,256,63624,1,2,0:0:0:0:
116,148,64169,2,0,P|170:123|229:115,1,120,0|2,3:0|0:0,0:0:0:0:
348,116,65260,1,0,3:0:0:0:
464,88,65806,1,2,0:0:0:0:
431,203,66351,6,0,P|431:291|407:331,1,120,0|2,3:0|0:0,0:0:0:0:
304,276,67442,2,0,P|248:255|189:262,1,120,0|2,3:0|0:0,0:0:0:0:
76,296,68533,1,0,3:0:0:0:
120,184,69079,1,2,0:0:0:0:
52,84,69624,2,0,P|100:64|169:73,1,120,0|2,3:0|0:0,0:0:0:0:
120,184,70715,21,4,3:2:0:0:
120,184,71260,2,0,L|248:224,1,120,2|0,0:0|3:0,0:0:0:0:
260,104,72351,2,0,L|388:144,1,120,2|0,0:0|3:0,0:0:0:0:
488,180,73442,1,2,0:0:0:0:
396,256,73988,22,0,P|364:304|356:384,1,120,0|2,3:0|0:0,0:0:0:0:
236,344,75079,1,0,3:0:0:0:
236,344,75624,1,2,0:0:0:0:
144,264,76169,1,0,3:0:0:0:
144,264,76715,1,2,0:0:0:0:
256,224,77260,2,0,L|208:152,2,60,0|0|2,3:0|0:0|0:0,0:0:0:0:
144,264,78351,1,0,3:0:0:0:
144,264,78897,1,10,0:0:0:0:
32,224,79442,6,0,B|76:156|76:156|116:144,1,120,12|8,3:2|0:0,0:0:0:0:
184,48,80533,1,0,3:0:0:0:
256,144,81079,1,8,0:0:0:0:
376,144,81624,2,0,P|392:232|392:280,1,120,0|8,3:0|0:0,0:0:0:0:
272,280,82715,6,0,L|192:288,2,60,0|2|8,0:0|0:0|0:0,0:0:0:0:
192,192,83806,2,0,L|112:184,2,60,0|0|8,3:0|0:0|0:0,0:0:0:0:
144,80,84897,2,0,P|72:85|16:112,2,120,0|8|0,3:0|0:0|3:0,0:0:0:0:
256,32,86533,1,8,0:0:0:0:
368,80,87079,38,0,L|427:85,2,60,0|2|10,3:0|0:0|0:0,0:0:0:0:
272,152,88169,2,0,P|277:223|304:280,2,120,4|8|0,0:0|0:0|3:0,0:0:0:0:
384,184,89806,1,8,0:0:0:0:
408,304,90351,2,0,L|376:360,2,60,0|0|8,3:0|0:0|0:0,0:0:0:0:
297,268,91442,2,0,L|265:324,2,60,0|2|10,3:0|0:0|0:0,0:0:0:0:
184,240,92533,6,0,P|120:272|56:288,1,120,0|8,3:0|0:0,0:0:0:0:
24,176,93624,2,0,P|88:144|152:128,1,120,0|8,3:0|0:0,0:0:0:0:
232,64,94715,2,0,L|256:128,2,60,0|0|8,3:0|0:0|0:0,0:0:0:0:
352,56,95806,2,0,L|376:120,2,60,0|2|10,3:0|0:0|0:0,0:0:0:0:
472,56,96897,5,4,0:0:0:0:
464,176,97442,1,8,0:0:0:0:
408,280,97988,2,0,P|344:312|280:328,1,120,0|8,3:0|0:0,0:0:0:0:
176,344,99079,1,0,3:0:0:0:
224,232,99624,1,8,0:0:0:0:
176,120,100169,2,0,L|116:56,2,60,0|2|2,3:0|0:0|0:0,0:0:0:0:
72,180,101260,38,0,P|89:237|117:290,1,120,0|8,3:0|0:0,0:0:0:0:
220,352,102351,1,0,3:0:0:0:
224,232,102897,2,0,P|277:204|334:186,2,120,8|0|8,0:0|3:0|0:0,0:0:0:0:
224,112,104533,6,0,L|224:40,2,60,0|2|10,3:0|0:0|0:0,0:0:0:0:
344,80,105624,2,0,P|401:97|448:144,2,120,4|8|0,0:0|0:0|3:0,0:0:0:0:
344,200,107260,1,8,0:0:0:0:
448,256,107806,2,0,L|464:328,2,60,0|0|8,3:0|0:0|0:0,0:0:0:0:
344,200,108897,2,0,L|330:258,2,60,0|2|10,3:0|0:0|0:0,0:0:0:0:
224,208,109988,6,0,P|176:248|160:304,1,120,0|8,3:0|0:0,0:0:0:0:
88,204,111079,2,0,L|16:92,2,120,0|8|0,3:0|0:0|3:0,0:0:0:0:
144,96,112715,1,8,0:0:0:0:
263,96,113260,2,0,L|323:96,2,60,0|2|10,3:0|0:0|0:0,0:0:0:0:
204,200,114351,38,0,P|180:252|180:336,1,120,4|8,0:0|0:0,0:0:0:0:
292,284,115442,1,0,3:0:0:0:
412,264,115988,2,0,L|492:248,2,60,8|0|0,0:0|0:0|3:0,0:0:0:0:
336,172,117079,2,0,L|416:156,2,60,8|0|0,0:0|0:0|3:0,0:0:0:0:
216,192,118169,2,0,P|188:128|188:68,1,120,8|4,0:0|0:0,0:0:0:0:
