osu file format v14

[General]
AudioFilename: lin an chu yu.mp3
AudioLeadIn: 0
PreviewTime: 29997
Countdown: 0
SampleSet: Normal
StackLeniency: 0.7
Mode: 0
LetterboxInBreaks: 1
WidescreenStoryboard: 0

[Editor]
DistanceSpacing: 1.4
BeatDivisor: 16
GridSize: 4
TimelineZoom: 2.1

[Metadata]
Title:Lin An Chu Yu
TitleUnicode:临安初雨
Artist:Xiao Xu
ArtistUnicode:小旭
Creator:Streliteela
Version:Normal
Source:
Tags:水浒Q传 墨明棋妙 HITA 心然 枫影儿 月吟诗 Finale 风流 cmn_891127 Hollow Wings Nardoxyribonucleic Guu
BeatmapID:447428
BeatmapSetID:187561

[Difficulty]
HPDrainRate:3
CircleSize:3
OverallDifficulty:2
ApproachRate:3
SliderMultiplier:1.4
SliderTickRate:1

[Events]
//Background and Video events
0,0,"BG.jpg",0,0
//Break Periods
2,73635,74495
2,78635,79495
//Storyboard Layer 0 (Background)
//Storyboard Layer 1 (Fail)
//Storyboard Layer 2 (Pass)
//Storyboard Layer 3 (Foreground)
//Storyboard Sound Samples

[TimingPoints]
2954,739.827373612824,4,2,1,60,1,0
22929,-100,4,2,1,40,0,0
23299,-100,4,2,1,60,0,0
25888,-100,4,2,1,20,0,0
26166,-100,4,2,1,60,0,0
26535,800,4,2,1,60,1,0
28435,625,4,2,1,30,1,0
29524,-100,4,2,1,30,0,0
30935,-100,4,1,1,80,0,1
50310,-100,4,3,0,60,0,1
50935,-100,4,2,2,60,0,0
50974,-100,4,1,2,80,0,0
70935,-100,4,1,2,80,0,0
90935,-133.333333333333,4,1,2,80,0,0
92185,895.522388059701,4,2,1,60,1,0
92185,-133.333333333333,4,2,1,60,0,0
93080,1153.84615384615,4,2,1,60,1,0
97983,-100,4,2,1,40,0,0

[Colours]
Combo1 : 13,123,87
Combo2 : 174,164,162
Combo3 : 119,90,129
Combo4 : 96,170,85
SliderBorder : 40,40,40

[HitObjects]
181,347,5173,6,0,L|137:257,1,70
61,241,5913,6,0,P|110:193|181:192,1,140
260,245,7023,2,0,P|318:294|381:290,1,140
346,200,8132,2,0,L|376:127,1,70
413,43,8872,5,0,0:0:0:0:
320,12,9242,1,0,0:0:0:0:
277,100,9612,1,0,0:0:0:0:
226,184,9982,2,0,P|188:172|156:136,1,70
144,56,10722,2,0,P|83:101|69:174,1,140
87,262,11831,5,0,0:0:0:0:
166,319,12201,1,0,0:0:0:0:
245,261,12571,1,0,0:0:0:0:
321,321,12941,1,0,0:0:0:0:
409,265,13311,2,0,L|474:221,1,70
440,131,14051,2,0,L|376:170,1,70
282,162,14791,6,0,L|228:90,1,70
142,113,15531,2,0,L|196:195,1,70
132,257,16270,2,0,L|86:188,1,70
252,313,17380,6,0,P|293:318|326:311,1,70
409,270,18120,1,0,0:0:0:0:
419,172,18490,2,0,L|423:89,1,70
230,63,19600,6,0,L|223:142,1,70
212,230,20339,1,0,0:0:0:0:
122,190,20709,2,0,L|35:144,1,70
132,85,21449,1,0,0:0:0:0:
229,63,21819,1,0,0:0:0:0:
285,142,22189,2,0,P|340:172|421:159,1,140
424,67,23299,1,0,0:0:0:0:
414,164,23669,6,0,L|402:243,1,70
384,330,24408,1,0,0:0:0:0:
306,269,24778,1,0,0:0:0:0:
208,261,25148,2,0,P|137:265|71:308,1,140
97,236,26166,6,0,L|118:163,1,70
57,88,26935,1,0,0:0:0:0:
148,52,27335,1,0,0:0:0:0:
218,120,27735,1,0,0:0:0:0:
256,192,28085,12,0,29685,0:0:0:0:
360,124,29997,6,0,L|332:57,2,70,0|0|0,0:0|0:0|0:0,0:0:0:0:
445,172,30935,6,0,P|394:222|325:221,1,140,4|10,0:0|0:0,0:0:0:0:
239,197,31872,1,0,0:0:0:0:
147,144,32185,2,0,P|197:101|272:102,1,140,4|10,0:0|0:0,0:0:0:0:
194,281,33435,6,0,L|165:361,2,70,4|0|10,0:0|0:0|0:0,0:0:0:0:
291,279,34372,1,0,0:0:0:0:
389,277,34685,2,0,L|411:192,1,70,4|0,0:0|0:0,0:0:0:0:
413,111,35310,2,0,L|351:39,1,70,10|0,0:0|0:0,0:0:0:0:
270,44,35935,6,0,L|182:55,1,70,4|0,0:0|0:0,0:0:0:0:
102,57,36560,1,10,0:0:0:0:
55,142,36872,1,0,0:0:0:0:
153,147,37185,2,0,L|217:214,1,70,4|0,0:0|0:0,0:0:0:0:
169,303,37810,6,0,L|109:241,2,70,10|0|4,0:0|0:0|0:0,0:0:0:0:
261,335,38747,1,0,0:0:0:0:
358,328,39060,2,0,B|408:310|433:270|433:270|457:307,1,140,10|0,0:0|0:0,0:0:0:0:
502,219,39997,2,0,L|477:149,1,70,4|10,0:0|0:0,0:0:0:0:
424,71,40622,1,0,0:0:0:0:
328,94,40935,6,0,P|267:125|196:116,1,140,4|10,0:0|0:0,0:0:0:0:
127,48,41872,1,0,0:0:0:0:
98,141,42185,2,0,L|81:213,1,70,4|0,0:0|0:0,0:0:0:0:
69,306,42810,2,0,P|130:296|174:231,1,140,10|4,0:0|0:0,0:0:0:0:
248,172,43747,6,0,L|292:232,1,70,0|10,0:0|0:0,0:0:0:0:
340,304,44372,2,0,L|423:302,1,70
508,300,44997,1,4,0:0:0:0:
453,218,45310,2,0,L|408:145,1,70,10|0,0:0|0:0,0:0:0:0:
434,62,45935,6,0,P|366:76|321:138,1,140,4|10,0:0|0:0,0:0:0:0:
285,223,46872,1,0,0:0:0:0:
202,169,47185,2,0,L|129:128,1,70,4|0,0:0|0:0,0:0:0:0:
43,145,47810,2,0,P|62:80|124:39,1,140,10|0,0:0|0:0,0:0:0:0:
217,40,48747,6,0,L|294:71,1,70,4|2,0:0|0:0,0:0:0:0:
374,99,49372,1,2,0:0:0:0:
409,190,49685,1,2,0:0:0:0:
379,283,49997,1,2,0:0:0:0:
289,322,50310,2,0,L|222:291,1,70,2|0,0:0|0:0,0:0:0:0:
127,298,50935,6,0,P|146:227|206:198,1,140,2|0,0:0|0:0,0:0:0:0:
299,197,51872,2,0,L|391:238,2,70,0|4|0,0:0|0:0|0:0,0:0:0:0:
284,100,52810,2,0,P|231:127|204:203,1,140,8|4,0:0|0:0,0:0:0:0:
216,294,53747,5,0,0:0:0:0:
314,291,54060,2,0,P|376:260|391:173,1,140,8|4,0:0|0:0,0:0:0:0:
387,98,54997,1,0,0:0:0:0:
292,72,55310,2,0,L|215:52,1,70,8|0,0:0|0:0,0:0:0:0:
127,36,55935,5,4,0:0:0:0:
103,130,56247,1,0,0:0:0:0:
129,224,56560,2,0,P|143:260|139:295,1,70,8|0,0:0|0:0,0:0:0:0:
227,334,57185,2,0,P|251:303|283:289,1,70,4|0,0:0|0:0,0:0:0:0:
273,192,57810,2,0,P|234:186|206:163,1,70,8|0,0:0|0:0,0:0:0:0:
278,97,58435,6,0,P|315:102|347:128,1,70,4|0,0:0|0:0,0:0:0:0:
374,212,59060,1,8,0:0:0:0:
398,306,59372,2,0,P|432:290|457:253,2,70,4|0|4,0:0|0:0|0:0,0:0:0:0:
303,319,60310,2,0,L|212:328,1,70,8|0,0:0|0:0,0:0:0:0:
135,332,60935,5,4,0:0:0:0:
96,242,61247,1,0,0:0:0:0:
129,149,61560,2,0,L|183:70,1,70,8|0,0:0|0:0,0:0:0:0:
225,168,62185,2,0,L|270:252,1,70,4|0,0:0|0:0,0:0:0:0:
351,192,62810,2,0,P|371:124|348:49,1,140,8|4,0:0|0:0,0:0:0:0:
257,75,63747,5,0,0:0:0:0:
354,58,64060,2,0,P|428:78|475:127,1,140,8|4,0:0|0:0,0:0:0:0:
483,219,64997,1,0,0:0:0:0:
473,316,65310,2,0,P|448:339|405:349,1,70,8|0,0:0|0:0,0:0:0:0:
315,351,65935,6,0,P|280:342|247:315,1,70,4|0,0:0|0:0,0:0:0:0:
182,253,66560,2,0,P|148:278|101:284,1,70,8|0,0:0|0:0,0:0:0:0:
108,189,67185,2,0,P|93:111|118:47,2,140,4|8|4,0:0|0:0|0:0,0:0:0:0:
256,192,68747,12,4,70935,0:0:0:0:
129,205,71403,6,0,P|119:148|134:93,1,105,8|0,0:0|0:0,0:0:0:0:
214,52,72185,2,0,P|268:71|308:112,1,105,4|8,0:0|0:0,0:0:0:0:
271,247,73122,1,0,0:0:0:0:
219,163,73435,1,0,0:0:0:0:
275,135,75935,5,4,0:0:0:0:
415,175,76403,2,0,P|425:232|410:287,1,105,8|0,0:0|0:0,0:0:0:0:
328,330,77185,2,0,P|273:310|233:269,1,105,4|8,0:0|0:0,0:0:0:0:
275,135,78122,1,0,0:0:0:0:
323,219,78435,1,0,0:0:0:0:
246,137,80935,5,4,0:0:0:0:
277,285,81403,2,0,P|238:320|189:336,1,105,8|0,0:0|0:0,0:0:0:0:
99,279,82185,2,0,P|88:228|98:177,1,105,4|8,0:0|0:0,0:0:0:0:
180,54,83122,1,0,0:0:0:0:
194,151,83435,6,0,P|242:131|273:86,2,105,4|8|0,0:0|0:0|0:0,0:0:0:0:
99,175,84685,1,4,0:0:0:0:
134,266,84997,1,0,0:0:0:0:
225,302,85310,1,0,0:0:0:0:
322,298,85622,6,0,L|405:262,1,70,0|4,0:0|0:0,0:0:0:0:
454,139,86403,2,0,L|337:191,1,105,8|0,0:0|0:0,0:0:0:0:
264,211,87185,2,0,P|230:159|223:118,2,105,4|8|4,0:0|0:0|0:0,0:0:0:0:
235,304,88435,6,0,P|168:279|121:230,1,140,4|8,0:0|0:0,0:0:0:0:
132,133,89372,1,0,0:0:0:0:
136,34,89685,2,0,P|91:43|52:64,2,70,0|0|0,0:0|0:0|0:0,0:0:0:0:
219,81,90622,1,0,0:0:0:0:
219,81,90935,6,0,P|283:115|376:108,1,157.500006008148
415,98,92185,2,0,P|405:150|418:209,1,105.000004005432
256,192,94233,12,0,97983,0:0:0:0:
