osu file format v14

[General]
AudioFilename: lin an chu yu.mp3
AudioLeadIn: 0
PreviewTime: 29997
Countdown: 0
SampleSet: Normal
StackLeniency: 0.7
Mode: 0
LetterboxInBreaks: 1
WidescreenStoryboard: 0

[Editor]
Bookmarks: 70935
DistanceSpacing: 0.8
BeatDivisor: 4
GridSize: 4
TimelineZoom: 2.1

[Metadata]
Title:Lin An Chu Yu
TitleUnicode:临安初雨
Artist:Xiao Xu
ArtistUnicode:小旭
Creator:Streliteela
Version:Hard
Source:
Tags:水浒Q传 墨明棋妙 HITA 心然 枫影儿 月吟诗 Finale 风流 cmn_891127 Hollow Wings Nardoxyribonucleic Guu
BeatmapID:447427
BeatmapSetID:187561

[Difficulty]
HPDrainRate:6
CircleSize:4
OverallDifficulty:6
ApproachRate:7
SliderMultiplier:2
SliderTickRate:1

[Events]
//Background and Video events
0,0,"BG.jpg",0,0
//Break Periods
//Storyboard Layer 0 (Background)
//Storyboard Layer 1 (Fail)
//Storyboard Layer 2 (Pass)
//Storyboard Layer 3 (Foreground)
//Storyboard Sound Samples

[TimingPoints]
2954,739.827373612824,4,2,1,60,1,0
5173,-133.333333333333,4,2,1,60,0,0
22189,-200,4,2,1,60,0,0
22929,-133.333333333333,4,2,1,40,0,0
23299,-133.333333333333,4,2,1,60,0,0
25148,-200,4,2,1,60,0,0
25888,-100,4,2,1,20,0,0
26166,-100,4,2,1,40,0,0
26535,800,4,2,1,60,1,0
28085,-200,4,2,1,60,0,0
28435,625,4,2,1,100,1,0
29685,-100,4,2,1,30,0,0
30935,-100,4,1,1,80,0,1
50310,-100,4,3,0,80,0,1
50935,-100,4,2,2,60,0,0
50974,-100,4,1,2,80,0,0
90935,-133.333333333333,4,1,2,80,0,0
92185,895.522388059701,4,2,1,60,1,0
93080,1153.84615384615,4,2,1,60,1,0
97983,-100,4,2,1,40,0,0

[Colours]
Combo1 : 13,123,87
Combo2 : 174,164,162
Combo3 : 119,90,129
Combo4 : 96,170,85
SliderBorder : 40,40,40

[HitObjects]
99,306,5173,6,0,P|139:304|181:283,1,75.0000028610231
275,302,5913,2,0,P|257:225|199:183,1,150.000005722046
123,115,6923,2,0,P|187:82|262:102,1,150.000005722046
361,110,8132,2,0,P|345:151|316:181,1,75.0000028610231
276,268,8872,6,0,P|242:240|220:202,2,75.0000028610231,0|0|0,0:0|0:0|0:0,0:0:0:0:
355,337,9982,2,0,P|386:274|452:232,1,150.000005722046
392,57,11462,1,0,0:0:0:0:
311,96,11831,6,0,P|341:135|376:152,1,75.0000028610231
421,217,12571,2,0,P|451:181|457:146,1,75.0000028610231
333,228,13311,2,0,P|347:263|378:290,1,75.0000028610231
459,316,14051,2,0,P|387:311|306:346,1,150.000005722046
224,305,15161,2,0,P|188:324|140:335,1,75.0000028610231
90,269,15900,2,0,P|167:265|232:315,1,150.000005722046
387,102,17380,5,0,0:0:0:0:
369,110,17503,1,0,0:0:0:0:
351,120,17627,1,0,0:0:0:0:
334,130,17750,2,0,L|317:211,1,75.0000028610231
415,323,18490,2,0,L|409:249,1,75.0000028610231
196,302,19600,2,0,P|231:317|268:315,2,75.0000028610231,0|0|0,0:0|0:0|0:0,0:0:0:0:
190,200,20709,6,0,L|185:113,1,75.0000028610231
101,57,21449,2,0,L|86:141,1,75.0000028610231
188,301,22189,6,0,P|235:287|276:250,1,100
191,202,23299,6,0,L|154:195,1,37.5000014305115
220,121,23669,2,0,P|274:121|306:107,1,75.0000028610231
411,207,24408,2,0,P|368:209|329:196,1,75.0000028610231
336,74,25148,6,0,P|385:70|435:91,1,100
410,207,26166,6,0,L|402:269,1,50
398,293,26535,1,0,0:0:0:0:
300,310,26935,1,0,0:0:0:0:
256,227,27335,1,0,0:0:0:0:
324,154,27735,1,0,0:0:0:0:
256,192,28085,12,0,29685,0:0:0:0:
102,319,29997,6,0,P|120:269|161:239,1,100
206,121,30622,1,0,0:0:0:0:
121,47,30935,2,0,P|83:87|78:137,1,100,4|0,0:0|0:0,0:0:0:0:
82,159,31403,1,0,0:0:0:0:
98,184,31560,2,0,P|154:204|186:236,1,100,10|0,0:0|0:0,0:0:0:0:
243,328,32185,2,0,P|287:284|334:271,1,100,0|4,0:0|0:0,0:0:0:0:
334,171,32810,2,0,P|376:266|467:313,1,200,10|4,0:0|0:0,0:0:0:0:
476,203,33747,6,0,L|480:129,1,50
386,46,34060,1,10,0:0:0:0:
303,258,34372,1,0,0:0:0:0:
171,79,34685,1,0,0:0:0:0:
152,102,34841,1,0,0:0:0:0:
134,126,34997,1,4,0:0:0:0:
303,258,35310,2,0,L|401:276,1,100,10|0,0:0|0:0,0:0:0:0:
285,129,35935,5,4,0:0:0:0:
151,340,36247,2,0,L|137:281,1,50
220,243,36560,1,10,0:0:0:0:
55,268,36872,2,0,L|35:168,1,100,4|4,0:0|0:0,0:0:0:0:
112,77,37497,2,0,L|244:62,1,100,0|10,0:0|0:0,0:0:0:0:
392,160,38122,6,0,L|294:144,1,100,0|4,0:0|0:0,0:0:0:0:
179,181,38747,2,0,L|232:136,1,50
316,54,39060,1,10,0:0:0:0:
354,253,39372,1,0,0:0:0:0:
354,253,39997,2,0,L|310:315,1,50
304,315,40310,2,0,L|266:204,1,100,2|0,0:0|0:0,0:0:0:0:
224,82,40935,6,0,P|176:70|122:88,1,100,4|0,0:0|0:0,0:0:0:0:
108,106,41403,1,0,0:0:0:0:
115,135,41560,2,0,L|148:240,1,100,10|0,0:0|0:0,0:0:0:0:
154,258,42028,1,0,0:0:0:0:
163,286,42185,2,0,P|114:309|65:302,1,100,4|0,0:0|0:0,0:0:0:0:
292,255,42810,2,0,P|353:259|395:291,1,100,10|0,0:0|0:0,0:0:0:0:
404,301,43278,1,0,0:0:0:0:
419,326,43435,6,0,L|455:203,1,100,4|0,0:0|0:0,0:0:0:0:
377,56,44060,1,10,0:0:0:0:
505,136,44372,2,0,L|438:147,1,50,4|0,0:0|0:0,0:0:0:0:
408,155,44685,1,0,0:0:0:0:
277,71,44997,1,4,0:0:0:0:
267,171,45310,2,0,P|229:206|176:215,1,100,10|0,0:0|0:0,0:0:0:0:
92,67,45935,6,0,P|141:79|190:127,1,100,4|0,0:0|0:0,0:0:0:0:
96,325,46560,1,10,0:0:0:0:
116,227,46872,2,0,L|136:153,1,50
149,200,47185,2,0,L|207:301,1,100,4|0,0:0|0:0,0:0:0:0:
304,338,47810,2,0,P|357:330|394:299,1,100,10|0,0:0|0:0,0:0:0:0:
392,181,48435,6,0,L|336:84,1,100,4|0,0:0|0:0,0:0:0:0:
329,67,48903,1,0,0:0:0:0:
311,42,49060,1,10,0:0:0:0:
233,178,49372,1,2,0:0:0:0:
146,55,49685,1,4,0:0:0:0:
146,55,49997,2,0,L|204:88,1,50,4|0,0:0|0:0,0:0:0:0:
164,244,50310,2,0,L|101:211,1,50,8|0,0:0|0:0,0:0:0:0:
71,127,50622,1,8,0:0:0:0:
233,178,50935,6,0,P|287:188|340:175,1,100,2|0,0:0|0:0,0:0:0:0:
360,196,51403,1,0,0:0:0:0:
386,211,51560,2,0,P|391:258|370:310,1,100,8|0,0:0|0:0,0:0:0:0:
231,178,52185,2,0,P|236:113|266:70,1,100,4|0,0:0|0:0,0:0:0:0:
277,67,52653,1,0,0:0:0:0:
306,59,52810,2,0,P|357:60|407:83,1,100,8|0,0:0|0:0,0:0:0:0:
247,325,53435,6,0,P|203:323|150:301,1,100,4|0,0:0|0:0,0:0:0:0:
105,102,54060,1,8,0:0:0:0:
33,192,54372,2,0,L|82:197,1,50,4|0,0:0|0:0,0:0:0:0:
112,199,54685,1,0,0:0:0:0:
151,192,54841,1,0,0:0:0:0:
181,166,54997,1,4,0:0:0:0:
288,90,55310,2,0,P|307:143|296:199,1,100,8|0,0:0|0:0,0:0:0:0:
223,290,55935,6,0,L|347:324,1,100,4|0,0:0|0:0,0:0:0:0:
348,321,56403,1,0,0:0:0:0:
377,317,56560,2,0,P|417:286|439:238,1,100,8|0,0:0|0:0,0:0:0:0:
423,72,57185,2,0,L|432:122,1,50,4|0,0:0|0:0,0:0:0:0:
362,178,57497,2,0,L|355:129,1,50
270,100,57810,2,0,L|285:199,1,100,8|0,0:0|0:0,0:0:0:0:
170,48,58435,6,0,P|116:43|69:63,1,100,4|0,0:0|0:0,0:0:0:0:
285,199,59060,1,8,0:0:0:0:
128,248,59372,1,4,0:0:0:0:
149,268,59528,1,0,0:0:0:0:
172,286,59685,1,0,0:0:0:0:
195,304,59841,1,0,0:0:0:0:
220,319,59997,2,0,P|275:321|320:304,1,100,4|8,0:0|0:0,0:0:0:0:
399,187,60622,1,0,0:0:0:0:
423,65,60935,6,0,P|370:63|321:87,1,100,4|0,0:0|0:0,0:0:0:0:
308,104,61403,1,0,0:0:0:0:
302,133,61560,2,0,L|294:260,1,100,8|0,0:0|0:0,0:0:0:0:
58,258,62185,2,0,L|63:158,1,100,4|0,0:0|0:0,0:0:0:0:
163,51,62810,2,0,L|176:166,1,100,8|0,0:0|0:0,0:0:0:0:
209,262,63435,6,0,P|235:311|276:335,1,100,4|0,0:0|0:0,0:0:0:0:
334,232,64060,1,8,0:0:0:0:
313,350,64372,2,0,P|369:350|412:324,1,100,4|0,0:0|0:0,0:0:0:0:
431,312,64841,1,0,0:0:0:0:
448,287,64997,2,0,L|443:171,1,100,4|8,0:0|0:0,0:0:0:0:
372,61,65622,1,0,0:0:0:0:
234,85,65935,6,0,P|178:101|116:100,1,100,4|0,0:0|0:0,0:0:0:0:
106,100,66403,1,0,0:0:0:0:
76,93,66560,2,0,P|103:141|99:193,1,100,8|0,0:0|0:0,0:0:0:0:
91,212,67028,1,0,0:0:0:0:
88,242,67185,2,0,P|107:295|147:324,1,100,4|0,0:0|0:0,0:0:0:0:
295,216,67810,2,0,P|243:210|190:247,1,100,8|0,0:0|0:0,0:0:0:0:
274,327,68435,6,0,P|328:330|369:307,1,100,4|0,0:0|0:0,0:0:0:0:
382,283,68903,1,0,0:0:0:0:
394,255,69060,2,0,L|405:142,1,100,8|4,0:0|0:0,0:0:0:0:
343,45,69685,5,6,0:0:0:0:
232,90,69997,1,2,0:0:0:0:
206,105,70153,1,2,0:0:0:0:
152,204,70466,1,2,0:0:0:0:
140,231,70622,1,2,0:0:0:0:
127,258,70778,1,2,0:0:0:0:
114,285,70935,6,0,L|55:194,1,100,4|0,0:0|0:0,0:0:0:0:
61,171,71403,2,0,P|65:102|132:49,1,150,8|0,0:0|0:0,0:0:0:0:
404,95,72185,2,0,L|463:186,1,100,4|0,0:0|0:0,0:0:0:0:
457,209,72653,2,0,P|453:278|386:331,1,150,8|0,0:0|0:0,0:0:0:0:
336,218,73435,1,4,0:0:0:0:
336,218,73747,5,2,0:0:0:0:
242,293,73903,1,2,0:0:0:0:
456,210,74216,1,2,0:0:0:0:
270,46,74685,1,2,0:0:0:0:
270,46,74997,5,2,0:0:0:0:
370,120,75153,1,2,0:0:0:0:
135,69,75466,1,2,0:0:0:0:
270,46,75778,1,2,0:0:0:0:
134,69,75935,6,0,P|81:70|36:90,1,100,4|0,0:0|0:0,0:0:0:0:
25,116,76403,2,0,P|12:185|30:265,1,150,8|0,0:0|0:0,0:0:0:0:
193,327,77185,2,0,P|246:326|291:306,1,100,4|0,0:0|0:0,0:0:0:0:
302,280,77653,2,0,P|315:211|297:131,1,150,8|0,0:0|0:0,0:0:0:0:
191,62,78435,5,4,0:0:0:0:
148,154,78747,1,0,0:0:0:0:
136,181,78903,1,0,0:0:0:0:
124,208,79060,1,10,0:0:0:0:
124,208,79372,5,2,0:0:0:0:
168,314,79528,1,2,0:0:0:0:
280,351,79685,1,2,0:0:0:0:
425,205,79997,5,2,0:0:0:0:
375,313,80153,1,10,0:0:0:0:
256,59,80466,5,2,0:0:0:0:
366,104,80622,1,2,0:0:0:0:
267,183,80935,6,0,P|210:209|165:209,1,100,4|0,0:0|0:0,0:0:0:0:
143,205,81403,2,0,L|89:189,1,50,8|0,0:0|0:0,0:0:0:0:
69,73,81872,2,0,P|116:53|171:46,1,100,0|2,0:0|0:0,0:0:0:0:
294,48,82497,1,0,0:0:0:0:
321,60,82653,2,0,P|381:101|411:180,1,150,8|2,0:0|0:0,0:0:0:0:
362,311,83435,5,4,0:0:0:0:
292,214,83747,1,0,0:0:0:0:
319,202,83903,2,0,P|384:197|452:244,1,150,10|0,0:0|0:0,0:0:0:0:
458,88,84685,1,2,0:0:0:0:
458,88,84997,6,0,L|398:112,1,50,2|2,0:0|0:0,0:0:0:0:
284,60,85310,2,0,L|351:34,1,50,2|2,0:0|0:0,0:0:0:0:
297,158,85622,2,0,L|232:180,1,50
114,103,85935,6,0,L|162:91,1,50,4|0,0:0|0:0,0:0:0:0:
191,83,86247,2,0,L|178:137,1,50
234,223,86560,2,0,L|295:235,1,50,0|0,0:0|0:0,0:0:0:0:
311,241,86872,2,0,L|320:299,1,50
203,338,87185,2,0,L|135:329,1,50
124,328,87497,1,0,0:0:0:0:
95,323,87653,2,0,P|73:248|85:169,1,150,10|0,0:0|0:0,0:0:0:0:
221,76,88435,5,4,0:0:0:0:
182,165,88747,2,0,L|150:228,1,50,4|0,0:0|0:0,0:0:0:0:
147,181,89060,2,0,L|110:78,1,100,2|4,0:0|0:0,0:0:0:0:
244,81,89685,1,0,0:0:0:0:
273,85,89841,1,0,0:0:0:0:
302,92,89997,2,0,L|414:114,1,100,0|2,0:0|0:0,0:0:0:0:
512,34,90622,2,0,L|444:19,1,50
452,62,90935,6,0,L|412:180,1,112.500004291535,0|0,0:0|0:0,0:0:0:0:
477,273,91872,1,0,0:0:0:0:
372,280,92185,2,0,B|276:256|276:320|172:283,1,200
256,192,94233,12,0,97983,0:0:0:0:
