osu file format v9

[General]
AudioFilename: Dui Zhu Tan Qin.mp3
AudioLeadIn: 0
PreviewTime: 64530
Countdown: 0
SampleSet: Soft
StackLeniency: 0.7
Mode: 0
LetterboxInBreaks: 0
StoryFireInFront: 0

[Editor]
Bookmarks: 2280,2467,14280,14467,26280,50280,50467,65280,65467,89280,89467,101280,101467,113280,113467,137280,137467,152280,152467,176280,176467,179280,179467,203280,203467
DistanceSpacing: 1
BeatDivisor: 4
GridSize: 32

[Metadata]
Title:Dui Zhu Tan Qin
Artist:XianZi
Creator:JoJo
Version:Love
Source:
Tags:pig killer zui qing feng nymph nymph_ joshua lost

[Difficulty]
HPDrainRate:8
CircleSize:4
OverallDifficulty:7
ApproachRate:7
SliderMultiplier:2.8
SliderTickRate:2

[Events]
//Background and Video events
0,0,"BG.jpg"
//Break Periods
2,14480,22380
2,91730,100380
//Storyboard Layer 0 (Background)
//Storyboard Layer 1 (Fail)
//Storyboard Layer 2 (Pass)
//Storyboard Layer 3 (Foreground)
//Storyboard Sound Samples
//Background Colour Transformations
3,100,163,162,255

[TimingPoints]
2280,750,4,2,1,60,1,0
3873,-100,4,2,1,40,0,0
4061,-100,4,2,1,60,0,0
9873,-100,4,2,1,40,0,0
10061,-100,4,2,1,60,0,0
13998,-100,4,2,1,70,0,0
14186,-100,4,2,1,80,0,0
14373,-100,4,2,1,60,0,0
30873,-100,4,2,1,40,0,0
31061,-100,4,2,1,60,0,0
31436,-100,4,2,2,40,0,0
31623,-100,4,2,1,60,0,0
37436,-100,4,2,2,40,0,0
37623,-100,4,2,1,60,0,0
42873,-100,4,2,1,40,0,0
43061,-100,4,2,1,60,0,0
43436,-100,4,2,2,40,0,0
43623,-100,4,2,1,60,0,0
48686,-100,4,2,2,30,0,0
49436,-100,4,2,2,40,0,0
49811,-100,4,2,1,20,0,0
49998,-100,4,2,1,40,0,0
50186,-100,4,2,1,60,0,0
54873,-100,4,2,1,40,0,0
55061,-100,4,2,1,60,0,0
55436,-100,4,2,2,40,0,0
55623,-100,4,2,1,60,0,0
65280,-100,4,2,1,60,0,1
66873,-100,4,2,1,40,0,1
67061,-100,4,2,1,60,0,1
70248,-100,4,2,1,40,0,1
70436,-100,4,2,1,60,0,1
72873,-100,4,2,1,40,0,1
73061,-100,4,2,1,60,0,1
78873,-100,4,2,1,40,0,1
79061,-100,4,2,1,60,0,1
84498,-100,4,2,1,40,0,1
84686,-100,4,2,1,60,0,1
84873,-100,4,2,1,40,0,1
85061,-100,4,2,1,60,0,1
87686,-100,4,2,1,60,0,1
89280,-100,4,2,1,60,0,0
102873,-100,4,2,1,40,0,0
103061,-100,4,2,1,60,0,0
108873,-100,4,2,1,40,0,0
109061,-100,4,2,1,60,0,0
117873,-100,4,2,1,40,0,0
118061,-100,4,2,1,60,0,0
118436,-100,4,2,2,40,0,0
118623,-100,4,2,1,60,0,0
124436,-100,4,2,2,40,0,0
124623,-100,4,2,1,60,0,0
129873,-100,4,2,1,40,0,0
130061,-100,4,2,1,60,0,0
130436,-100,4,2,2,40,0,0
130623,-100,4,2,1,60,0,0
135686,-100,4,2,2,30,0,0
135873,-100,4,2,1,60,0,0
136436,-100,4,2,2,40,0,0
136623,-100,4,2,1,60,0,0
141873,-100,4,2,1,40,0,0
142061,-100,4,2,1,60,0,0
142436,-100,4,2,2,40,0,0
142623,-100,4,2,1,60,0,0
146186,-100,4,2,2,30,0,0
146373,-100,4,2,1,60,0,0
148436,-100,4,2,2,40,0,0
148623,-100,4,2,1,60,0,0
149186,-100,4,2,1,40,0,0
149373,-100,4,2,1,60,0,0
152280,-100,4,2,1,60,0,1
152373,-100,4,2,1,60,0,0
153873,-100,4,2,1,40,0,0
154061,-100,4,2,1,60,0,0
157248,-100,4,2,1,40,0,0
157436,-100,4,2,1,60,0,0
159873,-100,4,2,1,40,0,0
160061,-100,4,2,1,60,0,0
165873,-100,4,2,1,40,0,0
166061,-100,4,2,1,60,0,0
171498,-100,4,2,1,40,0,0
171686,-100,4,2,1,60,0,0
171873,-100,4,2,1,40,0,0
172061,-100,4,2,1,60,0,0
178811,-100,4,2,2,30,0,0
178998,-100,4,2,1,60,0,0
179280,-100,4,2,1,60,0,1
180873,-100,4,2,1,40,0,1
181061,-100,4,2,1,60,0,1
181248,-100,4,2,1,40,0,1
181436,-100,4,2,1,60,0,1
184248,-100,4,2,1,40,0,1
184436,-100,4,2,1,60,0,1
186873,-100,4,2,1,40,0,1
187061,-100,4,2,1,60,0,1
191186,-100,4,2,1,60,0,0
191280,-100,4,2,1,60,0,1
192873,-100,4,2,1,40,0,1
193061,-100,4,2,1,60,0,1
193811,-100,4,2,1,40,0,1
193998,-100,4,2,1,60,0,1
198873,-100,4,2,1,40,0,1
199061,-100,4,2,1,60,0,1
203280,-100,4,2,1,60,0,0
204030,-100,4,2,1,45,0,0
204780,-100,4,2,1,30,0,0
205530,-100,4,2,1,15,0,0
206186,-100,4,2,1,5,0,0

[Colours]
Combo1 : 186,83,255
Combo2 : 255,142,221
SliderBorder : 255,255,255

[HitObjects]
89,124,2280,2,0,B|162:119|201:51,1,140,2|2
255,96,2842,1,0
309,52,3030,2,0,B|348:119|421:124,1,140,8|0
490,127,3592,2,0,B|419:152|403:228,1,140,0|8
345,189,4155,2,0,B|328:221|339:256,1,70,2|0
269,255,4530,2,0,B|278:333|352:356,1,140,8|0
416,327,5092,1,0
359,283,5280,6,0,B|303:287|285:332|231:335,1,140,2|2
161,332,5842,1,0
103,292,6030,2,0,B|156:288|174:243|230:239,1,140,8|0
229,169,6592,2,0,B|172:165|154:120|101:116,1,140
42,78,7155,2,0,B|62:43|100:47,1,70,2|0
168,63,7530,1,8
168,63,7717,1,0
230,30,7905,1,2
230,30,8092,1,0
359,131,8280,6,0,B|287:148|228:99,1,140,2|2
167,63,8842,2,0,B|138:40|102:44,2,70,0|8|0
228,99,9405,1,0
228,99,9592,2,0,B|245:170|196:229,1,140,2|8
126,221,10155,1,2
165,163,10342,1,0
165,163,10530,2,0,B|238:165|281:229,1,140,8|2
309,293,11092,1,0
411,196,11280,6,0,B|377:208|353:233,1,70,2|0
298,189,11655,2,0,B|267:204|231:204,1,70,2|0
187,149,12030,2,0,B|117:155|51:122,1,140,8|0
186,148,12592,2,0,B|217:84|277:44,1,140,2|0
186,148,13155,2,0,B|226:206|231:278,1,140,2|8
232,348,13717,1,0
232,348,13905,1,2
293,314,14092,1,2
293,314,14280,1,2
256,192,23280,12,8,25530
176,86,25905,5,0
237,52,26092,1,0
237,52,26280,2,0,B|297:95|369:67,1,140,6|2
275,332,27030,2,0,B|214:288|142:316,1,140,8|0
104,257,27592,1,0
70,195,27780,2,0,B|35:207|3:190,2,70,0|0|2
392,96,28530,6,0,B|320:113|262:60,1,140,8|0
119,287,29280,2,0,B|192:271|249:323,1,140,2|0
294,269,29842,1,0
281,199,30030,2,0,B|208:215|151:163,1,140,8|2
120,101,30592,1,0
252,54,30967,1,8
252,54,31155,2,0,B|324:37|381:89,1,140,2|8
117,64,31905,6,0,B|151:72|187:67,1,70
117,64,32280,2,0,B|83:55|47:60,2,70,2|0|2
154,123,32842,1,0
154,123,33030,2,0,B|196:183|272:186,1,140,8|0
342,185,33592,1,0
280,219,33780,1,0
210,225,33967,1,0
141,206,34155,2,0,B|99:266|23:269,1,140,2|8
141,206,34717,2,0,B|154:168|199:168|199:168|207:150|207:150|273:163|309:110,1,210,0|2
256,192,35467,12,8,37530
208,87,37905,5,0
270,117,38092,1,0
211,155,38280,2,0,B|184:181|147:177,1,70,2|0
82,150,38655,1,2
300,325,39030,2,0,B|357:277|429:283,1,140,8|0
412,215,39592,1,0
448,154,39780,2,0,B|409:148|388:120,2,70,0|0|2
452,83,40342,1,0
452,83,40530,6,0,B|403:28|333:13,1,140,8|0
60,301,41280,2,0,B|108:355|178:370,1,140,2|0
248,369,41842,1,0
276,303,42030,2,0,B|300:278|337:274,1,70,8|2
334,204,42405,2,0,B|357:229|395:233,1,70,0|2
447,185,42780,2,0,B|484:188|508:214,2,70,0|8|2
385,152,43342,1,0
385,152,43530,1,8
166,62,43905,6,0,B|227:23|300:38,1,140,0|2
188,333,44655,2,0,B|124:301|100:229,1,140,2|8
412,179,45405,2,0,B|416:251|366:307,1,140
137,145,46155,1,2
194,185,46342,1,0
194,185,46530,1,8
309,106,46905,1,0
309,106,47092,2,0,B|366:146,1,70,0|2
256,192,47467,12,8,48780
126,136,49530,5,8
385,240,49905,1,2
385,240,50092,1,2
385,240,50280,2,0,B|311:246|280:321,1,140,2|2
72,131,51030,2,0,B|135:123|145:67,2,105,8|0|0
75,60,51780,2,0,B|167:165,1,140,2|2
437,324,52530,6,0,B|344:218,1,140,8|0
285,255,53092,1,0
275,324,53280,2,0,B|225:317|197:262|225:217,1,140,2|0
327,121,54030,2,0,B|353:74|389:122|415:78,2,105,8|0|0
280,173,54780,2,0,B|254:198|254:198|220:198,2,70,0|8|2
204,329,55530,6,0,B|196:277|144:269|134:210,1,140,8|0
308,55,56280,1,2
308,55,56467,2,0,B|315:106|367:114|377:173,1,140
307,182,57030,2,0,B|314:233|366:241|376:300,1,140,8|0
307,313,57592,2,0,B|312:350|348:364,2,70,2|0|2
307,313,58155,5,2
204,70,58530,1,8
401,270,58905,1,0
111,114,59280,1,2
432,170,59655,1,2
80,214,60030,1,8
392,77,60405,1,0
392,77,60592,2,0,B|361:147|285:157,1,140,2|0
215,154,61155,1,2
256,192,61342,12,8,63030
118,137,63780,5,0
386,58,64155,1,2
325,331,64530,1,8
188,86,64905,1,0
188,86,65092,1,0
188,86,65280,6,0,B|153:66|147:32,2,70,6|0|2
155,148,65842,2,0,B|175:177|212:185,1,70,0|8
203,325,66405,1,0
270,342,66592,1,0
324,298,66780,2,0,B|358:317|364:351,2,70,0|8|0
357,236,67342,2,0,B|336:206|299:198,1,70,0|8
155,148,67905,6,0,B|176:178|213:186,1,70
195,254,68280,2,0,B|261:287|331:268,2,140,2|2|8
439,115,69405,2,0,B|408:99|371:107,1,70
314,147,69780,2,0,B|277:155|246:138,2,70,0|0|2
371,107,70342,1,2
371,107,70530,1,8
132,269,70905,5,0
132,269,71280,2,0,B|157:337|240:343,1,140,2|0
380,115,72030,2,0,B|354:46|271:40,1,140,8|2
201,43,72592,1,2
311,341,72967,1,8
240,342,73155,2,0,B|157:337|132:269,2,140,2|8|2
394,129,74280,6,0,B|431:204|384:260,1,140,2|2
132,103,75030,2,0,B|179:33|251:46,1,140,8|0
319,61,75592,1,0
193,323,75967,1,0
193,323,76155,1,2
238,269,76342,1,0
238,269,76530,1,8
306,283,76717,1,0
306,283,76905,1,2
350,229,77092,1,2
350,229,77280,6,0,B|430:236|464:166,1,140,6|2
283,210,78030,1,8
201,318,78405,2,0,B|235:304|252:273,1,70
283,210,78780,2,0,B|300:178|334:164,1,70,0|8
399,139,79155,2,0,B|328:147|266:106,1,140,2|8
125,105,79905,5,0
113,245,80280,2,0,B|184:237|246:278,1,140,2|2
376,328,81030,2,0,B|320:334|276:302,2,105,8|0|0
441,303,81780,1,2
348,38,82155,1,2
71,81,82530,1,8
164,346,82905,5,0
164,346,83092,1,0
164,346,83280,2,0,B|234:374|299:345,2,140,2|0|8
236,225,84405,1,2
236,225,84592,1,2
304,208,84780,2,0,B|338:202|370:222,2,70,0|8|2
178,271,85530,1,8
331,39,85905,6,0,B|340:73|364:99,1,70
404,281,86280,2,0,B|395:205|337:164,1,140,2|2
107,102,87030,2,0,B|116:178|175:220,1,140,8|2
240,243,87592,1,0
186,288,87780,5,2
379,247,88530,1,8
249,101,89280,1,2
256,192,89467,12,8,91530
93,170,101280,6,0,B|168:181|222:131,1,140,2|2
256,192,101842,1,0
419,214,102030,2,0,B|343:202|289:252,1,140,8|0
93,214,102592,2,0,B|168:202|222:252,1,140,0|8
256,192,103155,1,2
256,192,103342,1,0
325,186,103530,2,0,B|326:150|354:124,1,70,8|0
325,185,103905,2,0,B|323:220|295:246,1,70
122,204,104280,6,0,B|186:164|256:192,1,140,2|2
256,261,104842,1,0
256,331,105030,2,0,B|326:358|390:318,1,140,8|0
434,263,105592,1,0
78,121,105967,1,0
146,136,106155,2,0,B|155:100|187:82,1,70,2|0
285,70,106530,2,0,B|276:106|244:124,1,70,8|0
319,161,106905,1,0
319,161,107092,1,0
319,161,107280,6,0,B|269:215|195:216,1,140,2|0
160,155,107842,2,0,B|90:155,2,70,0|8|0
208,104,108405,2,0,B|285:116|305:193,1,140
313,262,108967,1,8
305,331,109155,2,0,B|321:257|393:230,2,140,2|8|0
207,53,110280,6,0,B|190:126|118:153,1,140,2|2
305,53,110842,1,0
305,53,111030,2,0,B|321:126|393:153,1,140,8|0
393,83,111592,2,0,B|321:109|304:183,1,140,2|0
304,253,112155,1,2
208,131,112530,1,8
208,131,112717,1,0
144,161,112905,1,0
144,161,113092,1,0
120,226,113280,6,0,B|154:231|179:260,2,70,2|0|2
144,161,113842,1,0
86,121,114030,2,0,B|160:135|216:86,1,140,8|0
263,35,114592,1,0
249,349,114967,2,0,B|216:286,1,70,0|2
257,229,115342,1,0
236,43,115530,6,0,B|296:170,1,140,8|0
275,340,116280,2,0,B|216:214,1,140,2|0
189,149,116842,1,0
118,148,117030,2,0,B|48:148,2,70,8|2|0
189,149,117592,1,0
189,149,117780,1,0
216,84,117967,1,8
216,84,118155,2,0,B|263:92|263:92|303:77|303:77|351:85,1,140,2|8
156,295,118905,5,0
156,295,119092,1,0
112,239,119280,2,0,B|76:235|48:214,2,70,2|0|2
156,185,119842,1,0
156,185,120030,2,0,B|172:110|231:71,1,140,8|0
295,43,120592,1,0
341,95,120780,2,0,B|377:101|405:74,1,70
447,129,121155,2,0,B|474:102|511:108,2,70,2|0|8
405,185,121717,2,0,B|394:236|344:262|256:218|362:140|384:233|346:272|292:270,1,210,0|2
256,192,122467,12,8,124530
144,62,124905,5,0
117,126,125092,1,0
168,173,125280,2,0,B|147:203|147:238,1,70,2|0
168,173,125655,2,0,B|243:164|278:96,1,140,2|8
295,28,126217,1,0
278,96,126405,2,0,B|285:130|318:150,1,70
296,217,126780,2,0,B|328:237|336:271,2,70,0|0|2
122,307,127530,6,0,B|194:321|257:286,1,140,8|0
375,112,128280,2,0,B|339:108|306:121,2,70,2|0|0
375,112,128842,1,0
412,171,129030,2,0,B|447:174|480:161,1,70,8|2
352,214,129405,2,0,B|316:210|283:223,1,70,0|2
160,170,129780,1,0
160,170,129967,2,0,B|195:173|228:160,1,70,8|2
95,115,130342,2,0,B|59:111|26:124,1,70,0|8
315,302,130905,5,0
315,302,131092,1,0
315,302,131280,2,0,B|327:269|357:254|357:254|372:217|407:200,1,140,2|2
197,82,132030,2,0,B|184:114|154:129|154:129|139:166|104:183,1,140,8|0
89,288,132592,2,0,B|103:252|139:243,1,70
157,310,132967,1,0
175,376,133155,1,2
175,376,133342,2,0,B|212:367|224:329,1,70,0|8
305,84,133905,2,0,B|268:92|256:129,1,70
200,172,134280,5,2
200,172,134467,1,0
132,189,134655,2,0,B|64:203,2,70,0|2|0
200,172,135217,2,0,B|268:158,1,70,2|0
337,142,135592,1,0
386,192,135780,1,8
386,192,135967,1,0
368,259,136155,1,0
368,259,136342,1,0
301,281,136530,6,0,B|266:289|239:267|239:267|236:273|236:273|206:261|169:265,1,140,8|0
99,274,137092,1,2
169,265,137280,2,0,B|205:260|225:227,2,70,2|0|2
342,43,138030,2,0,B|287:63|272:116,2,105,8|0|0
393,90,138780,1,0
393,90,138967,2,0,B|428:77|445:46,1,70,0|2
121,337,139530,6,0,B|190:322|231:258,1,140,8|0
256,192,140092,1,0
391,47,140280,2,0,B|321:61|280:125,1,140,2|0
249,327,141030,2,0,B|210:371|156:368,2,105,8|0|0
299,277,141780,2,0,B|312:245|345:228,1,70,0|8
346,227,142155,1,2
155,62,142530,6,0,B|151:121|237:111|232:167,1,140,8|0
232,167,143092,1,0
280,217,143280,1,2
280,217,143467,2,0,B|275:272|361:262|357:322,1,140,0|0
351,249,144030,2,0,B|346:200|382:168|382:168|364:121,1,140,8|0
296,139,144592,2,0,B|260:147|227:135,2,70,0|2|0
296,139,145155,5,2
115,247,145530,1,8
307,70,145905,1,0
296,139,146092,1,0
336,196,146280,1,8
93,56,146655,1,0
372,34,147030,1,8
173,231,147405,1,2
173,231,147593,2,0,B|107:196|86:125,1,140,2|0
93,56,148155,1,2
289,255,148530,5,8
245,9,148905,2,0,B|241:43|224:75,1,70,0|2
262,132,149280,2,0,B|246:164|242:199,2,70,2|0|2
207,333,150030,2,0,B|240:270|242:199,1,140,8|0
229,60,150780,5,0
229,74,151155,1,2
229,87,151530,1,8
228,100,151905,2,0,B|229:173,1,70
282,287,152280,6,0,B|281:214,1,70,6|0
228,169,152655,1,2
176,122,152842,2,0,B|141:132|107:122,1,70,0|8
335,261,153405,2,0,B|371:252|404:261,1,70
434,198,153780,2,0,B|467:207|503:197,2,70,0|8|0
375,159,154342,1,0
375,159,154530,1,8
137,225,154905,5,0
118,292,155092,1,0
118,292,155280,2,0,B|171:245|243:234,2,140,2|2|8
225,202,156405,2,0,B|261:201|292:184,1,70
352,148,156780,2,0,B|382:130|419:130,2,70,0|0|2
292,184,157342,1,2
292,184,157530,1,8
132,269,157905,5,0
114,201,158092,1,0
132,269,158280,2,0,B|171:334|244:343,1,140,2|0
380,115,159030,2,0,B|340:49|267:40,1,140,8|0
197,42,159592,1,0
130,64,159780,1,0
80,112,159967,1,8
147,132,160155,2,0,B|138:204|73:244,2,140,2|8|2
313,334,161280,6,0,B|313:264,2,70,2|0|2
479,109,162030,2,0,B|427:160|350:149,1,140,8|0
285,124,162592,1,0
234,73,162780,2,0,B|199:76|167:56,1,70,2|0
127,114,163155,2,0,B|90:114|61:134,1,70,2|0
12,184,163530,1,8
69,224,163717,1,0
65,294,163905,1,0
122,333,164092,1,0
122,333,164280,6,0,B|177:286|259:291,1,140,6|2
321,300,164842,1,0
262,261,165030,1,8
250,123,165405,1,0
191,84,165592,1,0
258,103,165780,2,0,B|294:103|323:82,1,70,2|8
367,137,166155,2,0,B|404:148|436:132|436:132|433:141|433:141|468:137|491:151,1,140,2|8
300,324,166905,5,0
299,254,167092,1,0
299,254,167280,2,0,B|305:180|367:137,1,140,2|2
154,318,168030,2,0,B|199:288|214:235,2,105,8|0|0
86,337,168780,1,0
103,270,168967,1,0
154,318,169155,1,2
426,47,169530,1,8
409,114,169717,1,0
357,65,169905,5,0
289,49,170092,1,0
289,49,170280,2,0,B|215:37|154:73,2,140,2|0|8
222,320,171405,1,2
222,320,171592,1,2
287,295,171780,2,0,B|302:327|338:340,2,70,0|8|2
232,251,172342,2,0,B|216:218|180:205,1,70,0|8
456,151,172905,6,0,B|433:182|396:181,1,70
296,22,173280,2,0,B|368:44|399:110,1,140,2|2
215,361,174030,2,0,B|143:339|112:273,1,140,8|0
256,192,174780,12,2,176280
256,192,177780,12,8,178905
365,102,179280,6,0,B|400:99|400:99|430:82,2,70,6|0|2
295,108,179842,1,0
230,135,180030,1,8
81,301,180405,2,0,B|112:285|112:285|147:282,1,70
217,276,180780,1,0
315,239,180967,1,8
213,212,181155,1,2
279,293,181342,1,2
273,188,181530,1,8
150,85,181905,6,0,B|119:106|84:99,1,70
149,84,182280,2,0,B|215:51|285:64,2,140,2|2|8
285,64,183405,2,0,B|293:133,1,70
302,203,183780,1,0
317,306,183967,1,0
356,208,184155,1,2
252,222,184342,1,2
210,318,184530,1,8
136,58,184905,5,0
136,58,185280,2,0,B|126:135|48:155,1,140,2|0
376,326,186030,2,0,B|385:248|463:228,1,140,8|0
393,216,186592,1,2
119,168,186967,1,8
49,155,187155,2,0,B|126:135|136:58,2,140,2|8|0
280,315,188280,5,2
276,245,188467,1,0
338,277,188655,1,2
171,158,189030,2,0,B|158:232|216:283,1,140,8|0
280,315,189592,1,0
191,92,189967,5,0
191,92,190155,1,2
258,108,190342,1,0
258,108,190530,1,8
315,67,190717,1,0
315,67,190905,1,0
382,86,191092,1,0
382,86,191280,6,0,B|406:118|444:110|444:110|420:141|434:175,1,140,6|0
473,233,191842,1,0
411,199,192030,1,8
39,151,192405,2,0,B|108:181,1,70
173,275,192780,2,0,B|109:248,1,70,0|8
180,345,193155,2,0,B|247:367|317:344,1,140,2|8
256,192,193905,5,2
194,39,194280,2,0,B|264:16|332:39,1,140,2|2
132,70,195030,2,0,B|81:89|28:79,2,105,8|0|0
194,39,195780,1,0
165,318,196155,1,2
421,205,196530,1,8
194,39,196905,5,0
175,106,197092,1,0
223,156,197280,2,0,B|264:212|258:288,2,140,2|0|8
258,288,198405,1,0
286,224,198592,1,0
348,191,198780,2,0,B|371:165|377:128,2,70,2|8|2
286,224,199342,1,0
216,235,199530,1,8
176,46,199905,6,0,B|153:72|147:109,1,70,0|0
38,272,200280,2,0,B|82:212|86:143,1,140,2|2
473,111,201030,2,0,B|429:171|426:241,1,140,8|2
441,308,201592,1,0
373,288,201780,2,0,B|341:343|286:297|254:348|254:348|222:297|165:344|134:288,2,280,2|8|2
256,192,203467,12,0,206280
