osu file format v14

[General]
AudioFilename: Lonely Moon Sonata No.2 - Raining Flowers.mp3
AudioLeadIn: 0
PreviewTime: 20288
Countdown: 0
SampleSet: Soft
StackLeniency: 0.7
Mode: 3
LetterboxInBreaks: 0
SpecialStyle: 0
WidescreenStoryboard: 0

[Editor]
DistanceSpacing: 1.2
BeatDivisor: 8
GridSize: 4
TimelineZoom: 0.9

[Metadata]
Title:Lonely Moon Sonata
TitleUnicode:孤月华章第二章 - 花如雨
Artist:Xian Yuan
ArtistUnicode:鲜远
Creator:123Sherlock
Version:No.2 - Raining Flowers (Lv.24)
Source:o2Mania
Tags:Chinese piano instrumental o2jam 天Y 乐侠 虫虫钢琴
BeatmapID:658708
BeatmapSetID:292724

[Difficulty]
HPDrainRate:7
CircleSize:7
OverallDifficulty:7
ApproachRate:5
SliderMultiplier:1.4
SliderTickRate:1

[Events]
//Background and Video events
0,0,"Lonely Moon Sonata No.2 - Raining Flowers.jpg",0,0
//Break Periods
//Storyboard Layer 0 (Background)
//Storyboard Layer 1 (Fail)
//Storyboard Layer 2 (Pass)
//Storyboard Layer 3 (Foreground)
//Storyboard Sound Samples

[TimingPoints]
0,833.333333333333,4,2,0,0,1,0
868,750,4,2,0,0,1,0
1243,600,4,2,0,0,1,0
1543,530.973451327434,4,2,0,0,1,0
1809,487.80487804878,4,2,0,0,1,0
2296,480,4,2,0,0,1,0
2536,550.45871559633,4,2,0,0,1,0
2812,666.666666666667,4,2,0,0,1,0
3145,810.810810810811,4,2,0,0,1,0
3550,681.818181818182,4,2,0,0,1,0
3891,612.244897959184,4,2,0,0,1,0
4197,571.428571428571,4,2,0,0,1,0
4483,545.454545454546,4,2,0,0,1,0
4756,555.555555555556,4,2,0,0,1,0
5034,638.297872340426,4,2,0,0,1,0
5353,769.230769230769,4,2,0,0,1,0
5737,895.522388059701,4,2,0,0,1,0
8200,1250,4,2,0,0,1,0
9138,1090.90909090909,4,2,0,0,1,0
9683,1000,4,2,0,0,1,0
104183,1132.07547169811,4,2,0,0,1,0
104749,1224.48979591837,4,2,0,0,1,0
105361,1276.59574468085,4,2,0,0,1,0
106000,1111.11111111111,4,2,0,0,1,0
106555,1000,4,2,0,0,1,0
110055,1090.90909090909,4,2,0,0,1,0
110601,1071.42857142857,4,2,0,0,1,0
111136,967.741935483871,4,2,0,0,1,0
112830,952.380952380952,4,2,0,0,1,0
113306,1000,4,2,0,0,1,0
113806,937.5,4,2,0,0,1,0
114275,967.741935483871,4,2,0,0,1,0
115243,845.070422535211,4,2,0,0,1,0
115454,937.5,4,2,0,0,1,0
115923,923.076923076923,4,2,0,0,1,0
116384,895.522388059701,4,2,0,0,1,0
116832,923.076923076923,4,2,0,0,1,0
117755,882.352941176471,4,2,0,0,1,0
118196,909.090909090909,4,2,0,0,1,0
120014,909.090909090909,4,2,0,0,1,0
124787,1071.42857142857,4,2,0,0,1,0
125323,1176.47058823529,4,2,0,0,1,0
125911,1153.84615384615,4,2,0,0,1,0
126488,1071.42857142857,4,2,0,0,1,0
127024,937.5,4,2,0,0,1,0
127492,952.380952380952,4,2,0,0,1,0
127969,923.076923076923,4,2,0,0,1,0
128430,1034.48275862069,4,2,0,0,1,0
128947,1090.90909090909,4,2,0,0,1,0
129493,1034.48275862069,4,2,0,0,1,0
130010,967.741935483871,4,2,0,0,1,0
130494,923.076923076923,4,2,0,0,1,0
130955,952.380952380952,4,2,0,0,1,0
131432,983.606557377049,4,2,0,0,1,0
132907,923.076923076923,4,2,0,0,1,0
133369,952.380952380952,4,2,0,0,1,0
133845,923.076923076923,4,2,0,0,1,0
134306,937.5,4,2,0,0,1,0
134775,967.741935483871,4,2,0,0,1,0
135259,909.090909090909,4,2,0,0,1,0
136623,937.5,4,2,0,0,1,0
137091,1071.42857142857,4,2,0,0,1,0
137895,923.076923076923,4,2,0,0,1,0
138356,895.522388059701,4,2,0,0,1,0
139252,909.090909090909,4,2,0,0,1,0
139706,1034.48275862069,4,2,0,0,1,0
140224,1153.84615384615,4,2,0,0,1,0
140801,1052.63157894737,4,2,0,0,1,0
141327,1034.48275862069,4,2,0,0,1,0
142361,1111.11111111111,4,2,0,0,1,0
142917,1500,4,2,0,0,1,0
143292,2000,4,2,0,0,1,0
143792,1500,4,2,0,0,1,0
144542,1200,4,2,0,0,1,0
145142,1052.63157894737,4,2,0,0,1,0
145668,1000,4,2,0,0,1,0
146168,1052.63157894737,4,2,0,0,1,0
146695,1111.11111111111,4,2,0,0,1,0
147806,1034.48275862069,4,2,0,0,1,0
148323,983.606557377049,4,2,0,0,1,0
148815,952.380952380952,4,2,0,0,1,0
149291,983.606557377049,4,2,0,0,1,0
149783,1071.42857142857,4,2,0,0,1,0
150318,1071.42857142857,4,2,0,0,1,0
151122,1016.94915254237,4,2,0,0,1,0
151885,1000,4,2,0,0,1,0
152385,983.606557377049,4,2,0,0,1,0
152877,952.380952380952,4,2,0,0,1,0
154781,1000,4,2,0,0,1,0
155531,1071.42857142857,4,2,0,0,1,0
156067,1153.84615384615,4,2,0,0,1,0
156355,1034.48275862069,4,2,0,0,1,0
156873,1000,4,2,0,0,1,0
157373,937.5,4,2,0,0,1,0
158310,923.076923076923,4,2,0,0,1,0
158772,937.5,4,2,0,0,1,0
159241,1071.42857142857,4,2,0,0,1,0
159776,1200,4,2,0,0,1,0
160376,1224.48979591837,4,2,0,0,1,0
160988,1111.11111111111,4,2,0,0,1,0
161266,967.741935483871,4,2,0,0,1,0
161508,983.606557377049,4,2,0,0,1,0
162246,1111.11111111111,4,2,0,0,1,0
162524,1132.07547169811,4,2,0,0,1,0
163373,1000,4,2,0,0,1,0
163623,923.076923076923,4,2,0,0,1,0
164084,909.090909090909,4,2,0,0,1,0
164539,937.5,4,2,0,0,1,0
165242,1200,4,2,0,0,1,0
165542,1463.41463414634,4,2,0,0,1,0
165725,1111.11111111111,4,2,0,0,1,0
165864,1016.94915254237,4,2,0,0,1,0
165991,800,4,2,0,0,1,0
166591,606.060606060606,4,2,0,0,1,0
167803,606.060606060606,4,2,0,0,1,0
169015,571.428571428571,4,2,0,0,1,0
170158,600,4,2,0,0,1,0
171358,582.52427184466,4,2,0,0,1,0
172523,769.230769230769,4,2,0,0,1,0
174061,1304.34782608696,4,2,0,0,1,0
174388,1463.41463414634,4,2,0,0,1,0
175302,833.333333333333,4,2,0,0,1,0
176552,1395.3488372093,4,2,0,0,1,0
177948,1538.46153846154,4,2,0,0,1,0
178717,1333.33333333333,4,2,0,0,1,0
179383,1363.63636363636,4,2,0,0,1,0
180065,1034.48275862069,4,2,0,0,1,0
201272,1071.42857142857,4,2,0,0,1,0
202344,1176.47058823529,4,2,0,0,1,0

[HitObjects]
402,192,451,5,0,0:0:0:0:
329,192,659,1,0,0:0:0:0:
182,192,868,1,0,0:0:0:0:
256,192,1055,1,0,0:0:0:0:
36,192,1243,1,0,0:0:0:0:
109,192,1393,1,0,0:0:0:0:
402,192,1543,1,0,0:0:0:0:
329,192,1675,1,0,0:0:0:0:
182,192,1808,1,0,0:0:0:0:
256,192,1930,1,0,0:0:0:0:
36,192,2052,1,0,0:0:0:0:
109,192,2174,1,0,0:0:0:0:
402,192,2296,1,0,0:0:0:0:
329,192,2416,1,0,0:0:0:0:
182,192,2536,1,0,0:0:0:0:
256,192,2673,1,0,0:0:0:0:
36,192,2811,1,0,0:0:0:0:
402,192,2978,1,0,0:0:0:0:
475,192,3144,1,0,0:0:0:0:
475,192,3347,1,0,0:0:0:0:
475,192,3550,1,0,0:0:0:0:
475,192,3720,1,0,0:0:0:0:
475,192,3891,1,0,0:0:0:0:
475,192,4044,1,0,0:0:0:0:
475,192,4197,1,0,0:0:0:0:
475,192,4340,1,0,0:0:0:0:
475,192,4483,1,0,0:0:0:0:
475,192,4619,1,0,0:0:0:0:
475,192,4755,1,0,0:0:0:0:
475,192,4894,1,0,0:0:0:0:
475,192,5033,1,0,0:0:0:0:
475,192,5193,1,0,0:0:0:0:
475,192,5352,1,0,0:0:0:0:
475,192,5545,1,0,0:0:0:0:
475,192,5737,128,0,8512:0:0:0:0:
256,192,8200,1,0,0:0:0:0:
402,192,8512,1,0,0:0:0:0:
329,192,8825,1,0,0:0:0:0:
36,192,9137,1,0,0:0:0:0:
402,192,9137,128,0,9682:0:0:0:0:
109,192,9410,1,0,0:0:0:0:
182,192,9682,1,0,0:0:0:0:
109,192,9932,1,0,0:0:0:0:
256,192,9932,1,0,0:0:0:0:
182,192,10182,1,0,0:0:0:0:
402,192,10182,1,0,0:0:0:0:
329,192,10432,1,0,0:0:0:0:
36,192,10682,1,0,0:0:0:0:
402,192,10682,128,0,11182:0:0:0:0:
109,192,10932,1,0,0:0:0:0:
182,192,11182,1,0,0:0:0:0:
109,192,11432,1,0,0:0:0:0:
256,192,11432,1,0,0:0:0:0:
182,192,11682,1,0,0:0:0:0:
402,192,11682,1,0,0:0:0:0:
329,192,11932,1,0,0:0:0:0:
36,192,12182,1,0,0:0:0:0:
402,192,12182,128,0,12682:0:0:0:0:
109,192,12432,1,0,0:0:0:0:
182,192,12682,1,0,0:0:0:0:
109,192,12932,1,0,0:0:0:0:
475,192,12932,1,0,0:0:0:0:
182,192,13182,1,0,0:0:0:0:
402,192,13182,1,0,0:0:0:0:
329,192,13432,1,0,0:0:0:0:
36,192,13682,1,0,0:0:0:0:
256,192,13682,128,0,14182:0:0:0:0:
109,192,13932,1,0,0:0:0:0:
182,192,14182,1,0,0:0:0:0:
109,192,14432,1,0,0:0:0:0:
329,192,14432,1,0,0:0:0:0:
182,192,14682,1,0,0:0:0:0:
256,192,14682,1,0,0:0:0:0:
329,192,14932,1,0,0:0:0:0:
36,192,15182,1,0,0:0:0:0:
402,192,15182,128,0,15682:0:0:0:0:
109,192,15432,1,0,0:0:0:0:
182,192,15682,1,0,0:0:0:0:
109,192,15932,1,0,0:0:0:0:
329,192,15932,1,0,0:0:0:0:
182,192,16182,1,0,0:0:0:0:
402,192,16182,1,0,0:0:0:0:
36,192,16682,1,0,0:0:0:0:
475,192,16682,128,0,17182:0:0:0:0:
109,192,16932,1,0,0:0:0:0:
182,192,17182,1,0,0:0:0:0:
109,192,17432,1,0,0:0:0:0:
402,192,17432,1,0,0:0:0:0:
182,192,17682,1,0,0:0:0:0:
329,192,17682,1,0,0:0:0:0:
256,192,17932,1,0,0:0:0:0:
36,192,18182,1,0,0:0:0:0:
329,192,18182,1,0,0:0:0:0:
109,192,18432,1,0,0:0:0:0:
182,192,18682,1,0,0:0:0:0:
329,192,18682,1,0,0:0:0:0:
109,192,18932,1,0,0:0:0:0:
402,192,18932,1,0,0:0:0:0:
182,192,19182,1,0,0:0:0:0:
475,192,19182,1,0,0:0:0:0:
402,192,19432,1,0,0:0:0:0:
36,192,19682,1,0,0:0:0:0:
475,192,19682,128,0,20182:0:0:0:0:
109,192,19932,1,0,0:0:0:0:
182,192,20182,1,0,0:0:0:0:
109,192,20432,1,0,0:0:0:0:
402,192,20432,1,0,0:0:0:0:
182,192,20682,1,0,0:0:0:0:
329,192,20682,1,0,0:0:0:0:
256,192,20932,1,0,0:0:0:0:
182,192,21182,1,0,0:0:0:0:
329,192,21182,128,0,21682:0:0:0:0:
109,192,21432,1,0,0:0:0:0:
36,192,21682,1,0,0:0:0:0:
109,192,21932,1,0,0:0:0:0:
402,192,21932,1,0,0:0:0:0:
36,192,22182,1,0,0:0:0:0:
329,192,22182,1,0,0:0:0:0:
475,192,22432,1,0,0:0:0:0:
182,192,22682,1,0,0:0:0:0:
329,192,22682,128,0,23182:0:0:0:0:
109,192,22932,1,0,0:0:0:0:
36,192,23182,1,0,0:0:0:0:
109,192,23432,1,0,0:0:0:0:
402,192,23432,1,0,0:0:0:0:
36,192,23682,1,0,0:0:0:0:
329,192,23682,1,0,0:0:0:0:
475,192,23932,1,0,0:0:0:0:
182,192,24182,1,0,0:0:0:0:
329,192,24182,1,0,0:0:0:0:
109,192,24432,1,0,0:0:0:0:
36,192,24682,1,0,0:0:0:0:
329,192,24682,1,0,0:0:0:0:
109,192,24932,1,0,0:0:0:0:
256,192,24932,1,0,0:0:0:0:
36,192,25182,1,0,0:0:0:0:
329,192,25182,1,0,0:0:0:0:
402,192,25432,1,0,0:0:0:0:
182,192,25682,1,0,0:0:0:0:
475,192,25682,128,0,26182:0:0:0:0:
109,192,25932,1,0,0:0:0:0:
36,192,26182,1,0,0:0:0:0:
109,192,26432,1,0,0:0:0:0:
475,192,26432,1,0,0:0:0:0:
36,192,26682,1,0,0:0:0:0:
402,192,26682,1,0,0:0:0:0:
475,192,26932,1,0,0:0:0:0:
182,192,27182,1,0,0:0:0:0:
329,192,27182,1,0,0:0:0:0:
109,192,27432,1,0,0:0:0:0:
36,192,27682,1,0,0:0:0:0:
402,192,27682,1,0,0:0:0:0:
109,192,27932,1,0,0:0:0:0:
36,192,28182,1,0,0:0:0:0:
475,192,28182,1,0,0:0:0:0:
402,192,28557,1,0,0:0:0:0:
329,192,28620,1,0,0:0:0:0:
182,192,28682,1,0,0:0:0:0:
256,192,28682,128,0,29182:0:0:0:0:
109,192,28932,1,0,0:0:0:0:
36,192,29182,1,0,0:0:0:0:
109,192,29432,1,0,0:0:0:0:
256,192,29432,1,0,0:0:0:0:
36,192,29682,1,0,0:0:0:0:
329,192,29682,1,0,0:0:0:0:
402,192,29932,1,0,0:0:0:0:
109,192,30182,128,0,30682:0:0:0:0:
182,192,30182,128,0,30682:0:0:0:0:
329,192,30182,1,0,0:0:0:0:
475,192,30182,1,0,0:0:0:0:
402,192,30682,1,0,0:0:0:0:
329,192,30932,1,0,0:0:0:0:
36,192,31182,1,0,0:0:0:0:
109,192,31182,1,0,0:0:0:0:
402,192,31182,1,0,0:0:0:0:
475,192,31432,1,0,0:0:0:0:
182,192,31682,1,0,0:0:0:0:
329,192,31682,128,0,32182:0:0:0:0:
109,192,31932,1,0,0:0:0:0:
36,192,32182,1,0,0:0:0:0:
109,192,32432,1,0,0:0:0:0:
475,192,32432,1,0,0:0:0:0:
36,192,32682,1,0,0:0:0:0:
329,192,32682,1,0,0:0:0:0:
402,192,32932,1,0,0:0:0:0:
36,192,33182,1,0,0:0:0:0:
329,192,33182,1,0,0:0:0:0:
109,192,33432,1,0,0:0:0:0:
182,192,33682,1,0,0:0:0:0:
256,192,33682,1,0,0:0:0:0:
329,192,33932,1,0,0:0:0:0:
109,192,34182,1,0,0:0:0:0:
402,192,34182,1,0,0:0:0:0:
475,192,34432,1,0,0:0:0:0:
182,192,34682,1,0,0:0:0:0:
402,192,34682,1,0,0:0:0:0:
109,192,34932,1,0,0:0:0:0:
36,192,35182,1,0,0:0:0:0:
475,192,35182,1,0,0:0:0:0:
402,192,35432,1,0,0:0:0:0:
109,192,35682,1,0,0:0:0:0:
329,192,35682,1,0,0:0:0:0:
256,192,35932,1,0,0:0:0:0:
109,192,36182,1,0,0:0:0:0:
329,192,36182,1,0,0:0:0:0:
36,192,36432,1,0,0:0:0:0:
182,192,36682,1,0,0:0:0:0:
256,192,36682,1,0,0:0:0:0:
329,192,36932,1,0,0:0:0:0:
109,192,37182,1,0,0:0:0:0:
475,192,37182,1,0,0:0:0:0:
402,192,37432,1,0,0:0:0:0:
182,192,37682,1,0,0:0:0:0:
475,192,37682,128,0,38182:0:0:0:0:
36,192,37932,1,0,0:0:0:0:
182,192,38182,1,0,0:0:0:0:
109,192,38432,1,0,0:0:0:0:
329,192,38432,1,0,0:0:0:0:
182,192,38682,1,0,0:0:0:0:
402,192,38682,1,0,0:0:0:0:
36,192,38932,1,0,0:0:0:0:
329,192,38932,1,0,0:0:0:0:
109,192,39182,1,0,0:0:0:0:
402,192,39182,128,0,39682:0:0:0:0:
182,192,39432,1,0,0:0:0:0:
36,192,39682,1,0,0:0:0:0:
109,192,39932,1,0,0:0:0:0:
256,192,39932,1,0,0:0:0:0:
182,192,40182,1,0,0:0:0:0:
329,192,40182,1,0,0:0:0:0:
402,192,40432,1,0,0:0:0:0:
36,192,40682,1,0,0:0:0:0:
329,192,40682,1,0,0:0:0:0:
109,192,40932,1,0,0:0:0:0:
36,192,41182,1,0,0:0:0:0:
475,192,41182,1,0,0:0:0:0:
182,192,41432,1,0,0:0:0:0:
36,192,41682,1,0,0:0:0:0:
402,192,41682,1,0,0:0:0:0:
109,192,42182,1,0,0:0:0:0:
329,192,42182,1,0,0:0:0:0:
182,192,42432,1,0,0:0:0:0:
36,192,42682,1,0,0:0:0:0:
329,192,42682,1,0,0:0:0:0:
182,192,42932,1,0,0:0:0:0:
256,192,42932,1,0,0:0:0:0:
36,192,43182,1,0,0:0:0:0:
329,192,43182,1,0,0:0:0:0:
109,192,43432,1,0,0:0:0:0:
402,192,43432,1,0,0:0:0:0:
182,192,43682,1,0,0:0:0:0:
475,192,43682,128,0,44182:0:0:0:0:
36,192,43932,1,0,0:0:0:0:
109,192,44182,1,0,0:0:0:0:
402,192,44432,1,0,0:0:0:0:
182,192,44682,1,0,0:0:0:0:
475,192,44682,1,0,0:0:0:0:
329,192,44932,1,0,0:0:0:0:
36,192,45182,1,0,0:0:0:0:
402,192,45182,1,0,0:0:0:0:
109,192,45432,1,0,0:0:0:0:
36,192,45682,1,0,0:0:0:0:
475,192,45682,1,0,0:0:0:0:
402,192,45932,1,0,0:0:0:0:
109,192,46182,1,0,0:0:0:0:
329,192,46182,1,0,0:0:0:0:
256,192,46432,1,0,0:0:0:0:
182,192,46682,1,0,0:0:0:0:
329,192,46682,1,0,0:0:0:0:
109,192,46932,1,0,0:0:0:0:
182,192,47182,1,0,0:0:0:0:
256,192,47182,1,0,0:0:0:0:
329,192,47432,1,0,0:0:0:0:
109,192,47682,1,0,0:0:0:0:
402,192,47682,1,0,0:0:0:0:
475,192,47932,1,0,0:0:0:0:
36,192,48182,1,0,0:0:0:0:
402,192,48182,1,0,0:0:0:0:
182,192,48432,1,0,0:0:0:0:
36,192,48682,1,0,0:0:0:0:
256,192,48682,1,0,0:0:0:0:
182,192,48932,1,0,0:0:0:0:
402,192,48932,1,0,0:0:0:0:
109,192,49182,1,0,0:0:0:0:
475,192,49182,1,0,0:0:0:0:
182,192,49432,1,0,0:0:0:0:
329,192,49432,1,0,0:0:0:0:
109,192,49682,1,0,0:0:0:0:
475,192,49682,1,0,0:0:0:0:
36,192,49932,1,0,0:0:0:0:
256,192,49932,1,0,0:0:0:0:
109,192,50182,1,0,0:0:0:0:
402,192,50182,128,0,50682:0:0:0:0:
36,192,50432,1,0,0:0:0:0:
109,192,50682,1,0,0:0:0:0:
36,192,50932,1,0,0:0:0:0:
329,192,50932,1,0,0:0:0:0:
109,192,51182,1,0,0:0:0:0:
256,192,51182,128,0,51682:0:0:0:0:
182,192,51432,1,0,0:0:0:0:
109,192,51682,1,0,0:0:0:0:
182,192,51932,1,0,0:0:0:0:
475,192,51932,1,0,0:0:0:0:
36,192,52182,1,0,0:0:0:0:
402,192,52182,1,0,0:0:0:0:
182,192,52432,1,0,0:0:0:0:
329,192,52432,1,0,0:0:0:0:
36,192,52682,1,0,0:0:0:0:
256,192,52682,1,0,0:0:0:0:
109,192,52932,1,0,0:0:0:0:
182,192,53182,1,0,0:0:0:0:
329,192,53182,1,0,0:0:0:0:
109,192,53432,1,0,0:0:0:0:
36,192,53682,1,0,0:0:0:0:
402,192,53682,1,0,0:0:0:0:
182,192,53932,1,0,0:0:0:0:
109,192,54182,1,0,0:0:0:0:
329,192,54182,128,0,55182:0:0:0:0:
475,192,54182,1,0,0:0:0:0:
36,192,54432,1,0,0:0:0:0:
182,192,54682,1,0,0:0:0:0:
36,192,54932,1,0,0:0:0:0:
182,192,55182,1,0,0:0:0:0:
256,192,55182,1,0,0:0:0:0:
109,192,55432,1,0,0:0:0:0:
182,192,55682,1,0,0:0:0:0:
402,192,55682,128,0,56682:0:0:0:0:
36,192,55932,1,0,0:0:0:0:
109,192,56182,1,0,0:0:0:0:
182,192,56432,1,0,0:0:0:0:
36,192,56682,1,0,0:0:0:0:
475,192,56682,1,0,0:0:0:0:
109,192,56932,1,0,0:0:0:0:
182,192,57182,1,0,0:0:0:0:
402,192,57182,128,0,57682:0:0:0:0:
36,192,57432,1,0,0:0:0:0:
109,192,57682,1,0,0:0:0:0:
36,192,57932,1,0,0:0:0:0:
475,192,57932,1,0,0:0:0:0:
182,192,58182,1,0,0:0:0:0:
402,192,58182,1,0,0:0:0:0:
329,192,58432,1,0,0:0:0:0:
36,192,58682,1,0,0:0:0:0:
402,192,58682,128,0,59182:0:0:0:0:
182,192,58932,1,0,0:0:0:0:
109,192,59182,1,0,0:0:0:0:
182,192,59432,1,0,0:0:0:0:
475,192,59432,1,0,0:0:0:0:
36,192,59682,1,0,0:0:0:0:
402,192,59682,1,0,0:0:0:0:
329,192,59932,1,0,0:0:0:0:
182,192,60182,1,0,0:0:0:0:
402,192,60182,128,0,60682:0:0:0:0:
36,192,60432,1,0,0:0:0:0:
109,192,60682,1,0,0:0:0:0:
36,192,60932,1,0,0:0:0:0:
256,192,60932,1,0,0:0:0:0:
182,192,61182,1,0,0:0:0:0:
402,192,61182,1,0,0:0:0:0:
329,192,61432,1,0,0:0:0:0:
36,192,61682,1,0,0:0:0:0:
475,192,61682,128,0,62182:0:0:0:0:
182,192,61932,1,0,0:0:0:0:
109,192,62182,1,0,0:0:0:0:
182,192,62432,1,0,0:0:0:0:
329,192,62432,1,0,0:0:0:0:
36,192,62682,1,0,0:0:0:0:
475,192,62682,1,0,0:0:0:0:
329,192,62932,1,0,0:0:0:0:
182,192,63182,1,0,0:0:0:0:
402,192,63182,128,0,63682:0:0:0:0:
36,192,63432,1,0,0:0:0:0:
109,192,63682,1,0,0:0:0:0:
36,192,63932,1,0,0:0:0:0:
329,192,63932,1,0,0:0:0:0:
182,192,64182,1,0,0:0:0:0:
402,192,64182,1,0,0:0:0:0:
329,192,64620,1,0,0:0:0:0:
36,192,64682,1,0,0:0:0:0:
475,192,64682,1,0,0:0:0:0:
256,192,64745,128,0,65182:0:0:0:0:
182,192,64932,1,0,0:0:0:0:
109,192,65182,1,0,0:0:0:0:
182,192,65432,1,0,0:0:0:0:
402,192,65432,1,0,0:0:0:0:
36,192,65682,1,0,0:0:0:0:
329,192,65682,1,0,0:0:0:0:
475,192,65932,1,0,0:0:0:0:
182,192,66182,1,0,0:0:0:0:
329,192,66182,1,0,0:0:0:0:
36,192,66432,1,0,0:0:0:0:
109,192,66682,1,0,0:0:0:0:
329,192,66682,1,0,0:0:0:0:
36,192,66932,1,0,0:0:0:0:
402,192,66932,1,0,0:0:0:0:
182,192,67182,1,0,0:0:0:0:
256,192,67182,1,0,0:0:0:0:
402,192,67432,1,0,0:0:0:0:
36,192,67682,1,0,0:0:0:0:
256,192,67682,1,0,0:0:0:0:
182,192,67932,1,0,0:0:0:0:
329,192,67932,1,0,0:0:0:0:
109,192,68182,1,0,0:0:0:0:
475,192,68182,1,0,0:0:0:0:
182,192,68432,1,0,0:0:0:0:
402,192,68432,1,0,0:0:0:0:
36,192,68682,1,0,0:0:0:0:
329,192,68682,1,0,0:0:0:0:
182,192,68932,1,0,0:0:0:0:
475,192,68932,1,0,0:0:0:0:
109,192,69182,1,0,0:0:0:0:
329,192,69182,128,0,69682:0:0:0:0:
182,192,69432,1,0,0:0:0:0:
36,192,69682,1,0,0:0:0:0:
182,192,69932,1,0,0:0:0:0:
402,192,69932,1,0,0:0:0:0:
36,192,70182,1,0,0:0:0:0:
329,192,70182,1,0,0:0:0:0:
256,192,70432,1,0,0:0:0:0:
109,192,70682,1,0,0:0:0:0:
329,192,70682,128,0,71182:0:0:0:0:
36,192,70932,1,0,0:0:0:0:
182,192,71182,1,0,0:0:0:0:
36,192,71432,1,0,0:0:0:0:
402,192,71432,1,0,0:0:0:0:
182,192,71682,1,0,0:0:0:0:
329,192,71682,1,0,0:0:0:0:
256,192,71932,1,0,0:0:0:0:
109,192,72182,1,0,0:0:0:0:
329,192,72182,1,0,0:0:0:0:
182,192,72432,1,0,0:0:0:0:
36,192,72682,1,0,0:0:0:0:
329,192,72682,1,0,0:0:0:0:
182,192,72932,1,0,0:0:0:0:
475,192,72932,1,0,0:0:0:0:
36,192,73182,1,0,0:0:0:0:
329,192,73182,1,0,0:0:0:0:
402,192,73432,1,0,0:0:0:0:
109,192,73682,1,0,0:0:0:0:
256,192,73682,128,0,74182:0:0:0:0:
36,192,73932,1,0,0:0:0:0:
182,192,74182,1,0,0:0:0:0:
36,192,74432,1,0,0:0:0:0:
256,192,74432,1,0,0:0:0:0:
182,192,74682,1,0,0:0:0:0:
402,192,74682,1,0,0:0:0:0:
256,192,74932,1,0,0:0:0:0:
109,192,75182,1,0,0:0:0:0:
329,192,75182,1,0,0:0:0:0:
182,192,75432,1,0,0:0:0:0:
36,192,75682,1,0,0:0:0:0:
402,192,75682,1,0,0:0:0:0:
182,192,75932,1,0,0:0:0:0:
36,192,76182,1,0,0:0:0:0:
256,192,76182,1,0,0:0:0:0:
402,192,76557,1,0,0:0:0:0:
329,192,76620,1,0,0:0:0:0:
109,192,76682,1,0,0:0:0:0:
475,192,76682,128,0,77182:0:0:0:0:
36,192,76932,1,0,0:0:0:0:
182,192,77182,1,0,0:0:0:0:
36,192,77432,1,0,0:0:0:0:
475,192,77432,1,0,0:0:0:0:
182,192,77682,1,0,0:0:0:0:
329,192,77682,1,0,0:0:0:0:
402,192,77932,1,0,0:0:0:0:
36,192,78182,128,0,78682:0:0:0:0:
109,192,78182,128,0,78682:0:0:0:0:
256,192,78182,1,0,0:0:0:0:
329,192,78182,1,0,0:0:0:0:
402,192,78682,1,0,0:0:0:0:
329,192,78932,1,0,0:0:0:0:
36,192,79182,1,0,0:0:0:0:
182,192,79182,1,0,0:0:0:0:
402,192,79182,1,0,0:0:0:0:
256,192,79432,1,0,0:0:0:0:
109,192,79682,1,0,0:0:0:0:
329,192,79682,128,0,80182:0:0:0:0:
182,192,79932,1,0,0:0:0:0:
36,192,80182,1,0,0:0:0:0:
182,192,80432,1,0,0:0:0:0:
256,192,80432,1,0,0:0:0:0:
36,192,80682,1,0,0:0:0:0:
329,192,80682,1,0,0:0:0:0:
402,192,80932,1,0,0:0:0:0:
182,192,81182,1,0,0:0:0:0:
329,192,81182,1,0,0:0:0:0:
36,192,81432,1,0,0:0:0:0:
109,192,81682,1,0,0:0:0:0:
475,192,81682,1,0,0:0:0:0:
182,192,81932,1,0,0:0:0:0:
329,192,81932,1,0,0:0:0:0:
36,192,82182,1,0,0:0:0:0:
402,192,82182,1,0,0:0:0:0:
182,192,82432,1,0,0:0:0:0:
256,192,82432,1,0,0:0:0:0:
109,192,82682,1,0,0:0:0:0:
402,192,82682,1,0,0:0:0:0:
36,192,82932,1,0,0:0:0:0:
182,192,83182,1,0,0:0:0:0:
256,192,83182,1,0,0:0:0:0:
109,192,83432,1,0,0:0:0:0:
402,192,83432,1,0,0:0:0:0:
36,192,83682,1,0,0:0:0:0:
329,192,83682,1,0,0:0:0:0:
475,192,83932,1,0,0:0:0:0:
36,192,84182,1,0,0:0:0:0:
329,192,84182,1,0,0:0:0:0:
182,192,84432,1,0,0:0:0:0:
109,192,84682,1,0,0:0:0:0:
475,192,84682,1,0,0:0:0:0:
182,192,84932,1,0,0:0:0:0:
329,192,84932,1,0,0:0:0:0:
36,192,85182,1,0,0:0:0:0:
256,192,85182,1,0,0:0:0:0:
402,192,85432,1,0,0:0:0:0:
109,192,85682,1,0,0:0:0:0:
256,192,85682,128,0,86182:0:0:0:0:
182,192,85932,1,0,0:0:0:0:
109,192,86182,1,0,0:0:0:0:
36,192,86432,1,0,0:0:0:0:
329,192,86432,1,0,0:0:0:0:
109,192,86682,1,0,0:0:0:0:
402,192,86682,1,0,0:0:0:0:
182,192,86932,1,0,0:0:0:0:
329,192,86932,1,0,0:0:0:0:
36,192,87182,1,0,0:0:0:0:
402,192,87182,128,0,87682:0:0:0:0:
109,192,87432,1,0,0:0:0:0:
182,192,87682,1,0,0:0:0:0:
36,192,87932,1,0,0:0:0:0:
475,192,87932,1,0,0:0:0:0:
109,192,88182,1,0,0:0:0:0:
329,192,88182,1,0,0:0:0:0:
402,192,88432,1,0,0:0:0:0:
182,192,88682,1,0,0:0:0:0:
329,192,88682,1,0,0:0:0:0:
36,192,88932,1,0,0:0:0:0:
182,192,89182,1,0,0:0:0:0:
256,192,89182,1,0,0:0:0:0:
109,192,89432,1,0,0:0:0:0:
182,192,89682,1,0,0:0:0:0:
402,192,89682,1,0,0:0:0:0:
36,192,90182,1,0,0:0:0:0:
329,192,90182,1,0,0:0:0:0:
475,192,90245,1,0,0:0:0:0:
402,192,90307,1,0,0:0:0:0:
109,192,90432,1,0,0:0:0:0:
182,192,90682,1,0,0:0:0:0:
329,192,90682,1,0,0:0:0:0:
109,192,90932,1,0,0:0:0:0:
475,192,90932,1,0,0:0:0:0:
182,192,91182,1,0,0:0:0:0:
329,192,91182,1,0,0:0:0:0:
36,192,91432,1,0,0:0:0:0:
402,192,91432,1,0,0:0:0:0:
109,192,91682,1,0,0:0:0:0:
256,192,91682,128,0,92182:0:0:0:0:
182,192,91932,1,0,0:0:0:0:
36,192,92182,1,0,0:0:0:0:
402,192,92432,1,0,0:0:0:0:
109,192,92682,1,0,0:0:0:0:
256,192,92682,1,0,0:0:0:0:
475,192,92682,1,0,0:0:0:0:
329,192,92932,1,0,0:0:0:0:
182,192,93182,1,0,0:0:0:0:
402,192,93182,1,0,0:0:0:0:
36,192,93432,1,0,0:0:0:0:
182,192,93682,1,0,0:0:0:0:
256,192,93682,1,0,0:0:0:0:
109,192,93932,1,0,0:0:0:0:
402,192,93932,1,0,0:0:0:0:
36,192,94182,1,0,0:0:0:0:
329,192,94182,1,0,0:0:0:0:
182,192,94432,1,0,0:0:0:0:
475,192,94432,1,0,0:0:0:0:
109,192,94682,1,0,0:0:0:0:
329,192,94682,1,0,0:0:0:0:
36,192,94932,1,0,0:0:0:0:
109,192,95182,1,0,0:0:0:0:
475,192,95182,1,0,0:0:0:0:
182,192,95432,1,0,0:0:0:0:
329,192,95432,1,0,0:0:0:0:
36,192,95682,1,0,0:0:0:0:
402,192,95682,1,0,0:0:0:0:
109,192,95932,1,0,0:0:0:0:
256,192,95932,1,0,0:0:0:0:
182,192,96182,1,0,0:0:0:0:
402,192,96182,1,0,0:0:0:0:
109,192,96432,1,0,0:0:0:0:
182,192,96682,1,0,0:0:0:0:
475,192,96682,1,0,0:0:0:0:
109,192,96932,1,0,0:0:0:0:
402,192,96932,1,0,0:0:0:0:
36,192,97182,1,0,0:0:0:0:
256,192,97182,1,0,0:0:0:0:
109,192,97432,1,0,0:0:0:0:
329,192,97432,1,0,0:0:0:0:
36,192,97682,1,0,0:0:0:0:
256,192,97682,1,0,0:0:0:0:
182,192,97932,1,0,0:0:0:0:
475,192,97932,1,0,0:0:0:0:
36,192,98182,1,0,0:0:0:0:
402,192,98182,128,0,98682:0:0:0:0:
182,192,98432,1,0,0:0:0:0:
36,192,98682,1,0,0:0:0:0:
182,192,98932,1,0,0:0:0:0:
256,192,98932,1,0,0:0:0:0:
36,192,99182,1,0,0:0:0:0:
329,192,99182,1,0,0:0:0:0:
402,192,99245,1,0,0:0:0:0:
475,192,99307,128,0,99682:0:0:0:0:
109,192,99432,1,0,0:0:0:0:
36,192,99682,1,0,0:0:0:0:
109,192,99932,1,0,0:0:0:0:
256,192,99932,1,0,0:0:0:0:
182,192,100182,1,0,0:0:0:0:
402,192,100182,1,0,0:0:0:0:
109,192,100432,1,0,0:0:0:0:
329,192,100432,1,0,0:0:0:0:
182,192,100682,1,0,0:0:0:0:
475,192,100682,1,0,0:0:0:0:
36,192,100932,1,0,0:0:0:0:
109,192,101182,1,0,0:0:0:0:
329,192,101182,1,0,0:0:0:0:
36,192,101432,1,0,0:0:0:0:
182,192,101682,1,0,0:0:0:0:
402,192,101682,1,0,0:0:0:0:
109,192,101932,1,0,0:0:0:0:
36,192,102182,1,0,0:0:0:0:
256,192,102182,1,0,0:0:0:0:
329,192,102182,128,0,103182:0:0:0:0:
182,192,102432,1,0,0:0:0:0:
109,192,102682,1,0,0:0:0:0:
182,192,102932,1,0,0:0:0:0:
109,192,103182,1,0,0:0:0:0:
475,192,103182,1,0,0:0:0:0:
36,192,103432,1,0,0:0:0:0:
109,192,103682,1,0,0:0:0:0:
402,192,103682,128,0,104465:0:0:0:0:
182,192,103932,1,0,0:0:0:0:
36,192,104182,1,0,0:0:0:0:
109,192,104465,1,0,0:0:0:0:
329,192,104465,1,0,0:0:0:0:
182,192,104749,1,0,0:0:0:0:
402,192,104749,1,0,0:0:0:0:
36,192,105055,1,0,0:0:0:0:
475,192,105055,1,0,0:0:0:0:
109,192,105361,1,0,0:0:0:0:
329,192,105361,128,0,105999:0:0:0:0:
402,192,105361,1,0,0:0:0:0:
109,192,105680,1,0,0:0:0:0:
109,192,105999,1,0,0:0:0:0:
109,192,106277,1,0,0:0:0:0:
475,192,106277,1,0,0:0:0:0:
109,192,106555,1,0,0:0:0:0:
402,192,106555,1,0,0:0:0:0:
109,192,106805,1,0,0:0:0:0:
329,192,106805,1,0,0:0:0:0:
182,192,107055,1,0,0:0:0:0:
402,192,107055,128,0,107555:0:0:0:0:
182,192,107305,1,0,0:0:0:0:
182,192,107555,1,0,0:0:0:0:
182,192,107805,1,0,0:0:0:0:
256,192,107805,1,0,0:0:0:0:
182,192,108055,1,0,0:0:0:0:
329,192,108055,1,0,0:0:0:0:
182,192,108305,1,0,0:0:0:0:
402,192,108305,1,0,0:0:0:0:
36,192,108555,1,0,0:0:0:0:
475,192,108555,1,0,0:0:0:0:
402,192,108617,1,0,0:0:0:0:
329,192,108680,128,0,109055:0:0:0:0:
36,192,108805,1,0,0:0:0:0:
36,192,109055,1,0,0:0:0:0:
36,192,109305,1,0,0:0:0:0:
475,192,109305,1,0,0:0:0:0:
36,192,109555,1,0,0:0:0:0:
36,192,109805,1,0,0:0:0:0:
402,192,109805,1,0,0:0:0:0:
109,192,110055,1,0,0:0:0:0:
329,192,110055,128,0,110600:0:0:0:0:
109,192,110327,1,0,0:0:0:0:
109,192,110600,1,0,0:0:0:0:
109,192,110868,1,0,0:0:0:0:
109,192,111136,1,0,0:0:0:0:
256,192,111136,1,0,0:0:0:0:
109,192,111378,1,0,0:0:0:0:
329,192,111378,1,0,0:0:0:0:
182,192,111620,1,0,0:0:0:0:
402,192,111620,128,0,112104:0:0:0:0:
182,192,111862,1,0,0:0:0:0:
182,192,112104,1,0,0:0:0:0:
182,192,112345,1,0,0:0:0:0:
329,192,112345,1,0,0:0:0:0:
182,192,112587,1,0,0:0:0:0:
402,192,112587,1,0,0:0:0:0:
182,192,112829,1,0,0:0:0:0:
475,192,112829,1,0,0:0:0:0:
36,192,113067,1,0,0:0:0:0:
402,192,113067,1,0,0:0:0:0:
36,192,113306,1,0,0:0:0:0:
36,192,113556,1,0,0:0:0:0:
402,192,113556,1,0,0:0:0:0:
36,192,113806,1,0,0:0:0:0:
475,192,113806,1,0,0:0:0:0:
36,192,114040,1,0,0:0:0:0:
402,192,114040,1,0,0:0:0:0:
36,192,114274,1,0,0:0:0:0:
256,192,114274,1,0,0:0:0:0:
109,192,114516,1,0,0:0:0:0:
329,192,114516,128,0,115000:0:0:0:0:
109,192,114758,1,0,0:0:0:0:
109,192,115000,1,0,0:0:0:0:
109,192,115242,1,0,0:0:0:0:
256,192,115242,1,0,0:0:0:0:
109,192,115453,1,0,0:0:0:0:
256,192,115453,1,0,0:0:0:0:
109,192,115688,1,0,0:0:0:0:
329,192,115688,1,0,0:0:0:0:
182,192,115922,1,0,0:0:0:0:
329,192,115922,1,0,0:0:0:0:
182,192,116153,1,0,0:0:0:0:
402,192,116153,1,0,0:0:0:0:
182,192,116384,1,0,0:0:0:0:
402,192,116384,1,0,0:0:0:0:
182,192,116607,1,0,0:0:0:0:
475,192,116607,1,0,0:0:0:0:
182,192,116831,1,0,0:0:0:0:
475,192,116831,1,0,0:0:0:0:
182,192,117062,1,0,0:0:0:0:
402,192,117062,1,0,0:0:0:0:
36,192,117293,1,0,0:0:0:0:
329,192,117293,128,0,117754:0:0:0:0:
402,192,117293,1,0,0:0:0:0:
36,192,117524,1,0,0:0:0:0:
36,192,117754,1,0,0:0:0:0:
36,192,117975,1,0,0:0:0:0:
402,192,117975,1,0,0:0:0:0:
36,192,118196,1,0,0:0:0:0:
329,192,118196,1,0,0:0:0:0:
36,192,118423,1,0,0:0:0:0:
256,192,118423,1,0,0:0:0:0:
109,192,118650,1,0,0:0:0:0:
329,192,118650,128,0,119105:0:0:0:0:
109,192,118877,1,0,0:0:0:0:
109,192,119105,1,0,0:0:0:0:
109,192,119332,1,0,0:0:0:0:
475,192,119332,1,0,0:0:0:0:
109,192,119559,1,0,0:0:0:0:
402,192,119559,1,0,0:0:0:0:
109,192,119786,1,0,0:0:0:0:
329,192,119786,1,0,0:0:0:0:
182,192,120014,1,0,0:0:0:0:
402,192,120014,1,0,0:0:0:0:
182,192,120241,1,0,0:0:0:0:
256,192,120241,1,0,0:0:0:0:
182,192,120468,1,0,0:0:0:0:
329,192,120468,1,0,0:0:0:0:
182,192,120696,1,0,0:0:0:0:
402,192,120696,1,0,0:0:0:0:
182,192,120923,1,0,0:0:0:0:
475,192,120923,1,0,0:0:0:0:
182,192,121150,1,0,0:0:0:0:
329,192,121150,1,0,0:0:0:0:
36,192,121377,1,0,0:0:0:0:
256,192,121377,128,0,121832:0:0:0:0:
36,192,121605,1,0,0:0:0:0:
36,192,121832,1,0,0:0:0:0:
36,192,122059,1,0,0:0:0:0:
475,192,122059,1,0,0:0:0:0:
36,192,122286,1,0,0:0:0:0:
475,192,122286,1,0,0:0:0:0:
36,192,122514,1,0,0:0:0:0:
402,192,122514,1,0,0:0:0:0:
109,192,122741,1,0,0:0:0:0:
329,192,122741,128,0,123196:0:0:0:0:
109,192,122968,1,0,0:0:0:0:
109,192,123196,1,0,0:0:0:0:
109,192,123423,1,0,0:0:0:0:
402,192,123423,1,0,0:0:0:0:
109,192,123650,1,0,0:0:0:0:
402,192,123650,1,0,0:0:0:0:
109,192,123877,1,0,0:0:0:0:
329,192,123877,1,0,0:0:0:0:
182,192,124105,1,0,0:0:0:0:
256,192,124105,1,0,0:0:0:0:
182,192,124332,1,0,0:0:0:0:
182,192,124559,1,0,0:0:0:0:
329,192,124559,128,0,125054:0:0:0:0:
182,192,124786,1,0,0:0:0:0:
182,192,125054,1,0,0:0:0:0:
182,192,125322,1,0,0:0:0:0:
475,192,125322,1,0,0:0:0:0:
402,192,125543,1,0,0:0:0:0:
256,192,125616,1,0,0:0:0:0:
329,192,125690,1,0,0:0:0:0:
36,192,125910,1,0,0:0:0:0:
475,192,125910,1,0,0:0:0:0:
36,192,126199,1,0,0:0:0:0:
475,192,126199,1,0,0:0:0:0:
182,192,126487,1,0,0:0:0:0:
329,192,126487,1,0,0:0:0:0:
182,192,126755,1,0,0:0:0:0:
329,192,126755,1,0,0:0:0:0:
109,192,127023,1,0,0:0:0:0:
402,192,127023,1,0,0:0:0:0:
109,192,127257,1,0,0:0:0:0:
402,192,127257,1,0,0:0:0:0:
182,192,127492,1,0,0:0:0:0:
329,192,127492,1,0,0:0:0:0:
182,192,127730,1,0,0:0:0:0:
329,192,127730,1,0,0:0:0:0:
256,192,127968,1,0,0:0:0:0:
402,192,127968,1,0,0:0:0:0:
256,192,128199,1,0,0:0:0:0:
402,192,128199,1,0,0:0:0:0:
329,192,128430,1,0,0:0:0:0:
475,192,128430,1,0,0:0:0:0:
36,192,128688,1,0,0:0:0:0:
182,192,128688,1,0,0:0:0:0:
402,192,128688,1,0,0:0:0:0:
329,192,128947,1,0,0:0:0:0:
475,192,128947,1,0,0:0:0:0:
329,192,129220,1,0,0:0:0:0:
475,192,129220,1,0,0:0:0:0:
182,192,129492,1,0,0:0:0:0:
402,192,129492,1,0,0:0:0:0:
182,192,129751,1,0,0:0:0:0:
402,192,129751,1,0,0:0:0:0:
109,192,130009,1,0,0:0:0:0:
329,192,130009,1,0,0:0:0:0:
109,192,130251,1,0,0:0:0:0:
329,192,130251,1,0,0:0:0:0:
36,192,130493,1,0,0:0:0:0:
402,192,130493,1,0,0:0:0:0:
36,192,130724,1,0,0:0:0:0:
402,192,130724,1,0,0:0:0:0:
109,192,130955,1,0,0:0:0:0:
475,192,130955,1,0,0:0:0:0:
109,192,131193,1,0,0:0:0:0:
475,192,131193,1,0,0:0:0:0:
182,192,131431,1,0,0:0:0:0:
402,192,131431,1,0,0:0:0:0:
36,192,131677,1,0,0:0:0:0:
256,192,131677,1,0,0:0:0:0:
109,192,131923,1,0,0:0:0:0:
402,192,131923,1,0,0:0:0:0:
109,192,132169,1,0,0:0:0:0:
402,192,132169,1,0,0:0:0:0:
182,192,132415,1,0,0:0:0:0:
329,192,132415,1,0,0:0:0:0:
182,192,132661,1,0,0:0:0:0:
329,192,132661,1,0,0:0:0:0:
256,192,132906,1,0,0:0:0:0:
402,192,132906,1,0,0:0:0:0:
256,192,133137,1,0,0:0:0:0:
402,192,133137,1,0,0:0:0:0:
182,192,133368,1,0,0:0:0:0:
475,192,133368,1,0,0:0:0:0:
182,192,133606,1,0,0:0:0:0:
475,192,133606,1,0,0:0:0:0:
36,192,133844,1,0,0:0:0:0:
329,192,133844,1,0,0:0:0:0:
36,192,134075,1,0,0:0:0:0:
329,192,134075,1,0,0:0:0:0:
109,192,134306,1,0,0:0:0:0:
402,192,134306,1,0,0:0:0:0:
182,192,134540,1,0,0:0:0:0:
329,192,134540,1,0,0:0:0:0:
475,192,134540,1,0,0:0:0:0:
256,192,134775,1,0,0:0:0:0:
402,192,134775,1,0,0:0:0:0:
256,192,135016,1,0,0:0:0:0:
402,192,135016,1,0,0:0:0:0:
109,192,135258,1,0,0:0:0:0:
329,192,135258,1,0,0:0:0:0:
109,192,135486,1,0,0:0:0:0:
329,192,135486,1,0,0:0:0:0:
36,192,135713,1,0,0:0:0:0:
182,192,135713,1,0,0:0:0:0:
36,192,135940,1,0,0:0:0:0:
329,192,135940,1,0,0:0:0:0:
109,192,136167,1,0,0:0:0:0:
402,192,136167,1,0,0:0:0:0:
109,192,136395,1,0,0:0:0:0:
475,192,136395,1,0,0:0:0:0:
182,192,136622,1,0,0:0:0:0:
402,192,136622,1,0,0:0:0:0:
182,192,136856,1,0,0:0:0:0:
329,192,136856,1,0,0:0:0:0:
109,192,137091,1,0,0:0:0:0:
256,192,137091,1,0,0:0:0:0:
36,192,137359,1,0,0:0:0:0:
329,192,137359,128,0,137894:0:0:0:0:
109,192,137626,1,0,0:0:0:0:
182,192,137894,1,0,0:0:0:0:
256,192,138125,1,0,0:0:0:0:
182,192,138356,1,0,0:0:0:0:
329,192,138356,1,0,0:0:0:0:
109,192,138580,1,0,0:0:0:0:
402,192,138580,1,0,0:0:0:0:
36,192,138804,1,0,0:0:0:0:
475,192,138804,1,0,0:0:0:0:
182,192,139028,1,0,0:0:0:0:
109,192,139251,1,0,0:0:0:0:
402,192,139251,1,0,0:0:0:0:
182,192,139479,1,0,0:0:0:0:
36,192,139706,1,0,0:0:0:0:
329,192,139706,1,0,0:0:0:0:
109,192,139965,1,0,0:0:0:0:
182,192,140223,1,0,0:0:0:0:
256,192,140223,128,0,141326:0:0:0:0:
36,192,140512,1,0,0:0:0:0:
109,192,140800,1,0,0:0:0:0:
36,192,141063,1,0,0:0:0:0:
109,192,141326,1,0,0:0:0:0:
329,192,141326,1,0,0:0:0:0:
182,192,141585,1,0,0:0:0:0:
36,192,141844,1,0,0:0:0:0:
402,192,141844,128,0,142916:0:0:0:0:
182,192,142102,1,0,0:0:0:0:
109,192,142361,1,0,0:0:0:0:
36,192,142639,1,0,0:0:0:0:
182,192,142916,1,0,0:0:0:0:
329,192,142916,1,0,0:0:0:0:
109,192,143291,1,0,0:0:0:0:
36,192,143791,1,0,0:0:0:0:
182,192,143791,1,0,0:0:0:0:
256,192,143791,1,0,0:0:0:0:
182,192,144166,1,0,0:0:0:0:
36,192,144541,1,0,0:0:0:0:
182,192,144541,1,0,0:0:0:0:
256,192,144541,1,0,0:0:0:0:
109,192,144841,1,0,0:0:0:0:
256,192,144841,1,0,0:0:0:0:
329,192,144841,1,0,0:0:0:0:
182,192,145141,1,0,0:0:0:0:
329,192,145141,1,0,0:0:0:0:
402,192,145141,1,0,0:0:0:0:
256,192,145405,1,0,0:0:0:0:
402,192,145405,1,0,0:0:0:0:
475,192,145405,1,0,0:0:0:0:
182,192,145668,1,0,0:0:0:0:
329,192,145668,1,0,0:0:0:0:
402,192,145668,1,0,0:0:0:0:
402,192,145918,1,0,0:0:0:0:
256,192,146168,1,0,0:0:0:0:
402,192,146168,1,0,0:0:0:0:
475,192,146168,1,0,0:0:0:0:
182,192,146431,1,0,0:0:0:0:
329,192,146431,1,0,0:0:0:0:
402,192,146431,1,0,0:0:0:0:
109,192,146694,1,0,0:0:0:0:
256,192,146694,1,0,0:0:0:0:
329,192,146694,1,0,0:0:0:0:
36,192,146972,1,0,0:0:0:0:
182,192,146972,1,0,0:0:0:0:
256,192,146972,1,0,0:0:0:0:
109,192,147250,1,0,0:0:0:0:
256,192,147250,1,0,0:0:0:0:
329,192,147250,1,0,0:0:0:0:
109,192,147527,1,0,0:0:0:0:
109,192,147805,1,0,0:0:0:0:
256,192,147805,1,0,0:0:0:0:
329,192,147805,1,0,0:0:0:0:
329,192,148064,1,0,0:0:0:0:
475,192,148064,1,0,0:0:0:0:
36,192,148322,1,0,0:0:0:0:
182,192,148322,1,0,0:0:0:0:
256,192,148322,1,0,0:0:0:0:
329,192,148568,1,0,0:0:0:0:
475,192,148568,1,0,0:0:0:0:
109,192,148814,1,0,0:0:0:0:
256,192,148814,1,0,0:0:0:0:
402,192,148814,1,0,0:0:0:0:
256,192,149052,1,0,0:0:0:0:
256,192,149290,1,0,0:0:0:0:
182,192,149536,1,0,0:0:0:0:
329,192,149536,1,0,0:0:0:0:
402,192,149536,1,0,0:0:0:0:
109,192,149782,1,0,0:0:0:0:
256,192,149782,1,0,0:0:0:0:
329,192,149782,1,0,0:0:0:0:
36,192,150050,1,0,0:0:0:0:
182,192,150050,1,0,0:0:0:0:
256,192,150050,1,0,0:0:0:0:
109,192,150318,1,0,0:0:0:0:
256,192,150318,1,0,0:0:0:0:
329,192,150318,1,0,0:0:0:0:
329,192,150586,1,0,0:0:0:0:
329,192,150854,1,0,0:0:0:0:
256,192,151122,1,0,0:0:0:0:
402,192,151122,1,0,0:0:0:0:
475,192,151122,1,0,0:0:0:0:
182,192,151376,1,0,0:0:0:0:
329,192,151376,1,0,0:0:0:0:
402,192,151376,1,0,0:0:0:0:
109,192,151630,1,0,0:0:0:0:
256,192,151630,1,0,0:0:0:0:
329,192,151630,1,0,0:0:0:0:
182,192,151884,1,0,0:0:0:0:
329,192,151884,1,0,0:0:0:0:
402,192,151884,1,0,0:0:0:0:
182,192,152134,1,0,0:0:0:0:
256,192,152384,1,0,0:0:0:0:
402,192,152384,1,0,0:0:0:0:
475,192,152384,1,0,0:0:0:0:
402,192,152630,1,0,0:0:0:0:
109,192,152876,1,0,0:0:0:0:
256,192,152876,1,0,0:0:0:0:
329,192,152876,1,0,0:0:0:0:
329,192,153114,1,0,0:0:0:0:
36,192,153352,1,0,0:0:0:0:
182,192,153352,1,0,0:0:0:0:
256,192,153352,1,0,0:0:0:0:
256,192,153590,1,0,0:0:0:0:
36,192,153828,1,0,0:0:0:0:
109,192,153828,1,0,0:0:0:0:
182,192,153828,1,0,0:0:0:0:
109,192,154067,1,0,0:0:0:0:
182,192,154067,1,0,0:0:0:0:
256,192,154067,1,0,0:0:0:0:
182,192,154305,1,0,0:0:0:0:
256,192,154305,1,0,0:0:0:0:
329,192,154305,1,0,0:0:0:0:
256,192,154543,1,0,0:0:0:0:
329,192,154543,1,0,0:0:0:0:
402,192,154543,1,0,0:0:0:0:
329,192,154781,1,0,0:0:0:0:
402,192,154781,1,0,0:0:0:0:
475,192,154781,1,0,0:0:0:0:
256,192,155031,1,0,0:0:0:0:
256,192,155281,1,0,0:0:0:0:
109,192,155531,1,0,0:0:0:0:
256,192,155531,1,0,0:0:0:0:
402,192,155531,1,0,0:0:0:0:
256,192,155799,1,0,0:0:0:0:
182,192,156067,1,0,0:0:0:0:
329,192,156067,1,0,0:0:0:0:
475,192,156067,1,0,0:0:0:0:
36,192,156355,1,0,0:0:0:0:
182,192,156355,1,0,0:0:0:0:
329,192,156355,1,0,0:0:0:0:
182,192,156614,1,0,0:0:0:0:
36,192,156872,1,0,0:0:0:0:
109,192,156872,1,0,0:0:0:0:
256,192,156872,1,0,0:0:0:0:
109,192,157122,1,0,0:0:0:0:
182,192,157122,1,0,0:0:0:0:
329,192,157122,1,0,0:0:0:0:
182,192,157372,1,0,0:0:0:0:
256,192,157372,1,0,0:0:0:0:
402,192,157372,1,0,0:0:0:0:
256,192,157607,1,0,0:0:0:0:
329,192,157607,1,0,0:0:0:0:
475,192,157607,1,0,0:0:0:0:
109,192,157841,1,0,0:0:0:0:
182,192,157841,1,0,0:0:0:0:
329,192,157841,1,0,0:0:0:0:
182,192,158075,1,0,0:0:0:0:
109,192,158310,1,0,0:0:0:0:
182,192,158310,1,0,0:0:0:0:
256,192,158310,1,0,0:0:0:0:
182,192,158541,1,0,0:0:0:0:
256,192,158541,1,0,0:0:0:0:
329,192,158541,1,0,0:0:0:0:
256,192,158771,1,0,0:0:0:0:
329,192,158771,1,0,0:0:0:0:
402,192,158771,1,0,0:0:0:0:
329,192,159006,1,0,0:0:0:0:
402,192,159006,1,0,0:0:0:0:
475,192,159006,1,0,0:0:0:0:
182,192,159240,1,0,0:0:0:0:
256,192,159240,1,0,0:0:0:0:
329,192,159240,1,0,0:0:0:0:
256,192,159508,1,0,0:0:0:0:
182,192,159776,1,0,0:0:0:0:
256,192,159776,1,0,0:0:0:0:
329,192,159776,1,0,0:0:0:0:
36,192,160076,1,0,0:0:0:0:
109,192,160076,1,0,0:0:0:0:
402,192,160076,1,0,0:0:0:0:
475,192,160076,1,0,0:0:0:0:
182,192,160376,1,0,0:0:0:0:
329,192,160376,1,0,0:0:0:0:
402,192,160376,1,0,0:0:0:0:
109,192,160682,1,0,0:0:0:0:
256,192,160682,1,0,0:0:0:0:
329,192,160682,1,0,0:0:0:0:
109,192,160988,1,0,0:0:0:0:
182,192,160988,1,0,0:0:0:0:
256,192,160988,1,0,0:0:0:0:
36,192,161266,1,0,0:0:0:0:
182,192,161266,1,0,0:0:0:0:
402,192,161266,1,0,0:0:0:0:
109,192,161508,1,0,0:0:0:0:
182,192,161508,1,0,0:0:0:0:
256,192,161508,1,0,0:0:0:0:
256,192,161754,1,0,0:0:0:0:
256,192,161999,1,0,0:0:0:0:
109,192,162245,1,0,0:0:0:0:
182,192,162245,1,0,0:0:0:0:
329,192,162245,1,0,0:0:0:0:
36,192,162523,1,0,0:0:0:0:
109,192,162523,1,0,0:0:0:0:
182,192,162523,1,0,0:0:0:0:
36,192,162806,1,0,0:0:0:0:
36,192,163089,1,0,0:0:0:0:
256,192,163372,1,0,0:0:0:0:
402,192,163372,1,0,0:0:0:0:
475,192,163372,1,0,0:0:0:0:
182,192,163622,1,0,0:0:0:0:
329,192,163622,1,0,0:0:0:0:
402,192,163622,1,0,0:0:0:0:
109,192,163853,1,0,0:0:0:0:
256,192,163853,1,0,0:0:0:0:
329,192,163853,1,0,0:0:0:0:
182,192,164084,1,0,0:0:0:0:
256,192,164084,1,0,0:0:0:0:
329,192,164084,1,0,0:0:0:0:
256,192,164311,1,0,0:0:0:0:
109,192,164538,1,0,0:0:0:0:
182,192,164538,1,0,0:0:0:0:
256,192,164538,1,0,0:0:0:0:
182,192,164773,1,0,0:0:0:0:
182,192,165007,1,0,0:0:0:0:
36,192,165241,1,0,0:0:0:0:
109,192,165241,1,0,0:0:0:0:
182,192,165241,1,0,0:0:0:0:
256,192,165541,1,0,0:0:0:0:
182,192,165724,1,0,0:0:0:0:
109,192,165863,1,0,0:0:0:0:
36,192,165990,1,0,0:0:0:0:
109,192,166090,1,0,0:0:0:0:
182,192,166190,1,0,0:0:0:0:
256,192,166290,1,0,0:0:0:0:
329,192,166390,1,0,0:0:0:0:
402,192,166490,1,0,0:0:0:0:
475,192,166590,1,0,0:0:0:0:
402,192,166666,1,0,0:0:0:0:
329,192,166742,1,0,0:0:0:0:
256,192,166818,1,0,0:0:0:0:
182,192,166893,1,0,0:0:0:0:
109,192,166969,1,0,0:0:0:0:
182,192,167045,1,0,0:0:0:0:
256,192,167121,1,0,0:0:0:0:
182,192,167196,1,0,0:0:0:0:
109,192,167272,1,0,0:0:0:0:
36,192,167348,1,0,0:0:0:0:
109,192,167424,1,0,0:0:0:0:
182,192,167499,1,0,0:0:0:0:
256,192,167575,1,0,0:0:0:0:
329,192,167651,1,0,0:0:0:0:
402,192,167727,1,0,0:0:0:0:
475,192,167802,1,0,0:0:0:0:
402,192,167878,1,0,0:0:0:0:
329,192,167954,1,0,0:0:0:0:
256,192,168030,1,0,0:0:0:0:
182,192,168106,1,0,0:0:0:0:
109,192,168181,1,0,0:0:0:0:
182,192,168257,1,0,0:0:0:0:
256,192,168333,1,0,0:0:0:0:
182,192,168409,1,0,0:0:0:0:
109,192,168484,1,0,0:0:0:0:
36,192,168560,1,0,0:0:0:0:
109,192,168636,1,0,0:0:0:0:
182,192,168712,1,0,0:0:0:0:
256,192,168787,1,0,0:0:0:0:
329,192,168863,1,0,0:0:0:0:
402,192,168939,1,0,0:0:0:0:
475,192,169015,1,0,0:0:0:0:
402,192,169086,1,0,0:0:0:0:
329,192,169157,1,0,0:0:0:0:
256,192,169229,1,0,0:0:0:0:
182,192,169300,1,0,0:0:0:0:
109,192,169372,1,0,0:0:0:0:
182,192,169443,1,0,0:0:0:0:
329,192,169515,1,0,0:0:0:0:
256,192,169586,1,0,0:0:0:0:
182,192,169657,1,0,0:0:0:0:
109,192,169729,1,0,0:0:0:0:
182,192,169800,1,0,0:0:0:0:
256,192,169872,1,0,0:0:0:0:
329,192,169943,1,0,0:0:0:0:
402,192,170015,1,0,0:0:0:0:
475,192,170086,1,0,0:0:0:0:
36,192,170157,1,0,0:0:0:0:
475,192,170232,1,0,0:0:0:0:
402,192,170307,1,0,0:0:0:0:
329,192,170382,1,0,0:0:0:0:
256,192,170457,1,0,0:0:0:0:
182,192,170532,1,0,0:0:0:0:
256,192,170607,1,0,0:0:0:0:
329,192,170682,1,0,0:0:0:0:
256,192,170757,1,0,0:0:0:0:
182,192,170832,1,0,0:0:0:0:
109,192,170907,1,0,0:0:0:0:
182,192,170982,1,0,0:0:0:0:
256,192,171057,1,0,0:0:0:0:
329,192,171132,1,0,0:0:0:0:
402,192,171207,1,0,0:0:0:0:
475,192,171282,1,0,0:0:0:0:
36,192,171357,1,0,0:0:0:0:
475,192,171430,1,0,0:0:0:0:
402,192,171503,1,0,0:0:0:0:
329,192,171576,1,0,0:0:0:0:
256,192,171649,1,0,0:0:0:0:
182,192,171722,1,0,0:0:0:0:
256,192,171794,1,0,0:0:0:0:
329,192,171867,1,0,0:0:0:0:
256,192,171940,1,0,0:0:0:0:
182,192,172013,1,0,0:0:0:0:
109,192,172086,1,0,0:0:0:0:
182,192,172158,1,0,0:0:0:0:
256,192,172231,1,0,0:0:0:0:
329,192,172304,1,0,0:0:0:0:
402,192,172377,1,0,0:0:0:0:
475,192,172450,1,0,0:0:0:0:
36,192,172523,1,0,0:0:0:0:
475,192,172619,1,0,0:0:0:0:
402,192,172715,1,0,0:0:0:0:
329,192,172811,1,0,0:0:0:0:
256,192,172907,1,0,0:0:0:0:
182,192,173003,1,0,0:0:0:0:
256,192,173099,1,0,0:0:0:0:
329,192,173196,1,0,0:0:0:0:
256,192,173292,1,0,0:0:0:0:
182,192,173388,1,0,0:0:0:0:
109,192,173484,1,0,0:0:0:0:
182,192,173580,1,0,0:0:0:0:
256,192,173676,1,0,0:0:0:0:
329,192,173773,1,0,0:0:0:0:
402,192,173869,1,0,0:0:0:0:
475,192,173965,1,0,0:0:0:0:
36,192,174061,1,0,0:0:0:0:
475,192,174224,1,0,0:0:0:0:
402,192,174387,1,0,0:0:0:0:
329,192,174570,1,0,0:0:0:0:
256,192,174753,1,0,0:0:0:0:
182,192,174936,1,0,0:0:0:0:
256,192,175119,1,0,0:0:0:0:
36,192,175302,128,0,177249:0:0:0:0:
475,192,175302,128,0,177249:0:0:0:0:
182,192,177249,1,0,0:0:0:0:
256,192,177947,1,0,0:0:0:0:
475,192,178716,1,0,0:0:0:0:
109,192,179300,1,0,0:0:0:0:
402,192,179383,1,0,0:0:0:0:
256,192,179468,1,0,0:0:0:0:
36,192,179553,1,0,0:0:0:0:
402,192,180065,1,0,0:0:0:0:
329,192,180323,1,0,0:0:0:0:
256,192,180582,1,0,0:0:0:0:
182,192,180841,1,0,0:0:0:0:
109,192,181035,1,0,0:0:0:0:
256,192,181099,1,0,0:0:0:0:
475,192,181164,1,0,0:0:0:0:
402,192,181229,1,0,0:0:0:0:
256,192,181616,1,0,0:0:0:0:
329,192,181875,1,0,0:0:0:0:
402,192,182134,1,0,0:0:0:0:
475,192,182392,1,0,0:0:0:0:
182,192,182586,1,0,0:0:0:0:
402,192,182651,1,0,0:0:0:0:
256,192,182716,1,0,0:0:0:0:
402,192,183168,1,0,0:0:0:0:
256,192,183427,1,0,0:0:0:0:
475,192,183685,1,0,0:0:0:0:
256,192,183944,1,0,0:0:0:0:
109,192,184203,1,0,0:0:0:0:
182,192,184203,1,0,0:0:0:0:
329,192,184203,128,0,184720:0:0:0:0:
402,192,184979,1,0,0:0:0:0:
475,192,185237,1,0,0:0:0:0:
402,192,185496,1,0,0:0:0:0:
109,192,185754,1,0,0:0:0:0:
256,192,185754,128,0,186272:0:0:0:0:
182,192,186207,1,0,0:0:0:0:
109,192,186272,1,0,0:0:0:0:
329,192,186336,1,0,0:0:0:0:
475,192,186530,1,0,0:0:0:0:
402,192,186789,1,0,0:0:0:0:
329,192,187048,1,0,0:0:0:0:
182,192,187306,1,0,0:0:0:0:
402,192,187306,1,0,0:0:0:0:
36,192,187759,1,0,0:0:0:0:
329,192,187823,1,0,0:0:0:0:
109,192,187888,1,0,0:0:0:0:
256,192,187953,1,0,0:0:0:0:
475,192,188341,1,0,0:0:0:0:
36,192,188858,1,0,0:0:0:0:
182,192,188858,1,0,0:0:0:0:
36,192,189375,1,0,0:0:0:0:
182,192,189375,1,0,0:0:0:0:
256,192,189634,1,0,0:0:0:0:
109,192,189892,1,0,0:0:0:0:
329,192,189892,1,0,0:0:0:0:
402,192,190151,1,0,0:0:0:0:
182,192,190410,1,0,0:0:0:0:
475,192,190410,128,0,190927:0:0:0:0:
109,192,190927,1,0,0:0:0:0:
256,192,190927,1,0,0:0:0:0:
402,192,191185,1,0,0:0:0:0:
109,192,191444,1,0,0:0:0:0:
329,192,191444,1,0,0:0:0:0:
256,192,191703,1,0,0:0:0:0:
36,192,191961,1,0,0:0:0:0:
182,192,191961,1,0,0:0:0:0:
109,192,192220,1,0,0:0:0:0:
36,192,192479,1,0,0:0:0:0:
182,192,192479,1,0,0:0:0:0:
256,192,192737,1,0,0:0:0:0:
109,192,192996,1,0,0:0:0:0:
329,192,192996,1,0,0:0:0:0:
402,192,193254,1,0,0:0:0:0:
182,192,193513,1,0,0:0:0:0:
256,192,193513,1,0,0:0:0:0:
109,192,193772,1,0,0:0:0:0:
182,192,194030,1,0,0:0:0:0:
256,192,194030,1,0,0:0:0:0:
329,192,194289,1,0,0:0:0:0:
109,192,194548,1,0,0:0:0:0:
402,192,194548,1,0,0:0:0:0:
475,192,194806,1,0,0:0:0:0:
182,192,195065,1,0,0:0:0:0:
329,192,195065,1,0,0:0:0:0:
109,192,195517,1,0,0:0:0:0:
329,192,195582,1,0,0:0:0:0:
182,192,195647,1,0,0:0:0:0:
475,192,195841,1,0,0:0:0:0:
402,192,196099,1,0,0:0:0:0:
329,192,196358,1,0,0:0:0:0:
182,192,196616,1,0,0:0:0:0:
256,192,196616,1,0,0:0:0:0:
475,192,196875,1,0,0:0:0:0:
109,192,197134,1,0,0:0:0:0:
256,192,197134,128,0,197651:0:0:0:0:
36,192,197651,1,0,0:0:0:0:
329,192,197910,1,0,0:0:0:0:
182,192,198104,1,0,0:0:0:0:
109,192,198168,1,0,0:0:0:0:
402,192,198168,128,0,198685:0:0:0:0:
256,192,198233,1,0,0:0:0:0:
475,192,198944,1,0,0:0:0:0:
402,192,199203,1,0,0:0:0:0:
329,192,199461,1,0,0:0:0:0:
109,192,199655,1,0,0:0:0:0:
256,192,199720,1,0,0:0:0:0:
36,192,199785,1,0,0:0:0:0:
402,192,199849,1,0,0:0:0:0:
329,192,200237,1,0,0:0:0:0:
402,192,200754,1,0,0:0:0:0:
256,192,201142,1,0,0:0:0:0:
329,192,201207,1,0,0:0:0:0:
475,192,201272,128,0,202343:0:0:0:0:
402,192,201339,1,0,0:0:0:0:
402,192,202343,1,0,0:0:0:0:
109,192,202931,128,0,204549:0:0:0:0:
329,192,203005,128,0,204549:0:0:0:0:
